#TITLE:Nightmoves;
#SUBTITLE:;
#ARTIST:Playmaker;
#TITLETRANSLIT:;
#SUBTITLETRANSLIT:;
#ARTISTTRANSLIT:;
#GENRE:Pop;
#CREDIT:;
#BANNER:Nightmoves-bn.png;
#BACKGROUND:Nightmoves-bg.png;
#LYRICSPATH:;
#CDTITLE:;
#MUSIC:Nightmoves.ogg;
#OFFSET:-0.027;
#SAMPLESTART:7.380;
#SAMPLELENGTH:11.860;
#SELECTABLE:YES;
#BPMS:0.000=130.010;
#STOPS:;
#BGCHANGES:0.069=Nightmoves.mpg=1.000=1=0=0=StretchNoLoop==CrossFade==,
225.000=Nightmoves-bg.png=1.000=1=0=1===CrossFade==,
99999=-nosongbg-=1.000=0=0=0 // don't automatically add -songbackground-;
#KEYSOUNDS:;

//---------------dance-double - M. Emirzian----------------
#NOTES:
     dance-double:
     M. Emirzian:
     Easy:
     4:
     0.252,0.261,0.093,0.000,0.000,179.000,10.000,0.000,0.000,0.000,0.000,0.252,0.261,0.093,0.000,0.000,179.000,10.000,0.000,0.000,0.000,0.000:
00000000
00000000
00000000
00000000
,
00000000
00000000
00000000
00000000
,
00000000
00000000
00000000
00000000
,
00000000
00000000
00000000
00000000
,
00100000
00000000
10000000
01000000
00000000
00000000
00100000
00000000
,
00010000
00000000
01000000
00001000
00000000
00000000
00010000
00000000
,
00000100
00000000
00001000
00000100
00000000
00000000
00001000
00000000
,
00000010
00000000
00001000
00000001
00000000
00000000
00000100
00000000
,
00001000
00000000
00000100
00000001
00000000
00000000
00000100
00000000
,
00000010
00000000
00001000
00000010
00000000
00000000
00010000
00000000
,
00001000
00000000
01000000
00001000
00000000
00000000
01000000
00000000
,
00010000
10000000
01000000
00010000
,
01000000
00000000
10000000
00000000
,
00010000
00000000
00001000
00001000
,
00010000
00000000
00000100
00000000
,
00000010
00000000
00000000
00000001
,
00000001
00000000
00000100
00000010
00000000
00000000
00000100
00000000
,
00000100
00000000
00000010
00001000
00000000
00000000
00000100
00000000
,
00000100
00000000
00010000
00001000
00000000
00000000
01000000
00000000
,
01000000
00000000
00010000
00100000
00000000
00000000
01000000
00000000
,
01000000
00000000
00100000
00010000
00000000
00000000
10000000
00000000
,
10000000
00000000
00100000
01000000
00000000
00000000
00010000
00000000
,
00010000
00000000
00100000
00001000
00000000
00000000
00010000
00000000
,
00001000
00010000
00000100
00010100
,
00010000
00001000
00000100
00000001
,
00001000
00000100
00000010
00000001
,
00001000
00000010
00000100
00001000
,
00010000
01000000
10000000
00010000
,
01000000
00100000
10000000
01000000
,
00100000
00010000
00100000
00001000
,
00010000
00000100
00001000
00000010
,
00001000
00000100
00000010
00000011
,
00001000
00000000
00000000
00000000
,
00000100
00000000
00000000
00000000
,
00100000
00000000
00000000
00000000
,
00001000
00000000
00000000
00000000
,
01000000
00000000
00000000
00000000
,
00000100
00000000
00000000
00000000
,
00000010
00000000
00000000
00000000
,
00001000
00000000
00000001
00000000
,
00001000
00000000
00000100
00001000
00000000
00000000
00000010
00000000
,
00000010
00000000
00001000
00000100
00000000
00000000
00010000
00000000
,
00001000
00000000
01000000
00001000
00000000
00000000
00100000
00000000
,
01000000
00000000
10000000
00010000
00000000
00000000
01000000
00000000
,
00001000
00000000
00010000
00001000
00000000
00000000
00010000
00000000
,
00010000
00000000
00001000
01000000
00000000
00000000
00001000
00000000
,
00001000
00000000
00010000
00000010
00000000
00000000
00001000
00000000
,
00000100
00000010
00000001
00001000
,
00000100
00010000
00011000
00001000
,
01000000
00100000
01010000
10000000
,
01000000
00100000
00110000
00001000
,
00010000
00000100
00010100
00010000
,
00000010
00001000
00001010
00000001
,
00001000
00000100
00001100
00001000
,
00000010
00010000
00010010
00010000
,
00001000
01000000
01010000
00100000
,
10000000
00000000
00000000
00000000
;

//---------------dance-double - M. Emirzian----------------
#NOTES:
     dance-double:
     M. Emirzian:
     Medium:
     5:
     0.309,0.340,0.149,0.000,0.000,216.000,16.000,0.000,0.000,0.000,0.000,0.309,0.340,0.149,0.000,0.000,216.000,16.000,0.000,0.000,0.000,0.000:
00000000
00000000
00000000
00000000
,
00000000
00000000
00000000
00000000
,
00000000
00000000
00000000
00000000
,
00000000
00000000
00000000
00000000
,
00100000
00000000
10000000
00000000
00010000
01000000
00100000
00000000
,
10000000
00010000
01000000
00100000
,
10000000
00000000
01000000
00000000
00100000
00010000
10000000
00000000
,
01000000
00000000
00100000
00000000
00010000
10000000
01000000
00000000
,
00100000
00000000
00001000
00000000
00100000
00001000
00010000
00000000
,
00001000
00100000
00001000
00010000
,
00000100
00000000
00001000
00000000
00000100
00001000
00000001
00000000
,
00001000
00000000
00000100
00000000
00001000
00000001
00000100
00000000
,
00000010
00000000
00001000
00000000
,
00010000
00000000
01000000
00000000
,
00100000
00000000
10000000
00000000
,
01000000
00000000
00000000
00100000
,
00100000
00000000
00010000
00000000
10000000
01000000
00100000
00000000
,
00010000
10000000
01000000
00100000
,
00010000
00000000
01000000
00000000
00001000
01000000
00010000
00000000
,
01000000
00000000
00001000
00000000
01000000
00001000
00010000
00000000
,
00000010
00000000
00010000
00000000
00000100
00001000
00000010
00000000
,
00001000
00000100
00000010
00000001
,
00000100
00000000
00000010
00000000
00001000
00000010
00000100
00000000
,
00000010
00001010
00010000
00011000
,
00100000
00000000
00001000
00000000
00100000
00001000
00010000
00000000
,
00001000
00100000
00001000
00010000
,
00100000
00000000
01000000
00000000
00010000
01000000
00100000
00000000
,
10000000
00000000
00010000
00000000
01000000
00100000
10000000
00000000
,
01000000
00000000
00100000
00000000
00010000
00100000
01000000
00000000
,
00100000
00010000
00100000
01000000
,
00100000
00000000
00010000
00000000
00100000
01000000
10000000
00000000
,
00100000
01010000
00001000
00011000
,
00000100
00000000
00000010
00000000
,
00000001
00000000
00010000
00000000
,
00001000
00000000
10000000
00000000
,
01000000
00000000
00100000
00000000
,
00000100
00000000
00000010
00000000
,
00000001
00000000
00001000
00000000
,
00000010
00000000
00010000
00000000
,
01000000
00000000
10000000
00010000
,
10000000
00000000
01000000
00000000
00100000
00010000
10000000
00000000
,
01000000
00100000
00010000
10000000
,
00100000
00000000
01000000
00000000
00001000
01000000
00010000
00000000
,
01000000
00000000
00001000
00000000
00100000
00010000
01000000
00000000
,
00001000
00000000
00010000
00000000
00000010
00001000
00000100
00000000
,
00010000
00000010
00001000
00000100
,
00010000
00000000
00000010
00000000
00001000
00000100
00000010
00000000
,
00000001
00000000
00001000
00000000
00000010
00000100
00000001
00000000
,
00001000
00000000
00000010
00000100
00000001
00000100
00000010
00000000
,
00001000
00010100
00011000
00010100
,
00001000
00000000
00010000
00001000
01000000
00001000
00010000
00000000
,
00100000
01010000
01001000
01010000
,
00100000
00000000
01000000
00010000
01000000
00100000
10000000
00000000
,
01000000
00110000
00101000
00110000
,
01000000
00000000
00001000
01000000
00001000
00010000
00001000
00000000
,
00000010
00001100
00010100
00001100
,
00000010
00000000
00000000
00000000
;

//---------------dance-double - M. Emirzian----------------
#NOTES:
     dance-double:
     M. Emirzian:
     Hard:
     8:
     0.524,0.450,0.187,0.028,0.453,370.000,20.000,3.000,0.000,0.000,0.000,0.524,0.450,0.187,0.028,0.453,370.000,20.000,3.000,0.000,0.000,0.000:
00000000
00000000
00000000
00000000
,
00000000
00000000
00000000
00000000
,
10000000
00010000
00000000
01000000
00100000
10000000
00000000
00010000
,
01000000
00100000
00000000
01000000
00001000
00010000
00000000
00000010
,
00001000
00000000
00001000
00000001
00000000
00000000
00000100
00000000
00000010
00000000
00000010
00001000
00000000
00000000
00000100
00000000
,
00010000
00000000
00001000
00010000
00000000
00000000
00001000
00000000
01000000
00000000
00100000
00000000
10000000
00000000
10000000
00000000
,
01000000
00000000
01000000
00100000
00000000
00000000
00010000
00000000
10000000
00000000
10000000
01000000
00000000
00000000
00100000
00000000
,
00010000
00000000
01000000
00010000
00000000
00000000
01000000
00000000
00001000
00010000
00000000
00001000
00000000
00000000
00010000
00000000
,
00000100
00000000
00001000
00000100
00000000
00000100
00001000
00000000
00000000
00000000
00000010
00000100
00000000
00000100
00000001
00000000
,
00000000
00000000
00000010
00000100
00000000
00000100
00001000
00000000
00000010
00000000
00001000
00000000
00000100
00000000
00000010
00000000
,
00000000
00000000
00000001
00001000
00000000
00001000
00000100
00000000
00000000
00000000
00010000
00001000
00000000
00001000
01000000
00000000
,
00000000
00000000
00100000
00000000
01000000
00000000
00010000
00000000
01000000
00100000
00000000
10000000
00000000
00100000
01000000
00000000
,
00010000
00000000
00000000
10000000
00000000
00000000
00000000
00000000
10000000
00000000
00000000
01000000
00000000
00000000
00100000
00000000
,
00010000
00000000
00000000
01000000
00000000
00000000
00000000
00000000
00001000
00000000
00000000
00010000
00000000
00000000
00000000
00000000
,
00000001
00000000
00000000
00001000
00000000
00000000
00000000
00000000
00000001
00000000
00000000
00001000
00000000
00000000
00000000
00000000
,
00000001
00000000
00000000
00001000
00000000
00000000
00000000
00000000
00000010
00000000
00000000
00000100
00000000
00000000
00000001
00000000
,
00001000
00000000
00001000
00000100
00000000
00000000
00001000
00000000
00000100
00010000
00000000
00010000
00000000
00000000
00001000
00000000
,
01000000
00000000
00010000
01000000
00000000
00000000
01000000
00000000
00100000
10000000
00000000
10000000
00000000
00000000
00000000
00000000
,
00100000
00000000
01000000
00010000
00000000
00000000
00100000
00000000
00001000
00010000
00000000
00010000
00000000
00000000
00010000
00000000
,
00001000
00000000
01000000
00001000
00000000
00000000
00010000
00000000
00000010
00001000
00000000
00000001
00000000
00000000
00001000
00000000
,
00000100
00000000
00000010
00000001
00000000
00000001
00001000
00000000
00000000
00000000
00000010
00000100
00000000
00000100
00001000
00000000
,
00000000
00000000
00010000
00001000
00000000
00001000
01000000
00000000
00100000
00000000
00010000
00000000
00001000
00000000
01000000
00000000
,
00000000
00000000
00100000
01000000
00000000
00010000
10000000
00000000
00000000
00000000
01000000
00100000
00000000
00010000
00100000
00000000
,
01000000
01100000
00011000
00010010
,
00001000
00000000
00001000
00000100
00000000
00000000
00000010
00000000
00000001
00001000
00000000
00001000
00000000
00000000
00000010
00000000
,
00000100
00000000
00000100
00000010
00000000
00000000
00001000
00000000
00000100
00010000
00000000
00010000
00000000
00000000
00000000
00000000
,
00001000
00000000
00010000
00000100
00000000
00000000
00010000
00000000
00001000
00100000
00000000
00100000
00000000
00000000
01000000
00000000
,
10000000
00000000
01000000
00100000
00000000
00000000
00010000
00000000
01000000
00100000
00000000
00100000
00000000
00000000
01000000
00000000
,
00001000
00000000
00010000
00000100
00000000
00001000
00000100
00000000
00000000
00000000
00000010
00000100
00000000
00001000
00000100
00000000
,
00000000
00000000
00000010
00000001
00000000
00001000
00000100
00000000
00000010
00000000
00000001
00000000
00000100
00000000
00000010
00000000
,
00000000
00000000
00010000
00000100
00000000
00010000
00001000
00000000
00000000
00000000
01000000
00001000
00000000
00010000
00000010
00000000
,
00001000
00001100
01010000
00110000
,
01000000
00000000
10000000
10000000
00000000
00010000
01000000
00001000
,
00000000
00010000
00010000
00000000
00010100
00000000
00000000
00000000
,
00000010
00000000
00001000
00001000
00000000
00000010
00001000
00000100
,
00000000
00000010
00000010
00000000
00000011
00000000
00000000
00000000
,
00001000
00000100
00001100
00000000
00010000
00001000
01001000
00000000
,
00010000
00001000
00010100
00000000
00011000
00000000
00010000
00000000
,
00001000
01000000
00100000
10000000
,
01000000
00000000
00100000
00202000
00000000
00000000
00303000
00000000
,
00100000
00000000
00010000
00100000
00000000
00000000
00001000
00000000
01000000
00001000
00000000
00001000
00000000
00000000
00001000
00000000
,
00010000
00000000
00010000
00000100
00000000
00000000
00010000
00000000
00000100
00001000
00000000
00000010
00000000
00000000
00001000
00000000
,
00000100
00000000
00000010
00000001
00000000
00000000
00000001
00000000
00000010
00000001
00000000
00000001
00000000
00000000
00001000
00000000
,
00000100
00000000
00000100
00001000
00000000
00000000
00000010
00000000
00010000
00001000
00000000
01000000
00000000
00000000
00001000
00000000
,
00010000
00000000
00000010
00001000
00000000
00000100
00001000
00000000
00000000
00000000
00000100
00010000
00000000
00001000
01000000
00000000
,
00000000
00000000
00010000
00100000
00000000
00010000
01000000
00000000
00100000
00000000
10000000
00000000
01000000
00000000
00100000
00000000
,
00000000
00000000
00010000
01000000
00000000
01000000
00001000
00000000
00000000
00000000
00010000
00001000
00000000
00001000
00000100
00000000
,
00000000
00000000
00000001
00001000
00000000
00001000
00000100
00000000
00000010
00000000
00000001
00000000
00000100
00000000
00000000
00000000
,
00000010
00001000
00000010
00000100
00000010
00001000
00000010
00010000
,
00000100
00010000
00001000
01000000
00100000
00010000
00001000
00000000
,
01000000
00010000
10010000
00000000
01000000
00100000
00110000
00000000
,
00100000
00001000
00011000
00000000
01001000
00000000
00011000
00000000
,
00010000
00000100
00001000
00000100
00000010
00000100
00001000
00000100
,
00000010
00000100
00001000
00000010
00010000
00001000
01000000
00000000
,
00010000
00100000
01000000
00100000
10000000
00100000
00010000
01000000
,
00001000
00000000
00010000
00000100
00001100
00000000
00001001
00000000
,
00000020
00000000
00000000
00000030
;

//---------------dance-double - M. Emirzian----------------
#NOTES:
     dance-double:
     M. Emirzian:
     Challenge:
     10:
     0.731,0.636,0.252,0.028,1.000,518.000,27.000,3.000,6.000,0.000,0.000,0.731,0.636,0.252,0.028,1.000,518.000,27.000,3.000,6.000,0.000,0.000:
00000000
00000000
00000000
00000000
,
00000000
00000000
00000000
00000000
,
10000000
00000000
00100000
01000000
00000000
00010000
10000000
01000000
00100000
00000000
01000000
00100000
00000000
00010000
10000000
00000000
,
01000000
00000000
00100000
00010000
00000000
10000000
01000000
00000000
10000000
00000000
00100000
01000000
00000000
00000000
00010000
00000000
,
01000000
00000000
00001000
00010000
00000000
00010000
00000100
00001000
00000010
00000000
00000100
00000001
00000000
00000001
00001000
00000100
,
00000010
00000000
00000100
00001000
00000000
00001000
00000010
00010000
00001000
00000000
00010000
00000100
00000000
00000100
00010000
00001000
,
01000000
00000000
00010000
00100000
00000000
00100000
00001000
00010000
00000010
00000000
00001000
00000100
00000000
00000100
00010000
00001000
,
00100000
00000000
00010000
01000000
00000000
01000000
00100000
10000000
00010000
01000000
00000000
01100000
00000000
10000000
00010000
00000000
,
10000000
00000000
01000000
00100000
00000000
00100000
00010000
01000000
00001000
00000000
00010000
00000100
00000000
00000100
00010000
00001000
,
00010000
00000000
00000010
00001000
00000000
00001000
00000100
00000010
00000001
00000000
00001000
00000100
00000000
00000010
00000001
00001000
,
00000100
00000000
00000010
00000100
00000000
00001000
00000001
00000100
00000010
00000000
00001000
00000010
00000000
00000010
00010000
00001000
,
01000000
00000000
00001000
00010000
00000000
00010000
00001000
01000000
00010000
00100000
00000000
01100000
00000000
10000000
01000000
00000000
,
00100000
00000000
00010000
01000000
00000000
01000000
00100000
00000000
01000000
00001000
00000000
00010000
00000000
00010000
00100000
00000000
,
10000000
00000000
01000000
00100000
00000000
00100000
00010000
00000000
00100000
00001000
00000000
00100000
00000000
00000010
00010000
00000000
,
00000100
00001000
00000000
00000010
00000000
00001000
00000100
00000000
00000010
00000001
00000000
00000100
00000000
00000001
00000010
00000000
,
00000100
00001000
00000000
00000010
00000000
00010000
00001000
00000000
00101000
00000000
00000000
00000000
00011000
00000000
00000000
00000000
,
00010100
00000000
00010000
00001000
00000000
00001000
01000000
00010000
01000000
00100000
00000000
10000000
00000000
01000000
00100000
00000000
,
00010000
00000000
10000000
00100000
00000000
00100000
01000000
00000000
00001000
00010000
00000000
00000010
00000000
00010000
00001000
00000000
,
00000010
00000000
00000100
00001000
00000000
00000001
00000100
00000010
00001000
00000001
00000000
00000010
00000000
00000100
00001000
00000000
,
00000010
00000000
00010000
00001000
00000000
00001000
00000100
00000000
00000100
00001000
00000000
01000000
00000000
00001000
00010000
00000000
,
00001000
00000000
00100000
00000010
00000000
00010000
00001000
01000000
00000100
00010000
00000000
00001000
00000000
00100000
00000010
00000000
,
00010000
00000000
00001000
01000000
00000000
01000000
00100000
00000000
10000000
01000000
00000000
00100000
00000000
01000000
10000000
00000000
,
01000000
00000000
00100000
00001000
00000000
00010000
00000010
00001000
00000100
00000010
00000000
00000100
00000000
00001000
00000010
00000000
,
00001001
00010100
01001000
10100000
,
10000000
00000000
01000000
00100000
00000000
00010000
10000000
01000000
00100000
00010000
00000000
00M10000
00000000
00010000
01000000
00000000
,
00100000
00000000
01000000
00001000
00000000
00010000
00000010
00000000
00001000
00000100
00000000
0000M100
00000000
00000100
00000010
00000000
,
00000001
00000000
00001000
00000010
00000000
00000100
00000001
00000010
00000100
00001000
00000000
00001M00
00000000
00001000
00000010
00000000
,
00010000
00000000
00001000
01000000
00000000
00010000
00100000
00000000
01000000
10000000
00000000
1M000000
00000000
10000000
00100000
00000000
,
01000000
00000000
00001000
01000000
00000000
00000100
00010000
00001000
00100000
00001000
00000000
00010000
00000000
00001000
00000100
00000000
,
00000001
00000000
00000010
00000100
00000000
00000100
00001000
00000000
00001000
00000010
00000000
00000M10
00000000
00000010
00010000
00000000
,
00001000
00000000
01000000
00010000
00000000
00100000
01000000
10000000
00010000
00100000
00000000
001M0000
00000000
00100000
00001000
00000000
,
00011000
01001000
00010010
00000011
,
00001000
00000000
00000010
00001000
00000000
00001000
00000100
00000000
00000000
00000000
00100000
00010000
00000000
00010000
01000000
00000000
,
00000000
00000000
00000010
00000100
00000000
00000100
00000001
00000000
00000000
00000000
00100000
01000000
00000000
01000000
10000000
00000000
,
00000000
00000000
00000010
00010000
00000000
00010000
00100000
00000000
00000000
00000000
01000000
00001000
00000000
00001000
00000100
00000000
,
00000000
00000000
00000001
00001000
00000000
00001000
00000010
00000000
00000000
00000000
10000000
00010000
00000000
00010000
01000000
00000000
,
00000000
00000000
00001000
00010000
00000000
00000010
00000100
00000000
00000000
00000000
00001000
00010000
00000000
00100000
01000000
00000000
,
00000000
00000000
10000000
00010000
00000000
00010000
00001000
00000000
00000000
00000000
00000001
00001000
00000000
00001000
00010000
00000000
,
00000000
00000000
00100000
01000000
00000000
00000100
00000010
00000000
00000000
00000000
01000000
00100000
00000000
00000100
00000010
00000000
,
00000000
00000100
00000110
00002002
00000000
00000000
00000000
00003003
,
00001000
00000000
00000001
00001000
00000000
00001000
00000010
00001000
00000100
00010000
00000000
00001000
00000000
00000100
00001000
00000000
,
00010000
00000000
00001000
01000000
00000000
01000000
00100000
00000000
00100000
10000000
00000000
01000000
00000000
00100000
00010000
00000000
,
01000000
00000000
00001000
00010000
00000000
00000010
00001000
00000010
00000100
00000010
00000000
00001000
00000000
00000100
00000010
00000000
,
00000001
00000000
00001000
00000010
00000000
00000010
00000100
00000000
00000100
00000001
00000000
00000010
00000000
00000001
00000100
00000000
,
00001000
00000000
00010000
00000100
00000000
00000100
00010000
00000100
00001000
00000100
00000000
00000010
00000000
00000100
00010000
00000000
,
00001000
00000000
01000000
00100000
00000000
00100000
00010000
00000000
00010000
00001000
00000000
10000000
00000000
01000000
00100000
00000000
,
00010000
00000000
01000000
00100000
00000000
01000000
00001000
01000000
00010000
01000000
00000000
00100000
00000000
10000000
01000000
00000000
,
00100000
00000000
00001000
00010000
00000000
00000100
00000010
00000000
00000001
00001000
00000000
00000010
00000000
00001000
00000100
00000000
,
00000010
00000001
00000100
00000010
00010000
00001000
01000000
00000100
,
00010000
00100000
00110000
10000000
01000000
01100000
00010000
01000000
,
01001000
00001000
00010000
00001100
00000010
00000001
00001000
00000010
,
00000100
00000000
00000001
00000100
00000000
00000100
00000010
00000000
00001000
00000010
00001000
00000000
00000100
00000000
00000110
00000000
,
00001000
00010000
00001000
01000000
00100000
10000000
01000000
00100000
,
00001000
01000000
01010000
00001000
00010000
00010010
00001000
00000100
,
00000110
00000001
00001000
00001010
00010000
00001000
01000000
00100000
,
10010000
00000000
00000000
00000000
11000000
00000000
00000000
00001000
00010000
00000100
00000000
00000000
00010010
00000000
00000100
00001000
,
00000020
00000000
00000000
00000030
;

//---------------dance-single - J. Frederick----------------
#NOTES:
     dance-single:
     J. Frederick:
     Beginner:
     1:
     0.084,0.105,0.065,0.000,0.000,56.000,7.000,0.000,0.000,0.000,0.000,0.084,0.105,0.065,0.000,0.000,56.000,7.000,0.000,0.000,0.000,0.000:
0000
0000
0000
0000
,
0000
0000
0000
0000
,
0000
0000
0000
0000
,
1001
0000
0000
0000
,
0010
0000
0000
0000
,
0100
0000
0000
0000
,
1000
0000
0000
0000
,
0001
0000
0000
0000
,
0010
0000
0000
0000
,
0100
0000
0000
0000
,
0001
0000
0000
0000
,
1000
0000
0000
0000
,
0001
0000
0000
0000
,
0010
0000
0000
0000
,
0100
0000
0100
0000
,
0100
0000
0100
0000
,
1001
0000
0000
0000
,
0010
0000
0000
0000
,
1000
0000
0000
0000
,
0001
0000
0000
0000
,
0100
0000
0000
0000
,
1000
0000
0000
0000
,
0001
0000
0000
0000
,
0010
0000
0000
0000
,
0100
0000
0000
0000
,
1000
0000
0000
0000
,
0001
0000
0000
0000
,
0100
0000
0000
0000
,
0010
0000
0000
0000
,
1000
0000
0000
0000
,
0001
0000
0000
0000
,
0010
0000
0000
0000
,
0110
0000
0000
0000
,
1001
0000
0000
0000
,
0110
0000
0000
0000
,
1001
0000
0000
0000
,
0010
0000
0000
0000
,
0100
0000
0000
0000
,
1000
0000
0000
0000
,
0001
0000
0000
0000
,
0100
0000
0000
0000
,
0010
0000
0000
0000
,
1000
0000
0000
0000
,
0001
0000
0000
0000
,
0100
0000
0000
0000
,
0010
0000
0000
0000
,
1000
0000
0000
0000
,
0001
0000
0000
0000
,
0100
0000
0000
0000
,
0010
0000
0000
0000
,
1000
0000
0000
0000
,
0001
0000
0000
0000
,
0010
0000
0000
0000
,
0100
0000
0000
0000
,
1000
0000
0000
0000
,
0001
0000
0000
0000
,
1001
0000
0000
0000
;

//---------------dance-single - J. Frederick----------------
#NOTES:
     dance-single:
     J. Frederick:
     Easy:
     4:
     0.241,0.318,0.159,0.177,0.000,145.000,17.000,19.000,0.000,0.000,0.000,0.241,0.318,0.159,0.177,0.000,145.000,17.000,19.000,0.000,0.000,0.000:
0000
0000
0000
0000
,
0000
0000
0000
0000
,
0000
0000
0000
0000
,
1001
0000
0000
0000
,
0100
0010
1000
0000
,
0001
0010
0100
0000
,
0001
0100
0010
0000
,
1000
0001
2000
3000
,
0010
0100
0001
0000
,
0010
0100
1000
0000
,
0001
0100
0010
0000
,
1010
0101
0011
0000
,
1000
0000
0000
0000
,
0100
0000
0000
0000
,
0010
0000
0001
0000
,
0100
0000
0010
0000
,
1001
0010
0100
0000
,
1000
0010
0100
0000
,
0001
0010
0001
0000
,
0100
1000
0100
0000
,
0010
0100
0001
0000
,
1000
0100
0010
0000
,
0001
0100
0010
0000
,
1010
0110
0101
0011
,
0010
0100
1000
0000
,
0010
0100
0001
0000
,
1000
0010
0100
0000
,
0001
0010
0100
0000
,
1000
0001
1000
0000
,
1010
0000
0101
0000
,
0010
0100
1000
0000
,
0110
1100
0011
0110
,
2000
0000
0000
3000
,
0002
0000
0000
0003
,
0020
0000
0000
0030
,
0200
0000
0000
0300
,
2000
3000
0020
0030
,
0200
0300
0002
0003
,
0010
0100
1000
0010
,
0220
0000
0000
0330
,
1000
0001
0010
0000
,
0100
1000
0010
0000
,
0100
0001
0010
0000
,
0001
1000
0010
0000
,
0100
0001
1000
0000
,
0100
0010
0001
0000
,
1000
0001
0100
0000
,
0010
1000
0001
0000
,
0100
0001
1000
0000
,
0100
0010
0100
0000
,
1000
0001
1000
0000
,
0010
0100
0010
0000
,
2000
3010
0002
0103
,
0020
0130
2000
3010
,
0002
0103
0020
0130
,
1000
0001
0100
0000
,
2002
0000
0000
3003
;

//---------------dance-single - J. Frederick----------------
#NOTES:
     dance-single:
     J. Frederick:
     Medium:
     6:
     0.353,0.344,0.131,0.177,0.000,232.000,14.000,19.000,4.000,0.000,0.000,0.353,0.344,0.131,0.177,0.000,232.000,14.000,19.000,4.000,0.000,0.000:
0000
0000
0000
0000
,
0000
0000
0000
0000
,
0000
0000
0000
0000
,
1000
0001
0010
MMMM
,
1000
0001
0010
0000
0100
0000
1000
0000
,
0010
0100
0010
0000
1000
0000
0001
0000
,
0010
0001
0010
0000
0100
0000
1000
0000
,
0010
0100
0001
0000
2002
0000
3003
0000
,
0010
0100
0010
0000
0100
0000
1000
0000
,
0010
0100
0001
0000
0010
0000
0001
0000
,
1000
0001
1000
0000
0010
0000
0100
0000
,
0110
0000
2002
3003
,
0010
0100
0010
0000
0100
0000
0000
0000
,
1000
0010
0100
0000
0002
0000
0003
0000
,
2000
3000
0020
0030
,
0200
0300
0010
0110
,
1000
0001
1000
0000
0100
0000
0010
0000
,
0100
0010
0100
0000
1000
0000
0100
0000
,
1000
0100
1000
0000
0001
0000
0010
0000
,
0001
0010
0001
0000
0010
0000
0100
0000
,
1000
0100
1000
0000
0010
0000
0100
0000
,
0001
0010
0001
0000
0100
0000
0010
0000
,
1000
0001
1000
0000
0001
0000
0010
0000
,
0011
1100
0110
0110
,
1000
0001
0100
0000
0010
0000
0010
0000
,
1000
0100
0010
0000
0001
0000
0100
0000
,
0010
1000
0010
0000
0100
0000
0001
0000
,
0010
0100
1000
0000
0100
0000
0010
0000
,
0001
0100
0001
0000
1000
0000
0010
0000
,
0100
0010
1000
0000
0100
0000
0010
0000
,
0001
0100
0001
0000
1000
0000
0100
0000
,
1100
0110
0011
1100
,
0010
0001
0200
0000
0000
0000
0000
0300
,
0010
1000
0200
0000
0000
0000
0000
0300
,
0010
0001
0200
0000
0000
0000
0000
0300
,
0010
1000
0200
0000
0000
0000
0000
0300
,
0010
0001
0200
0000
0000
0000
0000
0300
,
0001
0010
0200
0000
0000
0000
0000
0300
,
1000
0010
0200
0000
0000
0000
0000
0300
,
0001
1000
0001
0000
2002
0000
0000
3003
,
1000
0001
0010
0000
0100
0000
0100
0000
,
1000
0010
0100
0000
0001
0000
0001
0000
,
0010
0100
1000
0000
0010
0000
0010
0000
,
0100
0010
0100
0000
0001
0000
0001
0000
,
1000
0100
1000
0000
0010
0000
0010
0000
,
0001
0100
0001
0000
1000
0000
0010
0000
,
0100
0010
0100
0000
0001
0000
0010
0000
,
0100
1000
0100
0000
0010
0000
0001
0000
,
0100
0001
0100
0000
0001
0000
0001
0000
,
1000
0010
0100
0001
,
0010
0100
0010
0000
0100
0000
1000
0000
,
0010
0100
0001
0010
,
0100
1000
0100
0000
0010
0000
0001
0000
,
0100
0010
1000
0010
,
0100
0001
0100
0000
0001
0000
0010
0000
,
0100
1000
0100
0010
,
0220
0000
0000
0330
;

//---------------dance-single - D. Renzetti----------------
#NOTES:
     dance-single:
     D. Renzetti:
     challenge:
     11:
     -1.000,-1.000,-1.000,-1.000,-1.000:
// measure 1
0000
0000
0000
0000
,  // measure 2
0000
0000
0000
0000
,  // measure 3
1000
0000
0100
0010
0100
0001
0100
0010
0100
0000
0010
0100
0010
1000
0010
0100
,  // measure 4
0010
0000
0001
0100
0001
1000
0001
0100
0001
0000
1000
0010
0000
1000
0100
0010
,  // measure 5
0001
0000
0100
1000
0100
1000
0100
0010
1000
0000
0100
0001
0100
0001
0100
0010
,  // measure 6
0001
0000
0010
1000
0010
1000
0010
0100
1000
0010
0001
0010
0001
0010
0100
1000
,  // measure 7
0100
0000
0001
0010
0100
1000
0100
0010
0001
0000
1000
0010
0100
0001
1000
0010
,  // measure 8
0100
0000
0001
0010
0001
0010
0100
0010
0100
1000
0000
1100
0000
1000
0001
0000
,  // measure 9
0011
0000
0001
0010
0100
1000
0010
0100
1000
0000
0001
0010
0100
0001
0010
0100
,  // measure 10
1000
0000
0100
0010
0001
0010
0100
1000
0010
0100
0001
0010
0100
0010
0001
1000
,  // measure 11
0100
0000
0001
0100
0001
0100
1000
0100
0010
0000
1000
0010
1000
0010
0001
0010
,  // measure 12
0001
0000
0100
1000
0100
0010
0100
0001
0010
0100
0000
0110
0000
0010
0001
0000
,  // measure 13
0101
0000
0100
0010
0000
1000
0010
1000
0001
1000
0000
1100
0000
1000
0010
0000
,  // measure 14
1010
0000
0010
0100
0000
0001
0010
0000
0001
0100
0000
1100
0000
0100
0010
0000
,  // measure 15
1000
0010
0000
0011
0000
0010
0100
0000
0001
0010
0000
1010
0000
0010
0001
0000
,  // measure 16
1000
0100
0000
0101
0000
0100
1000
0000
0020
0000
0000
0000
0100
0000
0130
0000
,  // measure 17
0011
0000
0001
0010
0100
1000
0100
0001
0100
0001
0000
0101
0000
0100
1000
0000
,  // measure 18
1010
0000
1000
0100
0010
0001
0010
0000
0100
1000
0000
1010
0000
0010
0100
0000
,  // measure 19
0011
0000
0001
0100
1000
0100
1000
0100
0010
0100
0000
0110
0000
0010
1000
0000
,  // measure 20
1001
0000
1000
0100
1000
0100
0010
0000
0001
0100
0000
0011
0000
0001
1000
0000
,  // measure 21
1010
0000
1000
0100
0001
0100
0001
0100
1000
0010
0000
0110
0000
0100
0001
0000
,  // measure 22
0101
0000
0001
0010
0100
1000
0100
0000
0001
0100
0000
1100
0000
1000
0001
0000
,  // measure 23
0101
0000
0001
0010
1000
0010
1000
0010
0001
0100
0000
0110
0000
0010
1000
0000
,  // measure 24
2MM2
3003
M22M
0330
MM22
0033
2M2M
3030
,  // measure 25
1000
0100
0010
0100
1000
0010
0100
0001
0010
0100
0000
1100
0000
1000
0010
0000
,  // measure 26
0100
0001
0100
0010
1000
0010
0100
0000
1000
0100
0000
0101
0000
0001
0010
0000
,  // measure 27
0100
1000
0100
1000
0100
0010
0001
0010
1000
0010
0000
0011
0000
0001
0100
0000
,  // measure 28
0110
0000
0010
1000
0001
0100
0010
0000
1000
0001
0000
1001
0000
1000
0100
0000
,  // measure 29
0010
0001
0010
1000
0010
0001
0010
1000
0010
0001
0000
0101
0000
0100
0010
0000
,  // measure 30
1000
0100
0010
0001
0010
0100
1000
0000
0010
0100
0000
0101
0000
0001
1000
0000
,  // measure 31
1000
0100
0001
0100
1000
0100
0001
0100
1000
0010
0000
0110
0000
0100
0001
0000
,  // measure 32
2M2M
3030
M2M2
0303
MM22
0033
22MM
3300
,  // measure 33
1M00
0000
001M
0100
M000
0001
0M10
0000
MM11
0000
0001
0100
0000
0010
100M
0000
,  // measure 34
11MM
0000
100M
0100
M000
0010
0M01
0000
M1M1
0000
0100
00M1
0000
1000
0M1M
0000
,  // measure 35
M11M
0000
0100
1000
00M0
0100
M001
0000
MM11
0000
0010
100M
0M00
0010
M001
0000
,  // measure 36
M1M1
0000
M001
0100
00M0
1000
010M
0000
M11M
0000
0010
0001
0M00
0010
M100
0000
,  // measure 37
M1M1
0000
0001
01M0
M00M
0100
0010
0000
1M1M
0000
0010
1000
000M
1000
01M0
0000
,  // measure 38
MM11
0000
0001
0100
M000
0100
001M
0000
M11M
0000
0010
1000
0M00
1000
00M1
0000
,  // measure 39
MM11
0000
0001
01M0
M000
0100
0010
0000
1M1M
0000
1000
0M01
00M0
0001
0100
0000
,  // measure 40
M11M
0000
0010
1000
0M00
1000
00M1
0000
M100
0010
0M0M
2020
0000
0000
3030
0000
,  // measure 41
1001
0000
0100
0001
0100
0001
0010
0100
1000
0010
0000
1010
0000
1000
0001
0000
,  // measure 42
0011
0000
0010
0100
0010
0100
1000
0000
0001
0100
0000
0101
0000
0001
0010
0000
,  // measure 43
0110
0000
0100
1000
0100
0001
0100
0001
0100
1000
0000
1100
0000
1000
0100
0000
,  // measure 44
0110
0000
0010
0001
0010
1000
0010
1000
0010
0001
0000
0011
0000
0001
0100
0010
,  // measure 45
0100
0000
0010
1000
0100
0010
0100
1000
0001
0010
0000
0011
0000
0001
1000
0000
,  // measure 46
0101
0000
0001
0010
0100
0010
0001
0000
1000
0100
0000
1100
0000
1000
0010
0100
,  // measure 47
0010
0000
0100
0010
0100
0010
1000
0100
0010
0001
0000
1001
0000
1000
0010
0000
,  // measure 48
1010
0000
1000
0100
0010
0001
0010
0100
1000
0100
1000
0010
0100
0010
0100
0001
,  // measure 49
1000
0000
0010
0100
0001
1000
0010
0100
0001
0000
1000
0100
1000
0010
1000
0001
,  // measure 50
1000
0000
0001
0010
0001
0100
0001
0010
0100
1000
0100
1000
0000
1000
0010
0100
,  // measure 51
0001
0000
1000
0100
0010
0001
0010
0100
1000
0000
0010
0001
0010
0001
0010
0100
,  // measure 52
1000
0000
0100
0001
0010
0100
1000
0100
0010
0001
0100
0010
0000
0100
0001
0010
,  // measure 53
0100
0000
1000
0100
1000
0100
0010
0100
0010
0000
0001
0010
0001
0010
0100
0010
,  // measure 54
0100
0000
1000
0010
0100
0001
0010
0100
1000
0100
0010
0100
0000
0001
0100
1000
,  // measure 55
0100
0000
0001
0100
0001
0100
1000
0100
0010
0000
1000
0010
1000
0010
0001
0100
,  // measure 56
0010
0000
1000
0100
0010
0100
0010
0001
0010
0100
1000
0001
0000
0100
M01M
0100
,  // measure 57
M02M
0030
0000
0000
;

//---------------dance-single - M.Calfin & R.Boyle----------------
#NOTES:
     dance-single:
     Calfin&Boyle:
     Edit:
     11:
     0.940,0.795,0.644,0.187,1.000,616.000,69.000,20.000,188.000,0.000,0.000,0.940,0.795,0.644,0.187,1.000,616.000,69.000,20.000,188.000,0.000,0.000: // measure 1
0000
0000
0000
0000
,  // measure 2
0000
0000
0000
0000
,  // measure 3
0000
0000
0000
0000
,  // measure 4
0000
0000
0000
0000
,  // measure 5
1000
0000
0010
0001
0100
1000
0001
1000
0100
0000
0100
0010
0001
0010
1000
0010
,  // measure 6
0001
0000
0100
0010
0100
1000
0100
0001
1000
0000
0100
0010
0001
0010
0100
1000
,  // measure 7
0100
0000
0010
0100
1000
0001
1000
0100
0010
0000
0100
0001
0100
0010
1000
0010
,  // measure 8
0100
0000
1000
0001
0100
0010
1000
0010
0100
0010
0000
M001
0000
0010
0100
0000
,  // measure 9
1M1M
0000
0010
1000
0010
0100
0001
0100
0001
0000
1000
0001
0100
0001
0010
0100
,  // measure 10
1000
0000
0100
1000
0100
1000
0100
0010
0100
0000
0010
1000
0010
0100
0001
0100
,  // measure 11
0001
0000
0001
0100
0001
0100
1000
0100
1000
0000
0100
1000
0010
1000
0010
0100
,  // measure 12
0010
0000
1000
0010
0100
0001
0010
0100
0010
0001
0000
0100
0000
0010
0100
0000
,  // measure 13
1M1M
0000
0010
0100
0000
0100
1000
0100
0001
0100
0000
1MM1
0000
0001
0100
0000
,  // measure 14
0010
0000
1000
0010
0000
0100
0010
0000
1000
0100
0000
MM11
0000
0001
0010
0000
,  // measure 15
0100
1000
0000
1MM1
0000
1000
0100
0000
0010
0001
0000
1MM1
0000
0001
0100
0000
,  // measure 16
0010
0100
0000
M1M1
0000
0010
1000
0000
1000
0100
0000
1MM1
0000
0001
0100
0000
,  // measure 17
1MM1
0000
1000
0100
1000
0100
1000
0010
0100
0010
0000
0100
0000
0001
0100
0000
,  // measure 18
M1M1
0000
0001
0100
0010
1000
0010
0000
1000
0010
0000
11MM
0000
0010
0001
0000
,  // measure 19
MM11
0000
0010
0100
1000
0010
1000
0100
0000
MM11
0000
0001
0000
0010
0001
0000
,  // measure 20
M1M1
0000
0010
1000
0010
0100
0001
0100
0001
0010
0000
M11M
0000
0010
0100
0000
,  // measure 21
11MM
0000
0100
1000
0100
1000
0010
1000
0010
0100
0000
M11M
0000
0100
0001
0000
,  // measure 22
M1M1
0000
M001
0M10
0001
1000
0100
0001
0100
1000
0000
11MM
0000
1000
0100
0000
,  // measure 23
1010
0000
0100
0001
0010
0100
1000
0100
0010
0001
0000
MM11
0000
0010
0100
0000
,  // measure 24
2200
0000
00MM
3300
0000
0000
0220
0000
0000
M33M
0000
0000
0022
0000
MM00
0033
0000
0000
0220
0000
M00M
0330
0000
0000
,  // measure 25
1000
0100
0010
0001
0010
1000
0010
0001
0010
0100
0000
11MM
0000
0100
1000
0000
,  // measure 26
0010
1000
0010
0100
0001
0100
0010
1000
0010
1000
0000
M1M1
0000
0100
0001
0000
,  // measure 27
0010
0001
0010
0100
0010
0100
0010
0100
1000
0100
0000
11MM
0000
0100
1000
0000
,  // measure 28
0010
1000
0010
0100
0001
0100
0001
0010
0001
0010
0000
MM11
0000
0010
0100
0000
,  // measure 29
1000
0010
0001
0010
1000
0100
0010
0100
0010
0100
0000
M11M
0000
0100
0010
0000
,  // measure 30
0001
1000
0010
0100
0001
0100
0001
0010
0100
0010
0000
11MM
0000
0100
1000
0000
,  // measure 31
1000
0010
0100
0010
0100
0001
0100
0001
0010
0001
0000
1001
0000
0001
0010
0000
,  // measure 32
0220
0000
M00M
0330
0000
0000
2200
0000
00MM
3300
0000
0000
2002
0000
0MM0
3003
0000
0000
0202
0000
M0M0
0303
0000
0000
,  // measure 33
1MM0
0000
10MM
0100
00M0
1M00
0001
0000
0101
0000
010M
M010
000M
1000
0010
0000
,  // measure 34
1010
0000
0010
010M
M000
00M1
0100
0000
0011
0000
0010
010M
M000
001M
0100
0000
,  // measure 35
1100
0000
0100
10M0
000M
10M0
0100
0000
1010
0000
0010
M100
000M
M010
0100
0000
,  // measure 36
0101
0000
0100
M001
00M0
M001
0010
0000
0110
0000
0100
100M
00M0
100M
0100
0000
,  // measure 37
1100
0000
1000
0100
0000
M010
0M01
M000
0011
0000
0010
010M
00M0
100M
0100
0000
,  // measure 38
0110
0000
0010
M001
00M0
M100
0010
0000
0110
0000
1000
0010
000M
M100
001M
0000
,  // measure 39
0110
0000
0100
M001
0M00
001M
0100
0000
1100
0000
1000
01M0
000M
01M0
1000
0000
,  // measure 40
1010
0000
1000
0010
M000
010M
M010
0000
0100
0010
0000
2020
0M0M
3030
0000
0000
,  // measure 41
1001
0000
0001
0010
0100
1000
0100
0010
0001
0010
0000
11MM
0000
1000
0100
0000
,  // measure 42
MM11
0000
0001
0100
0010
1000
0100
0010
0001
0100
0000
M11M
0000
0010
0100
0000
,  // measure 43
M1M1
0000
0100
0010
1000
0001
0010
0100
1000
0100
0000
11MM
0000
0100
1000
0000
,  // measure 44
1M1M
0000
0010
0100
0010
0100
0001
0100
0001
0010
0000
MM11
0000
0010
0100
0000
,  // measure 45
11MM
0000
1000
0001
0010
1000
0010
0001
0010
0100
0000
M11M
0000
0010
0100
0000
,  // measure 46
M1M1
0000
1000
0010
0100
0001
0100
0010
1000
0010
0000
1M1M
0000
0010
1000
0000
,  // measure 47
M1M1
0000
0001
0100
0010
1000
0010
0100
0001
0010
0000
M11M
0000
0100
0010
0000
,  // measure 48
M11M
0000
1000
0100
0010
0001
0100
0010
1000
0010
0000
1M1M
0000
0001
0010
0000
,  // measure 49
11MM
0000
1000
0100
0010
0001
0010
0100
10MM
0000
0001
0010
1000
0010
0001
1000
,  // measure 50
01MM
0000
0010
1000
0010
0001
0100
0010
M10M
0000
0001
1000
0010
0100
1000
0100
,  // measure 51
M0M1
0000
0100
0001
0100
0001
0010
0100
M01M
0000
1000
0010
0100
1000
0100
1000
,  // measure 52
0MM1
0000
1000
0010
1000
0010
0100
0001
M1M0
0000
0001
0100
0001
0010
0100
1000
,  // measure 53
0100
0000
1000
0010
0100
0001
0100
0010
1M0M
0000
0001
0100
0001
0100
0010
1000
,  // measure 54
0M1M
0000
0100
0001
0100
0001
0010
0100
M01M
0000
0100
0010
0100
1000
0100
1000
,  // measure 55
0MM1
0000
1000
0010
1000
0010
0100
0010
M10M
0000
0001
0100
1000
0100
0001
0010
,  // measure 56
M10M
0000
0010
0001
0010
0100
0010
0100
10MM
0000
0010
1000
0100
1000
0010
0000
,  // measure 57
2M02
00M0
0M00
00M0
0M00
00M0
3M03
0000
;

//---------------dance-single - J. Frederick----------------
#NOTES:
     dance-single:
     J. Frederick:
     Hard:
     8:
     0.621,0.556,0.187,0.271,0.443,417.000,20.000,29.000,20.000,0.000,0.000,0.621,0.556,0.187,0.271,0.443,417.000,20.000,29.000,20.000,0.000,0.000:
0000
0000
0000
0000
,
0000
0000
0000
0000
,
0000
1000
0100
1000
0000
0001
0010
0001
,
0000
0100
0010
0100
0010
0000
MMMM
0000
,
1000
0000
0001
0010
0000
0000
0100
0000
1000
0000
0010
0100
0000
0000
0010
0000
,
0001
0000
0010
0100
0000
0000
0010
0000
1000
0000
0010
0100
0000
0000
0010
0000
,
0001
0000
0010
0001
0000
0000
0010
0000
0100
0000
0010
1000
0000
0000
0100
0000
,
0010
0000
0100
0001
0000
0000
0100
0000
0010
0100
0000
1000
0000
0010
0100
0000
,
1000
0000
0001
0010
0000
0000
0100
0000
1000
0000
0010
0100
0000
0000
0010
0000
,
0001
0000
0010
0100
0000
0000
0010
0000
1000
0000
0010
0100
0000
0000
0010
0000
,
0001
0000
0010
0001
0000
0000
0010
0000
0100
0000
0010
1000
0000
0000
0100
0000
,
0010
0000
0100
0001
0000
0000
0100
0000
0010
0100
0000
1000
0000
0010
1000
0000
,
1000
0000
0010
0001
0000
0000
0010
0000
0100
0000
1000
0010
0000
0000
0010
0000
,
0100
0000
0001
0010
0000
0000
0010
0000
0100
1000
0000
0200
0000
0000
0000
0300
,
0010
0001
0000
0200
0000
0000
0000
0300
0010
1000
0000
0020
0000
0000
0000
0030
,
0100
0001
0000
0020
0000
0000
0100
0030
0010
0000
0000
0000
0110
0000
1001
0000
,
0100
0010
1000
0100
0010
0001
0100
0010
,
1000
0010
0100
0001
0010
0100
1000
0100
,
0010
0001
0100
0001
1000
0010
0100
0001
,
0010
0100
1000
0100
0010
0001
0010
1000
,
0100
0010
1000
0010
0100
0001
0010
0001
,
1000
0100
0010
0001
0100
0010
1000
0001
,
0010
0001
1000
0010
0100
0001
0010
0001
,
MM21
0030
12MM
0300
M12M
0030
MM12
0003
,
1010
0010
1010
0000
0101
0001
0101
0000
,
0010
0100
1000
0010
0100
0001
0010
0000
,
0110
0100
0110
0000
1100
0001
1100
0000
,
0100
0001
0010
0001
0100
0010
1000
0000
,
1000
0100
0010
0001
0100
0010
1000
0000
,
1000
0010
0100
0001
0010
0100
1000
0000
,
1000
0100
0010
0001
0100
0010
1000
0000
,
1M2M
0030
M1M2
0003
MM21
0030
M21M
0300
,
1000
0000
0001
0010
0000
0100
0020
0000
0000
0000
0130
1000
0000
1000
0020
0000
,
0000
0000
0130
0001
0000
0001
0020
0000
0000
0000
0130
1000
0000
1000
0020
0000
,
0000
0000
0130
0001
0000
0001
0020
0000
0000
0000
0130
1000
0000
1000
0020
0000
,
0000
0000
0130
0010
0000
0010
0200
0000
0000
0000
1300
0100
0000
0100
0020
0000
,
0000
0000
1030
0100
0000
0100
0020
0000
0000
0000
0031
0100
0000
0100
0020
0000
,
0000
0000
1030
0100
0000
0100
0020
0000
0000
0000
1030
0010
0000
0010
0200
0000
,
0000
0000
0310
0001
0000
0001
0020
0000
0000
0000
0130
0010
0000
0010
0200
0000
,
0000
0000
1300
0001
0000
0001
0020
0000
0000
0000
0130
1000
0000
0000
1000
0010
,
1000
0000
0000
0100
0010
0000
0001
0000
0010
0100
0000
1000
0000
0100
0010
0000
,
1000
0000
0000
0100
0001
0000
0010
0000
0100
1000
0000
1000
0000
0010
0100
0000
,
0001
0000
0000
0010
0100
0000
1000
0000
0100
0010
0000
0001
0000
0100
0010
0000
,
1000
0000
0000
0001
0010
0000
0100
0000
1000
0010
0000
0100
0000
0001
0010
0000
,
1000
0000
0000
0100
0010
0000
0001
0000
0010
0100
0000
1000
0000
0100
0010
0000
,
1000
0000
0000
0100
0001
0000
0010
0000
0100
1000
0000
1000
0000
0010
0100
0000
,
0001
0000
0000
0010
0100
0000
1000
0000
0100
0010
0000
0001
0000
0100
0010
0000
,
1000
0000
0000
0001
0010
0000
0100
0000
1000
0010
0000
0100
0000
0001
0100
0000
,
1001
0100
0010
1000
0100
0010
0001
0100
,
0010
1000
0010
0100
0001
0010
0100
1000
,
0100
0010
0001
0100
0001
1000
0010
0100
,
0010
1000
0001
0010
0100
1000
0010
0100
,
0001
0010
1000
0010
0001
1000
0010
0001
,
0010
1000
0100
0010
0001
1000
0010
0100
,
0001
0100
1000
0100
0001
0010
0001
0100
,
0010
0001
1000
0010
0100
0001
0010
0100
,
2200
0000
0000
3300
;

//---------------dance-single - D. Renzetti----------------
#NOTES:
     dance-single:
     D. Renzetti:
     Edit:
     11:
     -1.000,-1.000,-1.000,-1.000,-1.000:
// measure 1
0000
0000
0000
0000
,  // measure 2
0000
0000
0000
0000
,  // measure 3
1000
0000
0100
0010
0100
0001
0100
0010
0100
0000
0010
0100
0010
1000
0010
0100
,  // measure 4
0010
0000
0001
0100
0001
1000
0001
0100
0001
0000
1000
0010
0000
1000
0100
0010
,  // measure 5
0001
0000
0100
1000
0100
1000
0100
0010
1000
0000
0100
0001
0100
0001
0100
0010
,  // measure 6
0001
0000
0010
1000
0010
1000
0010
0100
1000
0010
0001
0010
0001
0010
0100
1000
,  // measure 7
0100
0000
0001
0010
0100
1000
0100
0010
0001
0000
1000
0010
0100
0001
1000
0010
,  // measure 8
0100
0000
0001
0010
0001
0010
0100
0010
0100
1000
0000
1100
0000
1000
0001
0000
,  // measure 9
0011
0000
0001
0010
0100
1000
0010
0100
1000
0000
0001
0010
0100
0001
0010
0100
,  // measure 10
1000
0000
0100
0010
0001
0010
0100
1000
0010
0100
0001
0010
0100
0010
0001
1000
,  // measure 11
0100
0000
0001
0100
0001
0100
1000
0100
0010
0000
1000
0010
1000
0010
0001
0010
,  // measure 12
0001
0000
0100
1000
0100
0010
0100
0001
0010
0100
0000
0110
0000
0010
0001
0000
,  // measure 13
0101
0000
0100
0010
0000
1000
0010
1000
0001
1000
0000
1100
0000
1000
0010
0000
,  // measure 14
1010
0000
0010
0100
0000
0001
0010
0000
0001
0100
0000
1100
0000
0100
0010
0000
,  // measure 15
1000
0010
0000
0011
0000
0010
0100
0000
0001
0010
0000
1010
0000
0010
0001
0000
,  // measure 16
1000
0100
0000
0101
0000
0100
1000
0000
0020
0000
0000
0000
0100
0000
0130
0000
,  // measure 17
0011
0000
0001
0010
0100
1000
0100
0001
0100
0001
0000
0101
0000
0100
1000
0000
,  // measure 18
1010
0000
1000
0100
0010
0001
0010
0000
0100
1000
0000
1010
0000
0010
0100
0000
,  // measure 19
0011
0000
0001
0100
1000
0100
1000
0100
0010
0100
0000
0110
0000
0010
1000
0000
,  // measure 20
1001
0000
1000
0100
1000
0100
0010
0000
0001
0100
0000
0011
0000
0001
1000
0000
,  // measure 21
1010
0000
1000
0100
0001
0100
0001
0100
1000
0010
0000
0110
0000
0100
0001
0000
,  // measure 22
0101
0000
0001
0010
0100
1000
0100
0000
0001
0100
0000
1100
0000
1000
0001
0000
,  // measure 23
0101
0000
0001
0010
1000
0010
1000
0010
0001
0100
0000
0110
0000
0010
1000
0000
,  // measure 24
2MM2
3003
M22M
0330
MM22
0033
2M2M
3030
,  // measure 25
1000
0100
0010
0100
1000
0010
0100
0001
0010
0100
0000
1100
0000
1000
0010
0000
,  // measure 26
0100
0001
0100
0010
1000
0010
0100
0000
1000
0100
0000
0101
0000
0001
0010
0000
,  // measure 27
0100
1000
0100
1000
0100
0010
0001
0010
1000
0010
0000
0011
0000
0001
0100
0000
,  // measure 28
0110
0000
0010
1000
0001
0100
0010
0000
1000
0001
0000
1001
0000
1000
0100
0000
,  // measure 29
0010
0001
0010
1000
0010
0001
0010
1000
0010
0001
0000
0101
0000
0100
0010
0000
,  // measure 30
1000
0100
0010
0001
0010
0100
1000
0000
0010
0100
0000
0101
0000
0001
1000
0000
,  // measure 31
1000
0100
0001
0100
1000
0100
0001
0100
1000
0010
0000
0110
0000
0100
0001
0000
,  // measure 32
2M2M
3030
M2M2
0303
MM22
0033
22MM
3300
,  // measure 33
1M00
0000
001M
0100
M000
0001
0M10
0000
MM11
0000
0001
0100
0000
0010
100M
0000
,  // measure 34
11MM
0000
100M
0100
M000
0010
0M01
0000
M1M1
0000
0100
00M1
0000
1000
0M1M
0000
,  // measure 35
M11M
0000
0100
1000
00M0
0100
M001
0000
MM11
0000
0010
100M
0M00
0010
M001
0000
,  // measure 36
M1M1
0000
M001
0100
00M0
1000
010M
0000
M11M
0000
0010
0001
0M00
0010
M100
0000
,  // measure 37
M1M1
0000
0001
01M0
M00M
0100
0010
0000
1M1M
0000
0010
1000
000M
1000
01M0
0000
,  // measure 38
MM11
0000
0001
0100
M000
0100
001M
0000
M11M
0000
0010
1000
0M00
1000
00M1
0000
,  // measure 39
MM11
0000
0001
01M0
M000
0100
0010
0000
1M1M
0000
1000
0M01
00M0
0001
0100
0000
,  // measure 40
M11M
0000
0010
1000
0M00
1000
00M1
0000
M100
0010
0M0M
2020
0000
0000
3030
0000
,  // measure 41
1001
0000
0100
0001
0100
0001
0010
0100
1000
0010
0000
1010
0000
1000
0001
0000
,  // measure 42
0011
0000
0010
0100
0010
0100
1000
0000
0001
0100
0000
0101
0000
0001
0010
0000
,  // measure 43
0110
0000
0100
1000
0100
0001
0100
0001
0100
1000
0000
1100
0000
1000
0100
0000
,  // measure 44
0110
0000
0010
0001
0010
1000
0010
1000
0010
0001
0000
0011
0000
0001
0100
0010
,  // measure 45
0100
0000
0010
1000
0100
0010
0100
1000
0001
0010
0000
0011
0000
0001
1000
0000
,  // measure 46
0101
0000
0001
0010
0100
0010
0001
0000
1000
0100
0000
1100
0000
1000
0010
0100
,  // measure 47
0010
0000
0100
0010
0100
0010
1000
0100
0010
0001
0000
1001
0000
1000
0010
0000
,  // measure 48
1010
0000
1000
0100
0010
0001
0010
0100
1000
0100
1000
0010
0100
0010
0100
0001
,  // measure 49
1000
0000
0010
0100
0001
1000
0010
0100
0001
0000
1000
0100
1000
0010
1000
0001
,  // measure 50
1000
0000
0001
0010
0001
0100
0001
0010
0100
1000
0100
1000
0000
1000
0010
0100
,  // measure 51
0001
0000
1000
0100
0010
0001
0010
0100
1000
0000
0010
0001
0010
0001
0010
0100
,  // measure 52
1000
0000
0100
0001
0010
0100
1000
0100
0010
0001
0100
0010
0000
0100
0001
0010
,  // measure 53
0100
0000
1000
0100
1000
0100
0010
0100
0010
0000
0001
0010
0001
0010
0100
0010
,  // measure 54
0100
0000
1000
0010
0100
0001
0010
0100
1000
0100
0010
0100
0000
0001
0100
1000
,  // measure 55
0100
0000
0001
0100
0001
0100
1000
0100
0010
0000
1000
0010
1000
0010
0001
0100
,  // measure 56
0010
0000
1000
0100
0010
0100
0010
0001
0010
0100
1000
0001
0000
0100
M01M
0100
,  // measure 57
M02M
0030
0000
0000
;
