#TITLE:My Love;
#SUBTITLE:;
#ARTIST:Nightfly;
#TITLETRANSLIT:;
#SUBTITLETRANSLIT:;
#ARTISTTRANSLIT:;
#CREDIT:;
#BANNER:My Love-bn.png;
#BACKGROUND:My Love-bg.png;
#LYRICSPATH:;
#CDTITLE:;
#MUSIC:My Love.ogg;
#OFFSET:0.052;
#SAMPLESTART:25.598;
#SAMPLELENGTH:25.742;
#SELECTABLE:YES;
#BPMS:0.000=150.000;
#STOPS:;
#BGCHANGES:0.047=My Love.mpg=1.000=1=0=0=StretchNoLoop==CrossFade==,
99999=-nosongbg-=1.000=0=0=0 // don't automatically add -songbackground-;

//---------------dance-single - D. D'Amato----------------
#NOTES:
     dance-single:
     D. D'Amato:
     Hard:
     8:
     0.453,0.451,0.038,0.235,0.000:
0000
0000
0000
0000
,
0000
0000
0000
0000
,
0000
0000
0000
0000
,
0000
0000
0000
0000
,
0100
0000
0010
1000
0000
0001
0000
0000
,
0010
0100
1000
0001
0000
0100
0000
0000
,
0010
0000
0100
0001
0000
1000
0100
0010
,
1001
0000
0001
0100
0010
1001
0000
0000
,
1001
0100
0010
0002
0000
0000
0000
0000
,
0000
0000
0003
0000
,
0001
0100
0010
2000
0000
0000
0000
0000
,
0000
0000
3000
0000
,
1000
0010
0100
0001
0001
1000
0100
0010
,
0000
0100
0000
1000
1000
0001
0100
0000
,
0001
0010
0100
1000
0000
0100
0010
0001
,
0100
0000
0010
1000
0000
0001
0100
0010
,
1000
0100
0010
0002
0000
0200
0000
0010
,
0000
0003
0000
0301
0000
0010
0100
1000
,
0001
0100
0010
2000
0000
0200
0000
0010
,
0000
3000
0000
1300
0000
0010
0100
0100
,
0001
0010
0100
2000
0000
0002
0000
0010
,
0000
3000
0000
1003
0000
0100
0010
0001
,
1000
0010
0100
0002
0000
2000
0000
0010
,
0000
0003
0000
3001
0000
1000
0100
0100
,
1000
0010
0100
0000
1000
0100
0010
0100
,
0000
0001
0010
0200
0000
0000
0000
0310
,
0000
0001
0100
0020
0000
0000
0000
0130
,
0000
0001
0010
0010
0000
0010
0100
1000
,
0001
0010
0100
0000
0001
0100
0010
0100
,
0000
1000
0010
0200
0000
0000
0000
0310
,
0000
1000
0100
0020
0000
0000
0000
0130
,
0000
1000
0010
0010
0000
0010
1000
1000
,
0100
0000
0010
0000
0001
0100
0000
0100
,
0010
1000
0001
0010
0000
0100
0000
0100
,
0010
0000
0001
0000
0010
0100
1000
0100
,
0010
0001
0000
0010
0100
0000
0010
0001
,
0100
0000
0010
0000
1000
0100
0000
0100
,
0010
0001
1000
0010
0000
0100
0000
0100
,
0010
0000
1000
0000
0010
0100
0001
0100
,
0010
0000
1000
0000
0100
0010
0001
0001
,
0100
0010
0100
0002
0000
0000
0010
0010
,
0010
0000
0000
1000
0003
0000
1000
0000
,
0100
0010
0100
2000
0000
0000
0000
0000
,
0000
0000
3001
0000
,
1000
0010
0100
0010
0010
1000
0000
0010
,
0000
0100
0000
0010
0000
0010
0000
1000
,
0001
0010
0100
0010
0000
0001
0000
0010
,
0100
0000
0010
0001
0000
1000
0100
0010
,
0001
0100
0010
2000
0000
0200
0000
0010
,
0000
3000
0000
1300
0000
0010
0100
0001
,
1000
0100
0010
0002
0000
0200
0000
0010
,
0000
0003
0000
0301
0000
0010
0100
0100
,
1000
0010
0100
0002
0000
2000
0000
0010
,
0000
0003
0000
3001
0000
0100
0010
1000
,
0001
0010
0100
2000
0000
0002
0000
0010
,
0010
3010
0000
1003
0000
0001
0100
0100
,
0010
1000
0010
0100
0010
1000
0100
0010
,
0000
0100
0000
1000
0000
0001
0000
0100
,
0010
0100
0001
0010
0100
0010
0001
0100
,
0000
0010
0000
1000
0000
0001
1000
0100
,
0010
0001
0010
0100
0010
0001
0100
0010
,
0000
0100
0000
0001
0000
1000
0000
0100
,
0010
0100
1000
0010
0000
1000
0000
0200
,
0000
0000
0000
0000
0000
0310
0001
0100
,
1001
0000
0000
0000
;

//---------------dance-single - D. D'Amato----------------
#NOTES:
     dance-single:
     D. D'Amato:
     Medium:
     6:
     0.368,0.391,0.188,0.075,0.000:
0000
0000
0000
0000
,
0000
0000
0000
0000
,
0000
0000
0000
0000
,
0000
0000
0000
0000
,
0010
0000
0000
0100
0000
0010
1000
0100
,
0010
0000
0000
0100
0000
0010
0001
0100
,
0010
0000
0000
0100
0000
0010
0100
0000
,
0110
0000
0000
0000
0000
1001
0000
0000
,
0120
0000
0000
2000
0000
0000
0000
0000
,
0000
0000
3030
0000
,
0200
0000
0000
0002
0000
0000
0000
0000
,
0000
0000
0303
0000
,
1000
0000
0000
0100
0000
0010
0000
0001
,
0000
0100
0000
0000
0000
0000
0010
1000
,
0001
0000
0000
0100
0000
0010
0000
1000
,
0100
0000
0010
0001
0000
0100
0001
1000
,
0100
1000
0100
0010
0000
0000
0000
0110
,
0000
0000
0100
1000
0001
0000
1000
0001
,
0100
0001
0100
0010
0000
0000
0000
0110
,
0000
0000
0100
0001
0000
1000
0100
1000
,
0100
0010
0100
0010
000M
0000
0000
1001
,
0000
0000
1000
0000
0000
0010
0100
0001
,
0100
0010
0100
0010
M000
0000
0000
M00M
,
0100
0010
0000
0100
0000
1000
0001
0100
,
0010
0100
0000
0010
0000
1000
0000
0100
,
0000
0010
0100
1000
0000
0000
0000
0011
,
0000
0000
0001
1000
0000
0100
0000
0011
,
0000
1000
0001
0100
0000
0001
1000
0100
,
0010
0100
0000
0010
0000
0001
0000
0100
,
0000
0010
0100
0001
0000
0000
0000
1010
,
0000
0000
1000
0001
0000
0100
0000
1010
,
0000
0001
1000
0100
0000
1000
0001
0010
,
0100
0000
1000
0000
0001
0000
0010
0100
,
0000
0010
0001
0100
0000
0000
0000
1010
,
0000
0000
0000
0100
0000
0000
0000
1010
,
0000
0000
0001
0100
0000
0010
1000
0001
,
0100
0000
0001
0000
1000
0000
0010
0100
,
0000
0010
1000
0100
0000
0000
0000
0011
,
0000
0000
0000
0100
0000
0000
0000
0011
,
0000
0000
1000
0100
0000
0010
0001
1000
,
0200
0000
0000
0020
0000
0000
0000
0000
,
0000
0000
0330
0001
,
0200
0000
0000
0020
0000
0000
0000
0000
,
0000
0000
0330
1000
,
0001
0000
0000
0100
0000
0010
0000
1000
,
0000
0100
0000
0000
0000
0000
0000
0000
,
1000
0000
0000
0100
0000
0010
0000
0001
,
0100
0000
0010
1000
0000
0100
1000
0001
,
0100
0001
0100
0010
0000
0000
0000
1001
,
0000
0000
0100
0001
1000
0000
0001
1000
,
0100
1000
0100
0010
0000
0000
0000
1001
,
0000
0000
0100
1000
0000
0001
0100
0001
,
0100
0010
0100
0010
M000
0000
0000
0110
,
0000
0000
0001
0000
0000
0010
0100
1000
,
0100
0010
0100
0010
000M
0000
0000
1000
,
0MM1
1000
0000
0001
0100
0010
1000
0100
,
0010
0001
0000
0100
0000
1010
0000
0100
,
0000
0000
0010
0000
1000
0100
1000
0000
,
0010
1000
0000
0100
0000
0011
0000
0100
,
0000
0000
0010
0000
0001
0100
0001
1000
,
0100
1000
0000
0010
0000
0101
0000
0010
,
0000
0000
0100
0000
0001
0010
0001
0000
,
0100
0001
0000
0010
0000
0100
0000
0010
,
0000
0000
0100
0000
0000
0010
1000
0001
,
0100
0000
0000
0000
;

//---------------dance-single - D. D'Amato----------------
#NOTES:
     dance-single:
     D. D'Amato:
     Easy:
     3:
     0.222,0.271,0.000,0.301,0.000:
0000
0000
0000
0000
,
0000
0000
0000
0000
,
0000
0000
0000
0000
,
0000
0000
0000
0000
,
0010
0000
0000
0001
,
0100
0000
0000
1000
,
0010
0000
0000
0001
,
1000
0000
0000
0000
,
0200
0000
0000
0000
,
0300
0000
0000
0000
,
0200
0000
0000
0000
,
0300
0000
0000
0000
,
0200
0010
0000
0010
,
0300
0010
0001
0000
,
0200
0010
0000
0010
,
0301
0000
0000
0001
,
1000
0000
0100
0000
0020
0000
0000
0030
,
0000
0000
0001
0100
,
0001
0000
0100
0000
0020
0000
0000
0030
,
0000
0000
0010
0100
,
0001
0000
0100
0000
0020
0000
0000
0030
,
0000
0000
1000
0100
,
1000
0000
0100
0000
0020
0000
0000
0030
,
0001
0000
0001
0000
,
0001
0000
0100
0000
0000
0000
0020
0030
,
0000
0000
0100
0000
0100
0000
0020
0030
,
0000
0000
1000
0000
0000
0000
0020
0030
,
0000
0000
1000
0000
1000
0000
0020
0030
,
1000
0000
0100
0000
0000
0000
0020
0030
,
0000
0000
0100
0000
0100
0000
0020
0030
,
0000
0000
1000
0000
0000
0000
0020
0030
,
0000
0000
0001
0000
0001
0000
0020
0030
,
0001
0000
0000
0000
0000
0000
0020
0030
,
0000
0000
0000
0000
0000
0000
0020
0030
,
0000
0000
0000
0000
0000
0000
0020
0030
,
0000
0000
0000
0000
0000
0000
0020
0030
,
0000
0000
0000
0000
0000
0000
0020
0030
,
0000
0000
0000
0000
0000
0000
0020
0030
,
0000
0000
0000
0000
0000
0000
0020
0030
,
0000
0000
0000
0000
0000
0000
0020
0030
,
0200
0000
0000
0000
,
0300
0000
0000
0000
,
0200
0000
0000
0000
,
0300
0000
0000
0000
,
0200
0010
0000
0010
,
0300
0010
1000
0000
,
0200
0010
0000
0010
,
1300
0000
0000
1000
,
0001
0000
0100
0000
0020
0000
0000
0030
,
0000
0000
1000
0100
,
1000
0000
0100
0000
0020
0000
0000
0030
,
0000
0000
0010
0100
,
1000
0000
0100
0000
0020
0000
0000
0030
,
0000
0000
0001
0100
,
0001
0000
0100
0000
0020
0000
0000
0030
,
1000
0000
1000
0000
,
1000
0100
0010
0100
,
0001
0100
0010
0100
,
1000
0010
0100
0010
,
0001
0010
0100
0010
,
1000
0001
0010
1000
,
0010
0001
0100
1000
,
0100
0001
0010
1000
,
0100
0000
0000
0001
,
0100
0000
0000
0000
;

//---------------dance-single - K. Ward----------------
#NOTES:
     dance-single:
     K. Ward:
     Challenge:
     9:
     0.482,0.542,0.132,0.216,0.066:
0000
0000
0000
0000
,
0000
0000
0000
0000
,
0000
0000
0000
0000
,
0000
0000
0000
0000
,
0010
1000
0100
0001
0000
0100
1000
0010
,
0100
1000
0100
0010
0000
1001
0000
0010
,
0010
0001
0010
1000
0000
0100
0010
0001
,
0010
1000
0010
0001
0000
1100
0000
0000
,
0001
0100
0010
0002
0000
0000
0000
0000
,
0000
0000
0003
0000
,
1000
0100
0010
0002
0000
0000
0000
0000
,
0000
0000
0003
0000
,
0010
0100
0001
0020
0000
0000
0000
0000
,
0100
0000
0000
0031
0000
0000
0000
0000
,
1000
0100
0010
0200
0000
0000
0000
0000
,
1000
0000
0300
0010
0000
1001
0000
0000
,
100M
0010
1000
0100
001M
0100
1000
0010
,
010M
0010
1000
0100
001M
0200
0000
1000
,
130M
0010
0100
1000
010M
0010
1000
0100
,
001M
0000
0100
0000
0010
0000
0100
0000
100M
0000
0000
0000
0001
0010
0001
0010
,
M001
0010
0001
0100
M001
0010
0001
0100
,
M010
0001
0010
0200
M000
1000
0300
0001
,
M001
0010
1000
1000
0M00
0001
0001
0010
,
0M00
0000
1000
0000
00M0
0000
0020
0000
0M00
0000
0030
0000
0100
0001
0100
0001
,
0100
0000
0010
1100
0000
0010
0000
1001
,
0000
0010
0100
0001
0010
0100
1000
0100
,
1100
0000
0100
0010
0000
0001
0000
1000
,
0000
0000
0010
0000
0100
0000
1000
0000
0100
0000
0000
0001
1000
0000
0100
0000
,
0010
0000
0000
0101
0000
0110
0000
1001
,
0000
0100
0010
0100
1000
1000
0100
0000
,
0010
0000
1000
0100
0000
0010
0000
0002
,
0000
0000
0103
0000
1000
0000
0100
0000
0001
0000
0000
0010
0100
0000
1000
0000
,
0100
0000
0000
0021
0000
0001
0000
0100
,
0030
0000
1000
0100
0010
0000
0001
0100
,
2000
0000
0000
0000
0000
0000
3100
0000
0000
0000
0000
0000
0000
0000
0001
1000
,
0001
0000
0000
1000
0010
0100
1000
0100
,
0010
0000
0000
2200
0000
3300
0000
0001
,
0001
1000
0001
1000
0010
0100
0001
0010
,
0200
0000
0000
1300
0000
0000
0010
0000
,
0101
0000
0000
0000
0000
0000
0000
0000
0001
0000
0000
0100
0010
0000
0100
0000
,
0001
0010
0100
2000
0000
0000
0000
0000
,
0000
0000
3000
0000
,
1000
0010
0100
2000
0000
0000
0000
0000
,
0000
0000
3000
0000
,
1000
0100
0010
0002
0000
0000
0000
0000
,
0000
0000
0003
0000
,
1000
0001
1000
0200
0000
0000
0000
0000
,
0010
0000
0000
1300
0000
1001
0000
0000
,
M001
0100
0010
0001
M100
0001
0010
0100
,
M001
0100
0010
0001
M100
0002
0000
0010
,
M013
0100
0001
0010
M001
0100
0010
0001
,
M100
0000
0001
0000
0010
0000
0100
0000
M000
0000
0001
0000
1000
0100
1000
0100
,
10M0
0100
1000
0001
10M0
0100
1000
0001
,
01M0
1000
0100
0002
00M0
0013
0000
1000
,
100M
0010
0100
1000
010M
0010
0100
1000
,
010M
0110
0000
2000
000M
3001
0001
0100
,
10M0
0100
0001
0100
10M0
0100
0001
1000
,
10M0
0100
0010
0020
000M
0100
0030
0001
,
00M1
0100
1000
0100
0001
0010
0100
1000
,
100M
0000
0200
0000
0000
0000
0010
0000
0300
0000
0001
0000
1000
0001
1000
0001
,
10M0
0100
0010
0001
M010
0100
1000
0010
,
0M01
0010
0100
0001
00M0
1000
0MM0
0001
,
0010
0100
0010
0002
0000
0000
0000
0000
,
0003
0000
0000
0000
0000
0000
0000
0000
0000
0000
1000
0000
0001
0010
0100
1000
,
0001
0000
0000
0000
;

//---------------dance-single - S. Bauer----------------
#NOTES:
     dance-single:
     S. Bauer:
     Beginner:
     1:
     0.193,0.241,0.056,0.301,0.000: // measure 1
0000
0000
0000
0000
,  // measure 2
0000
0000
0000
0000
,  // measure 3
0000
0000
0000
0000
,  // measure 4
0000
0000
0000
0000
,  // measure 5
0010
0000
0000
0001
,  // measure 6
0001
0000
0000
1000
,  // measure 7
1000
0000
0000
1001
,  // measure 8
1001
0000
0000
0000
,  // measure 9
0200
0000
0000
0000
,  // measure 10
0300
0000
0000
0000
,  // measure 11
0020
0000
0000
0000
,  // measure 12
0030
0000
0000
0000
,  // measure 13
2000
0010
0000
0000
,  // measure 14
3000
0010
0000
0000
,  // measure 15
2000
0010
0000
0000
,  // measure 16
3001
0000
0000
1001
,  // measure 17
0000
0000
0100
0000
0020
0000
0000
0030
,  // measure 18
0000
0000
0001
0001
,  // measure 19
0000
0000
0010
0000
0020
0000
0000
0030
,  // measure 20
0000
0000
0010
0010
,  // measure 21
0000
0000
0100
0000
0020
0000
0000
0030
,  // measure 22
0000
0000
1000
1000
,  // measure 23
0000
0000
0010
0000
0020
0000
0000
0030
,  // measure 24
0000
0000
0001
0000
,  // measure 25
0001
0000
0100
0000
0000
0000
0020
0030
,  // measure 26
0000
0000
0110
0000
0000
0000
0020
0030
,  // measure 27
0000
0000
1000
0000
0000
0000
0020
0030
,  // measure 28
0000
0000
0010
0000
0010
0000
0020
0030
,  // measure 29
0000
0000
0100
0000
0000
0000
0020
0030
,  // measure 30
0000
0000
0100
0000
0100
0000
0020
0030
,  // measure 31
0000
0000
0100
0000
0000
0000
0020
0030
,  // measure 32
0000
0000
0010
0000
0001
0000
0020
0030
,  // measure 33
0001
0000
0000
0000
0000
0000
0020
0030
,  // measure 34
0000
0000
0000
0000
0000
0000
0020
0030
,  // measure 35
0000
0000
0000
0000
0000
0000
0020
0030
,  // measure 36
0000
0000
0000
0000
0000
0000
0020
0030
,  // measure 37
0000
0000
0000
0000
0000
0000
0020
0030
,  // measure 38
0000
0000
0000
0000
0000
0000
0020
0030
,  // measure 39
0000
0000
0000
0000
0000
0000
0020
0030
,  // measure 40
0000
0000
0000
0000
0000
0000
0020
0030
,  // measure 41
0200
0000
0000
0000
,  // measure 42
0300
0000
0000
0000
,  // measure 43
0200
0000
0000
0000
,  // measure 44
0300
0000
0000
0000
,  // measure 45
0200
0000
0000
0010
,  // measure 46
0300
0010
0000
0010
,  // measure 47
0200
0010
0000
0010
,  // measure 48
0300
0000
0000
1000
,  // measure 49
0100
0000
0100
0000
0020
0000
0000
0030
,  // measure 50
0000
0000
1000
1000
,  // measure 51
0000
0000
0100
0000
0020
0000
0000
0030
,  // measure 52
0000
0000
0010
0000
,  // measure 53
1000
0000
1000
0000
0020
0000
0000
0030
,  // measure 54
0000
0000
0001
0001
,  // measure 55
0001
0000
0001
0000
0020
0000
0000
0030
,  // measure 56
0000
0000
1000
0000
,  // measure 57
1000
0000
0010
0000
,  // measure 58
0001
0100
0000
0100
,  // measure 59
1000
0000
0100
0000
,  // measure 60
0000
0001
0000
0100
,  // measure 61
1000
0010
0000
0010
,  // measure 62
0000
0001
0000
0010
,  // measure 63
0100
0000
0010
0000
,  // measure 64
0010
0000
0000
1001
,  // measure 65
0110
0000
0000
0000
;
