#TITLE:Less Than Three;
#SUBTITLE:;
#ARTIST:Becky;
#TITLETRANSLIT:;
#SUBTITLETRANSLIT:;
#ARTISTTRANSLIT:;
#GENRE:Bubblegum Pop;
#CREDIT:;
#BANNER:Less Than Three-bn.png;
#BACKGROUND:Less Than Three-bg.png;
#LYRICSPATH:;
#CDTITLE:;
#MUSIC:Less Than Three.ogg;
#OFFSET:-0.005;
#SAMPLESTART:37.920;
#SAMPLELENGTH:11.840;
#SELECTABLE:YES;
#BPMS:0.000=158.000;
#STOPS:;
#BGCHANGES:19.875=Less Than Three.mpg=1.000=0=0=1===FadeDown==,
271.250=Less Than Three-bg.png=1.000=0=0=1=====,
99999=-nosongbg-=1.000=0=0=0 // don't automatically add -songbackground-
;
#BGCHANGES2:271.250=white flash=1.000=0=0=1=====,
;
#KEYSOUNDS:;

//---------------dance-single - K. Ward + R. McKanna----------------
#NOTES:
     dance-single:
     K. Ward + R. McKanna:
     Easy:
     3:
     0.294,0.355,0.153,0.067,0.000,193.000,16.000,7.000,0.000,0.000,0.000,0.294,0.355,0.153,0.067,0.000,193.000,16.000,7.000,0.000,0.000,0.000:
0000
0000
0000
0000
,
0000
0000
0000
0000
,
0000
0000
0000
0000
,
0000
0000
0000
0000
,
0000
0000
0000
0000
,
1000
0000
0001
0000
,
0100
0100
0100
0000
,
0010
0001
0100
1000
,
0100
1000
0010
0001
,
1001
0000
0000
0000
,
0100
0000
0000
0000
,
1000
0000
0000
0000
,
0100
0000
0000
0000
,
0001
0000
0010
0000
,
0100
0000
1000
0000
,
0100
0000
0010
0000
,
1001
0000
0000
0000
,
1000
0001
1000
0001
,
1000
1000
1000
0000
,
0001
1000
0001
1000
,
0001
0001
0001
0000
,
0100
1000
0100
0010
,
2000
0000
3001
0000
,
1100
0000
0011
0000
,
1001
0110
1001
0000
,
0100
0100
0010
0010
,
1000
0001
1000
1000
,
0001
0010
0100
0010
,
0001
0001
0001
0000
,
1000
1000
0100
0100
,
0010
0100
0010
0010
,
0001
0010
1000
0010
,
0100
0100
0100
0000
,
0200
0000
0000
0310
,
0000
0001
1000
1000
,
0000
0010
0100
0100
,
0000
1000
1000
0100
,
0001
1000
1001
0000
,
0000
0010
0010
0010
,
0000
0100
0100
0100
,
0000
0010
0001
0100
,
1000
0001
1001
0000
,
0010
0000
0100
0000
,
0010
0010
0010
0000
,
1000
0010
0100
0001
,
0100
0010
1000
0001
,
0010
0100
0200
0000
,
0310
0001
2000
0000
,
3100
1000
0001
0100
,
1000
0100
0001
1000
,
1001
0000
0000
0000
,
0010
0010
0100
0100
,
0001
1000
0001
0001
,
1000
0100
0010
0100
,
1000
0001
1001
0000
,
0010
0010
0100
0100
,
0001
0010
0100
0010
,
0002
0000
1003
0000
,
0010
0100
0010
0000
0100
0000
0001
0000
,
1000
1000
0001
0001
,
0010
0100
0010
0000
,
0100
1000
0010
0001
,
1000
1000
1000
0000
,
0001
0001
1000
1000
,
0010
0001
0100
1000
,
1001
0000
1100
0000
,
0010
0100
0010
0000
1001
0000
0101
0000
,
2002
0000
0000
3003
;

//---------------dance-single - K. Ward----------------
#NOTES:
     dance-single:
     K. Ward:
     Beginner:
     1:
     0.127,0.160,0.114,0.000,0.000,81.000,12.000,0.000,0.000,0.000,0.000,0.127,0.160,0.114,0.000,0.000,81.000,12.000,0.000,0.000,0.000,0.000:
0000
0000
0000
0000
,
0000
0000
0000
0000
,
0000
0000
0000
0000
,
0000
0000
0000
0000
,
0000
0000
0000
0000
,
1000
0000
0000
0000
,
0001
0000
0000
0000
,
0010
0000
0000
0000
,
0100
0000
0000
0000
,
1001
0000
0000
0000
,
0000
0000
0000
0000
,
0001
0000
0000
0000
,
0000
0000
0000
0000
,
1000
0000
0000
0000
,
0000
0000
0000
0000
,
0100
0000
0010
0000
,
0100
0000
0000
0000
,
1000
0000
1000
0000
,
1000
0000
0000
0000
,
0001
0000
0001
0000
,
0001
0000
0000
0000
,
0100
0000
0100
0000
,
0100
0000
0000
0000
,
0010
0000
0000
0000
,
0100
0000
0010
0000
,
1001
0000
0000
0000
,
0001
0000
0000
0000
,
1001
0000
0000
0000
,
1000
0000
0000
0000
,
1001
0000
0000
0000
,
0001
0000
0001
0000
,
1001
0000
0000
0000
,
1000
0000
1000
0000
,
0000
0000
0000
0000
,
0100
0000
0000
0000
,
1000
0000
0000
0000
,
0001
0000
1000
0000
,
0001
0000
0000
0000
,
1000
0000
0000
0000
,
0001
0000
0000
0000
,
0100
0000
0100
0000
,
0010
0000
0010
0000
,
1001
0000
0000
0000
,
0001
0000
0000
0000
,
1000
0000
1000
0000
,
0010
0000
0100
0000
,
0001
0000
0000
0000
,
1000
0000
0000
0000
,
0100
0000
1000
0000
,
0001
0000
1000
0000
,
1001
0000
0000
0000
,
1000
0000
1001
0000
,
0001
0000
1001
0000
,
0100
0000
0010
0000
,
1000
0000
0000
0000
,
0001
0000
1001
0000
,
1000
0000
1001
0000
,
0001
0000
0000
0000
,
1000
0000
0000
0000
,
0010
0000
0100
0000
,
0010
0000
0000
0000
,
1000
0000
0001
0000
,
1000
0000
0000
0000
,
0001
0000
0000
0000
,
0100
0000
0000
0000
,
0010
0000
0000
0000
,
1000
0000
0001
0000
,
1001
0000
0000
0000
;

//---------------dance-single - R. McKanna----------------
#NOTES:
     dance-single:
     R. McKanna:
     Hard:
     8:
     0.510,0.582,0.315,0.095,0.010,331.000,33.000,10.000,40.000,0.000,0.000,0.510,0.582,0.315,0.095,0.010,331.000,33.000,10.000,40.000,0.000,0.000:
0000
0000
0000
0000
,
0000
0000
0000
0000
,
0000
0000
0000
0000
,
0000
0000
0000
0000
,
0000
0000
0000
0000
,
0010
0000
0010
1000
0010
0002
0000
0013
,
0000
0010
2000
0000
3010
0002
0000
0013
,
0000
0010
0002
0000
0013
2000
0000
3010
,
0000
0010
0001
0000
1001
0000
0000
0000
,
0001
0001
0000
0000
0100
0100
0000
0000
,
1000
1000
0000
0000
0100
0100
0000
0000
,
0010
0010
0000
0000
0001
0001
0000
0000
,
0010
0010
0000
0000
1000
1000
0000
0000
,
0001
1000
0000
0010
0000
0100
0000
0001
,
0000
0100
0000
0010
0000
0000
0100
0000
,
1001
0000
0100
0000
0001
1000
0000
1001
,
0000
0000
0000
0000
,
1001
1000
0010
1000
,
0001
0100
0000
0010
0000
1000
1000
0000
,
1001
0010
1000
0010
,
0001
0010
0000
0100
0000
0010
0001
0000
,
1001
0000
1000
0000
0010
0001
0000
0000
,
1000
0100
0000
0001
0000
1000
1000
0000
,
1001
0110
1001
0110
,
1000
0001
0000
1001
0000
0000
0000
0000
,
0010
1000
0010
0000
1000
0100
1000
0000
,
0100
0001
0100
1000
0100
0001
0100
0000
,
0010
0001
0100
1000
0100
0001
0010
0000
,
0001
1000
0001
1000
0001
0000
0101
0000
,
0100
0001
0100
0000
0001
0010
0001
0000
,
0010
1000
0010
0001
0010
1000
0010
0000
,
0100
1000
0010
0001
0010
1000
0100
0000
,
1000
0001
1000
0001
1000
0000
0101
0000
,
2002
0000
0000
3003
,
1000
0000
0100
0000
0001
0100
1000
0000
,
0001
0000
0100
0000
1000
0100
0001
0000
,
1000
0000
0010
0000
0001
0010
1000
0000
,
0001
0100
1000
0000
1001
0000
0110
0000
,
0001
0000
0010
0000
1000
0010
0001
0000
,
1000
0000
0010
0000
0001
0010
1000
0000
,
0001
0000
0100
0000
1000
0100
0001
0000
,
1000
0010
0001
0000
1001
0000
0110
0000
,
0001
0010
0001
0000
1000
0010
1000
1000
,
0001
0100
0001
0100
0001
0100
0010
0010
,
1000
0010
1000
0010
0100
0001
0020
0000
,
0031
1000
0001
1000
1000
0001
1000
0000
,
0001
0010
0001
0010
0001
0010
0200
0000
,
1300
0000
0010
0000
0100
0000
0010
0000
1000
0010
1000
0010
1000
0000
0100
0000
,
0010
0001
0010
1000
0010
0100
1000
0000
,
0001
1000
0001
1000
0001
0001
0001
0000
,
1000
0010
0001
0100
,
100M
0100
001M
0000
001M
0100
100M
0000
,
001M
0100
100M
0010
100M
0100
001M
0000
,
100M
0100
001M
1000
001M
0100
100M
0000
,
M0M1
0M01
M0M1
0M01
M0M1
0000
0110
0000
,
M001
0010
M100
0000
M100
0010
M001
0000
,
M100
0010
M001
0100
M001
0010
M100
0000
,
M001
0010
M100
0001
M100
0010
M001
0000
,
1M0M
10M0
1M0M
10M0
1M0M
0000
0110
0000
,
1001
0000
0010
0000
0010
0001
0100
0000
,
1001
0000
0010
0000
0010
1000
0100
0000
,
1001
0000
0010
0000
0010
1000
0100
0000
,
0100
1000
0010
0000
0100
0000
0100
0000
,
1001
0000
0010
0000
0010
1000
0100
0000
,
1001
0000
0010
0000
0010
0001
0100
0000
,
1001
0101
0110
1010
,
1001
1001
0000
1001
0000
0000
0000
0000
,
1002
0000
0000
0000
0000
1000
1003
0000
;

//---------------dance-single - R. McKanna----------------
#NOTES:
     dance-single:
     R. McKanna:
     Medium:
     6:
     0.410,0.452,0.114,0.095,0.000,279.000,12.000,10.000,0.000,0.000,0.000,0.410,0.452,0.114,0.095,0.000,279.000,12.000,10.000,0.000,0.000,0.000:
0000
0000
0000
0000
,
0000
0000
0000
0000
,
0000
0000
0000
0000
,
0000
0000
0000
0000
,
0000
0000
0000
0000
,
1000
0000
0100
0000
0010
0010
0000
0100
,
0000
0000
1000
0000
0010
0010
0000
0100
,
0000
0000
0001
0000
0010
0010
0000
0100
,
0000
1000
0001
0000
0100
0000
0000
0000
,
0001
0000
1000
0000
0001
0010
0000
0100
,
0000
0010
0000
0100
0000
0000
0000
0000
,
1000
0001
0000
0001
0000
1000
0000
1000
,
0000
0100
0000
0100
0000
0000
0000
0000
,
0001
1000
0000
1000
0000
0001
0000
0001
,
0000
0100
0000
0100
0000
0000
0001
0000
,
1001
0000
1000
0000
0001
1000
0000
0001
,
0000
0000
0000
0000
,
1000
1000
0100
0100
,
1000
0100
0000
0010
0000
0000
0000
0000
,
0001
0001
0100
0100
,
0001
0100
0000
0010
0000
0000
0000
0000
,
1000
0000
1000
0000
0100
0010
0000
0000
,
0001
0010
0000
0100
0000
0000
0000
0000
,
1001
0110
0110
1001
,
0001
1000
0000
1001
0000
0000
0000
0000
,
1000
0100
1000
0000
0100
1000
0100
0000
,
1000
0100
0010
0001
,
0001
0010
0001
0000
0010
0001
0010
0000
,
0001
0010
0100
1000
0001
0000
0000
0000
,
1000
0010
1000
0000
0001
0100
0001
0000
,
0100
0010
1000
0001
,
0001
0100
0001
0000
1000
0010
1000
0000
,
1000
0100
0010
0001
1000
0000
0000
0000
,
2002
0000
0000
3003
,
0000
0000
1000
0000
1000
0001
0100
0000
,
0000
0000
0010
0000
0010
1000
0100
0000
,
0000
0000
1000
0000
1000
0001
0100
0000
,
0100
0001
1000
0000
0100
0000
0000
0000
,
0000
0000
0001
0000
0001
1000
0100
0000
,
0000
0000
0010
0000
0010
0001
0100
0000
,
0000
0000
0001
0000
0001
1000
0100
0000
,
0100
1000
0001
0000
0001
0000
0000
0000
,
0010
1000
0100
0000
0010
0001
0100
0000
,
0002
0000
2003
0000
3001
1000
0001
0000
,
2000
0000
3002
0000
1003
0001
1000
0000
,
1000
0100
1000
0010
1000
0100
0010
0000
,
0002
0000
2003
0000
3100
0010
0001
0000
,
0001
0010
0100
1000
0200
0000
0000
0000
,
0310
0001
0010
0100
0010
0100
1000
0000
,
1000
0100
1000
0100
0010
0100
0010
0000
,
0000
0000
0000
0000
,
1000
0010
1000
0000
1000
0100
1000
0000
,
0001
0001
0010
0010
,
1000
0010
1000
0100
1000
0010
1000
0000
,
0010
1000
0100
1000
0010
0000
0000
0000
,
0001
0100
0001
0000
0001
0010
0001
0000
,
1000
1000
0100
0100
,
0001
0100
0001
0010
0001
0100
0001
0000
,
0100
0001
0010
0001
0100
0000
0000
0000
,
0001
0000
1000
0000
0010
1000
0100
0000
,
0001
0000
1000
0000
0010
1000
0100
0000
,
0001
0000
1000
0000
0010
1000
0100
0000
,
0100
1000
0010
0000
1001
0000
0110
0000
,
1000
0000
0100
0000
0010
0001
0100
0000
,
0001
0000
0010
0000
0100
1000
0010
0000
,
1001
0000
1001
0000
0010
0001
0100
0000
,
0100
0001
0010
0000
0110
0000
0000
0000
,
2000
0000
0000
0000
0000
0001
3001
0000
;

//---------------dance-single - J. Frederick----------------
#NOTES:
     dance-single:
     J. Frederick:
     Challenge:
     10:
     0.886,0.937,0.744,0.658,0.339,503.000,78.000,69.000,18.000,32.000,2.000,0.886,0.937,0.744,0.658,0.339,503.000,78.000,69.000,18.000,32.000,2.000: // measure 1
0000
0000
0000
0000
,  // measure 2
0000
0000
0000
0000
,  // measure 3
0000
0000
0000
0000
,  // measure 4
0000
0000
0000
0000
,  // measure 5
0000
0000
0000
0000
,  // measure 6
1001
0000
0010
0100
1000
0010
0100
0110
,  // measure 7
0000
0010
1000
0001
0010
0100
1000
1100
,  // measure 8
0000
0100
0010
0001
0100
0001
1000
0110
,  // measure 9
0000
0010
0100
0001
0010
0000
0110
0000
,  // measure 10
1000
0000
0010
1000
0001
0000
0010
0100
1000
0000
0010
0100
0001
0000
0010
0001
,  // measure 11
1000
0000
0001
0100
0010
0000
1000
0010
0100
0000
0001
0010
0100
0000
1000
0100
,  // measure 12
0010
0000
0001
0010
0100
0000
1000
0010
0100
0000
0010
1000
0010
0000
0100
0001
,  // measure 13
0010
0000
0100
1000
0100
0000
0010
0001
0100
0000
0001
1000
0010
0000
0100
0010
,  // measure 14
1000
0000
0001
0010
0100
0000
1000
0100
0010
0000
0001
0100
0001
0000
1000
0010
,  // measure 15
0100
0000
0010
0100
0010
0000
1000
0100
0010
0000
0001
1000
0010
0000
0100
0010
,  // measure 16
1000
0000
0001
0010
0100
0000
1000
0100
0010
0000
0001
0100
0001
0000
1000
0100
,  // measure 17
0010
0001
0010
0100
1000
0000
0001
0100
0010
0000
1000
0001
0010
0000
0100
1000
,  // measure 18
0001
0001
1000
0010
0100
0010
1000
0100
,  // measure 19
0010
0000
0001
0000
1000
0000
0001
0000
0010
0000
0100
0010
0100
0000
1000
0000
,  // measure 20
0010
0100
0001
0010
0100
1000
0100
0010
,  // measure 21
0001
0000
0100
0000
0001
0000
1000
0000
0010
0000
0100
0001
0100
0000
0001
0000
,  // measure 22
0010
0100
1000
0100
0010
0001
0100
0010
,  // measure 23
1000
0000
0010
0000
0100
0000
0001
0000
0010
0000
0001
0010
0001
0000
0000
0000
,  // measure 24
2002
0000
0000
3003
0220
0000
0000
0330
2002
0000
0000
3003
0220
0000
0000
0330
,  // measure 25
2200
0011
0000
0011
0000
0000
3300
0000
,  // measure 26
1000
0001
1000
0000
0200
0000
0000
0000
0310
0100
0010
0000
0002
0000
0000
0000
,  // measure 27
0103
0010
1000
0000
0010
0000
0100
0000
0001
0000
0010
0000
0200
0000
0000
0000
,  // measure 28
1300
0100
0010
0000
0001
0000
0100
0000
0001
0000
1000
0000
0010
0000
0000
0000
,  // measure 29
1020
0231
0312
1203
0321
0030
1001
0000
,  // measure 30
0100
0010
0100
0000
0020
0000
0000
0000
1030
0100
1000
0000
0200
0000
0000
0000
,  // measure 31
0310
0001
0010
0000
0100
0000
0001
0000
1000
0000
0010
0000
0200
0000
0000
0000
,  // measure 32
0301
0010
0001
0000
1000
0000
0001
0000
0100
0000
0010
0000
1000
0000
0000
0000
,  // measure 33
2010
3201
0321
2031
3201
0300
1010
0000
,  // measure 34
1000
0000
0001
0000
0010
0100
0000
1000
0000
0100
0000
0010
0001
0000
0100
0000
,  // measure 35
0001
1000
0010
0100
M011
0M11
M011
0010
,  // measure 36
0100
1000
0010
0100
011M
M110
011M
1000
,  // measure 37
0001
0010
0100
1000
11M0
110M
11M0
1000
,  // measure 38
0010
0100
0001
1000
1001
0000
1001
0000
,  // measure 39
0100
0010
1000
0001
M011
0M11
M011
1000
,  // measure 40
0010
0100
0001
0010
M110
011M
M110
1000
,  // measure 41
0010
0100
0001
0010
0M11
M011
0M11
1000
,  // measure 42
0010
0100
0001
1000
1001
0000
1001
0000
,  // measure 43
1000
0010
0100
0001
0010
0100
1000
0100
,  // measure 44
0010
0010
0001
0001
0100
0100
0010
0010
,  // measure 45
1000
0001
0010
0100
1000
0100
0020
0000
,  // measure 46
0031
0100
0001
1000
0001
0100
0002
0000
,  // measure 47
1003
0010
0100
0001
0010
0001
1002
0000
,  // measure 48
1003
0000
0010
0000
0100
0000
0001
0000
0010
0100
1000
0010
0100
0000
0001
0000
,  // measure 49
0010
0100
1000
0010
0100
0001
0020
0030
,  // measure 50
0021
0132
1203
1320
2031
3201
0321
0030
,  // measure 51
1000
0000
0010
0000
0100
0001
0000
0010
0000
0100
0010
0000
0100
0000
0010
0000
,  // measure 52
1000
0001
1000
0000
0200
0000
0000
0000
0310
0100
0010
0000
0002
0000
0000
0000
,  // measure 53
0103
0010
1000
0000
0010
0000
0100
0000
0001
0000
0010
0000
0200
0000
0000
0000
,  // measure 54
1300
0100
0010
0000
0001
0000
0100
0000
0001
0000
1000
0000
0010
0000
0000
0000
,  // measure 55
1020
0231
0312
1203
0321
0030
1001
0000
,  // measure 56
0100
0010
0100
0000
0020
0000
0000
0000
1030
0100
1000
0000
0200
0000
0000
0000
,  // measure 57
0310
0001
0010
0000
0100
0000
0001
0000
1000
0000
0010
0000
0200
0000
0000
0000
,  // measure 58
0301
0010
0001
0000
1000
0000
0001
0000
0100
0000
0010
0000
1000
0000
0000
0000
,  // measure 59
2010
3201
0321
2031
3201
0300
1010
0000
,  // measure 60
0001
1000
0001
0000
0020
0000
0000
0000
0130
0010
0100
0000
2000
0000
0000
0000
,  // measure 61
3010
0100
0001
0000
0100
0000
0010
0000
1000
0000
0100
0000
0020
0000
0000
0000
,  // measure 62
0031
0010
0100
0000
1000
0000
0010
0000
1000
0000
0001
0000
0100
0000
0000
0000
,  // measure 63
0201
1320
2130
3021
1230
0300
1001
0000
,  // measure 64
0010
0100
0010
0000
0200
0000
0000
0000
0301
0010
0001
0000
0020
0000
0000
0000
,  // measure 65
0130
1000
0100
0000
0010
0000
1000
0000
0001
0000
0100
0000
0020
0000
0000
0000
,  // measure 66
1030
0100
1000
0000
0001
0000
1000
0000
0010
0000
0100
0000
0001
0000
0000
0000
,  // measure 67
0102
1023
1230
1302
1023
0030
1010
0000
,  // measure 68
4000
0000
0000
0004
0000
0000
0000
0000
0000
0000
0000
0000
0000
0000
0000
0000
0000
0000
0000
0000
0000
0000
0000
0000
3003
0000
0000
0000
0000
0000
0001
0000
0000
0000
0100
0000
0000
0000
0000
0000
0000
0000
0000
0000
0000
0000
0000
0000
;

//---------------dance-double - M.Emirzian----------------
#NOTES:
     dance-double:
     M.Emirzian:
     Challenge:
     10:
     0.688,0.711,0.239,0.067,0.491,473.000,25.000,7.000,112.000,1.000,0.000,0.688,0.711,0.239,0.067,0.491,473.000,25.000,7.000,112.000,1.000,0.000:
00000000
00000000
00000000
00000000
,
00000000
00000000
00000000
00000000
00000000
00000000
00000000
00100010
,
00000000
00000010
00001000
00000000
00100000
10000000
M0000000
01000100
,
00000000
01000000
00010000
00000000
00001000
00000010
00000000
00100010
,
00000000
01000000
00000100
00000000
00011000
00000000
00100010
00000000
,
00010000
00000000
10000000
00001000
00010000
00000001
0000000M
00010010
,
00000000
00001000
00000010
00000000
00010000
01000000
M0000000
01001000
,
00000000
01000000
00010000
00000000
00000010
00000001
0000000M
00001100
,
00000000
00000010
00100000
00000000
00011000
00000000
01000100
00000000
,
00010000
00002000
00000000
00000010
00000000
00010000
00000000
00003100
,
00000000
00000002
00000000
00010000
00000000
00000100
00000000
00000013
,
00000100
00020000
00000000
00100000
00000000
00001000
00000000
01030000
,
00000000
00200000
00000000
10000000
00000000
01000000
00000000
00310000
,
01000000
00002000
00000000
00000010
00000000
00000100
00000000
00003001
,
00000000
00000100
00000000
00001000
00000000
00000001
00010000
00001000
,
10000000
00100000
00000000
01000000
00000000
00001000
00000000
00010000
,
00001000
01000000
00001000
00000000
00010000
00001000
00010000
00000000
00001000
00010000
00000100
00000000
00010000
00000000
00000010
00000000
,
00001000
00000000
00000010
00000100
00000000
00000000
00000100
00000001
00000000
00000000
00000001
00000010
00000000
00000000
00000010
00000100
,
00000000
00000000
00000100
01000000
00000000
00000000
01000000
00100000
00000000
00000000
00100000
00000000
10000000
00000000
01000000
00000000
,
00100000
00000000
00010000
01000000
00000000
00000000
01000000
00000010
00000000
00000000
00000010
00001000
00000000
00000000
00001000
00000100
,
00000000
00000000
00000100
00100000
00000000
00000000
00100000
00010000
00000000
00000000
00010000
00000000
10000000
00000000
01000000
00000000
,
00010000
00000000
00001000
00000100
00000000
00000000
00000100
00000001
00000000
00000000
00000001
00000010
00000000
00000000
00000010
00000100
,
00000000
00000000
00000100
01000000
00000000
00000000
01000000
00001000
00000000
00000000
00001000
00000000
00010000
00000000
00000000
00000000
,
00100100
01000010
00100100
00011000
,
000MM000
00000000
02000200
00000000
00000000
00000000
00011000
03000300
00000000
00000000
00000000
00000000
000MM000
00000000
00000000
00000000
,
00011000
00000000
00000000
00010000
00001000
00000000
00000000
00001000
01000000
00000000
00000000
01000000
00100M00
00000000
00000M00
00100000
,
10000M00
01000MMM
00100000
00000100
00000010
00000001
00001000
00000010
,
00000100
00000000
00M00000
00000100
0M0M0001
00000000
0M0M0000
00000001
0M0M1000
00000000
00M00000
00001000
00000100
00000000
00000010
00000000
,
00000100
01000000
00000010
00100000
00000100
00000000
00011000
000MM000
,
01000000
00000000
00000000
01000000
00100000
00000000
0000M000
00100000
1000M000
00000000
0000M000
10000000
0100MMM0
00000000
00000000
01000000
,
00100000
00001000
00000100
00000001
00010000
00001000
10000000
00100000
,
01000000
00000000
00000000
01000000
00001000
00000000
00000000
00001000
00010000
00000000
00000000
00010000
00000100
00000000
00001000
00000000
,
00000010
01000000
00000100
00100000
00000010
00000000
00011000
000MM000
,
10000000
00000000
01000000
00000000
00100000
00010000
00000000
01000000
00000000
00001000
00000000
01000000
00000000
00010000
00000000
00000000
,
00100000
00001000
00010000
00000100
00000010
0M0M0001
M0M0M100
M000M010
,
00001000
00000000
00000000
00001000
00000100
00000000
00000000
00000100
01000000
00000000
00000000
01000000
00000100
00000000
00010000
00000000
,
00001000
01000000
00100000
10000000
01000000
00100000
00010000
01000000
,
00001000
00000000
00010000
00000010
00000000
00000000
00000010
00100000
00000000
00000000
00100000
00000010
00000000
00000000
00000010
00000000
,
00001000
00000100
00000010
00000001
00000100
00000010
00010000
00001000
,
01000000
00000000
00000000
01000000
00000010
00000000
00000000
00000010
01000000
00000000
00000000
01000000
00000100
00000000
00010000
00000000
,
00001000
10000000
010000M0
00100M0M
00010MMM
01000M0M
00001M0M
00010000
,
00000100
00000000
00001000
00000010
00000000
00000000
00000010
01000000
00000000
00000000
01000000
00000010
00000000
00000000
00000010
00000000
,
00001000
00000100
00000010
00000MM0
00000001
00001000
00000100
00000010
,
00000001
00000100
00000000
00000100
00000010
00000000
00001000
00000000
00000100
00010000
00000000
00010000
00001000
00000000
01000000
00000000
,
00001000
00010000
00001000
00000000
01000000
00010000
01000000
00000000
00100000
00000000
10000000
00000000
01000000
00000000
0MM00000
00000000
,
00100000
00000000
00010000
00000000
01000000
00000000
00100000
01000000
00010000
00000000
00100000
00000000
00001000
00010000
00000000
00000010
,
00010000
00001000
00010000
00000000
00000100
00000000
00001000
00000000
00M00010
00000100
0M0M0001
00000000
0M0M1000
00000100
0M0M0000
00000010
,
00M00100
00001000
00000000
00001000
00000010
00000000
00000010
00000000
00010000
00001000
01000000
00001000
00010000
00000000
00001000
00000000
,
00100000
00010000
01000000
00000000
00100000
10000000
00100000
00000000
01000000
00000000
00010000
00000000
00100000
00000000
00000000
00000000
,
00000100
01000000
00000010
00100000
00000100
01000000
00000010
00000000
,
10000000
00010000
10000000
00000000
00010000
00001000
00010000
00000000
00000001
00001000
00000001
00000000
00000010
00000100
00000010
00000000
,
00000001
00000000
00000000
00000001
00000100
00000000
00000000
00000100
00000010
00000000
00000000
00000010
00100000
00000000
00000000
00100000
,
00000010
00010000
00001000
10000000
01000000
10000000
00001000
00010000
,
00000100
00000000
00000000
00000100
0MM00010
00000000
0M0M0000
00000010
0MM00001
00000000
0M0M0000
00000001
0M0M0100
00000000
00000010
00000000
,
00100000
00000100
01000000
00000010
00100000
00000000
00011000
000MM000
,
00000010
00000000
00000000
00000010
00010000
00000000
00000000
00010000
00100000
00000000
00000000
00100000
10000000
00000000
00000000
10000000
,
01000000
00100000
00001000
01000000
00000100
00010000
00000010
0M000100
,
M0M00001
00000000
M0M00000
00000001
M0M01000
00000000
0M000000
00001000
00000010
00000000
00000000
00000010
00010000
00000000
00001000
00000000
,
01000000
00000010
00100000
00000100
01000000
00000000
00011000
00000000
,
10010000
00000000
00000MMM
10000000
00100M00
00000000
00000MM0
00100000
01000M00
00000000
00000M00
01000000
00001000
00000000
00000000
00001000
,
00000010
00000001
00010000
00000001
00000100
00000001
00001000
00000100
,
00010000
00000000
00000000
00010000
00000100
00000000
00000000
00000100
01000000
00000000
00000000
01000000
00100000
00000000
10000000
00000000
,
01000000
00100000
00001000
01000000
00000100
00000000
00011000
000MM000
,
00010000
00000000
00000000
00010000
00000100
00000000
00000000
00000100
00100000
00000000
00000000
00100000
00000100
00000000
00000000
00000100
,
00010000
00001000
01000000
00000010
00010000
00001000
01000000
00100M00
,
10000M00
00000000
00000M00
10000000
01000MMM
00000000
00000000
01000000
00100000
00000000
00000000
00100000
00001000
00000000
01000000
00000000
,
00000010
00100000
00000100
01000000
00000010
00000000
00100100
00000MM0
,
010M001M
00M0000M
0M000MM0
00M0000M
000M000M
00001MM0
00010000
00000000
;

//---------------dance-double - M.Emirzian----------------
#NOTES:
     dance-double:
     M.Emirzian:
     Hard:
     8:
     0.586,0.517,0.267,0.019,0.267,400.000,28.000,2.000,4.000,0.000,0.000,0.586,0.517,0.267,0.019,0.267,400.000,28.000,2.000,4.000,0.000,0.000:
00000000
00000000
00000000
00000000
,
00000000
00000000
00000000
00000000
00000000
00000000
00000000
00010000
,
00000000
00100000
00001000
00000000
00010000
00000010
00000000
00001000
,
00000000
00000100
00010000
00000000
00001000
00100000
00000000
00010000
,
00000000
01000000
00001000
00000000
00011000
00000000
00000000
00000000
,
00000010
00000000
00000100
00001000
00000001
00000010
00000000
00000100
,
00000000
00010000
00001000
00000000
01000000
00100000
00000000
10000000
,
00000000
01000000
00100000
00000000
00001000
00010000
00000000
00000010
,
00000000
00000100
00000001
00000000
00001001
00000000
00001100
00000000
,
00000001
00000100
00000000
00000010
00000000
00001000
00000000
00000100
,
00000000
00010000
00000000
00001000
00000000
0000M000
00000000
00010000
,
00001000
01000000
00000000
00100000
00000000
01000000
00000000
00010000
,
00000000
10000000
00000000
01000000
00000000
0M000000
00000000
00100000
,
00010000
01000000
00000000
00001000
00000000
00010000
00000000
00000100
,
00000000
00000010
00000000
00000001
00000000
00001000
00000010
00000000
,
00000100
00000000
00000001
00000000
00001000
00000100
00000000
00010000
,
00000000
00001000
00010000
00000000
01001000
00000000
01010000
00000000
,
00000000
00000000
01000000
00010000
00000000
00000000
00010000
10000000
00000000
00000000
10000000
01000000
00000000
00000000
01000000
00100000
,
00000000
00010000
00000000
01000000
00000000
00001000
00010000
00000000
,
00001000
00000000
00010000
00000100
00000000
00000000
00000100
00001000
00000000
00000000
00001000
00000001
00000000
00000000
00000001
00000010
,
00000000
00000100
00000000
00001000
00000000
00000100
00000010
00000000
,
00000001
00000000
00000100
00000010
00000000
00000000
00000010
00001000
00000000
00000000
00001000
00000100
00000000
00000000
00000100
00010000
,
00000000
00001000
00000000
01000000
00000000
00001000
00010000
00000000
,
00011000
00101000
00011000
00010100
,
00011000
01001000
00000000
00110000
00000000
00000000
11000000
00000000
,
10000000
00000000
00000000
10000000
00100000
00000000
00000000
00100000
01000000
00000000
00000000
01000000
00010000
00000000
00000000
00010000
,
10000000
01000000
00100000
00010000
00100000
00001000
00010000
00000000
,
00000100
00000000
00000000
00000100
00001000
00000000
00000000
00001000
00000010
00000000
00000100
00000000
00000001
00000000
00000000
00000000
,
00000010
00000100
00001000
00000100
00000010
00000000
00000011
00000000
,
00000010
00000000
00000000
00000010
00000100
00000000
00000000
00000100
00001000
00000000
00000000
00001000
00000010
00000000
00000000
00000010
,
00010000
00001000
01000000
00001000
00010000
00001000
00100000
00000000
,
00010000
00000000
00000000
00010000
10000000
00000000
00000000
10000000
01000000
00000000
00100000
00000000
00010000
00000000
00000000
00000000
,
00100000
01000000
10000000
01000000
00010000
00000000
11000000
00000000
,
00010000
10000000
00000000
01010000
00000000
10100000
00000000
00010000
,
10000000
01000000
00100000
00010000
01000000
00001000
00010000
00000000
,
00001000
00000000
00000000
00001000
00010000
00000000
00000000
00010000
00001000
00000000
00000000
00001000
00000010
00000000
00000000
00000010
,
00000001
00001000
00000010
00000100
00000001
00001000
00000100
00000000
,
00000010
00000100
00001000
00000000
00010100
00000000
00011000
00000000
,
00010000
00001000
00100000
00001000
00010000
00001000
01000000
00000000
,
00010000
00000000
00000000
00010000
01000000
00000000
00000000
01000000
00010000
00000000
00000000
00010000
00100000
00000000
00000000
00100000
,
01000000
10000000
00010000
01000000
00001000
00010000
00000010
00000000
,
00000100
00000010
00001000
00000000
00010010
00000000
00011000
00000000
,
00001000
00010000
00000100
00000000
00001000
00010000
00000100
00000000
,
00001000
00010000
00000100
00010000
00001000
00000010
00000001
00000000
,
00001000
00000010
00001000
00000010
00000100
00000001
00000010
00000000
,
00000100
00010000
00001000
01000000
00001000
00000000
00011000
00000000
,
00001000
01000000
00010000
01000000
00001000
00000000
01010000
00000000
,
00100000
10000000
01000000
00100000
00010000
01000000
00100000
00000000
,
00010000
01000000
00100000
10000000
01000000
00100000
00010000
00000000
,
01000000
00001000
00010000
00000100
00000010
00000000
00000MM0
00000000
,
00000001
00000100
00000010
00001000
00000010
00000100
00000001
00000000
,
00000010
00000000
00000000
00000010
00000100
00000000
00000000
00000100
00001000
00000000
00000000
00001000
00000010
00000000
00000000
00000010
,
00010000
00001000
01000000
00010000
00100000
01000000
10000000
00000000
,
00100000
00000000
00000000
00100000
01000000
00000000
00000000
01000000
00010000
00000000
10000000
00000000
01000000
00000000
00000000
00000000
,
00100000
00010000
01000000
00001000
00010000
00000000
00101000
00000000
,
00100000
00000000
00000000
00100000
00001000
00000000
00000000
00001000
00010000
00000000
00000000
00010000
00000100
00000000
00000000
00000100
,
00001000
00000001
00000010
00000100
00001000
00000010
00000100
00000000
,
00000001
00000000
00000000
00000001
00000100
00000000
00000000
00000100
00000010
00000000
00001000
00000000
00000001
00000000
00000000
00000000
,
00000100
00001000
00000100
00000001
00001000
00000000
00000011
00000000
,
00001000
00000000
00000000
00001000
00000100
00000000
00000000
00000100
00010000
00000000
00000000
00010000
00001000
00000000
00000000
00001000
,
00100000
00010000
10000000
00100000
01000000
00010000
10000000
00000000
,
01000000
00000000
00000000
01000000
00100000
00000000
00000000
00100000
00010000
00000000
01000000
00000000
00010000
00000000
00000000
00000000
,
00100000
00001000
00010000
00100000
10000000
00000000
11000000
00000000
,
10000000
00000000
00000000
10000000
01000000
00000000
00000000
01000000
00100000
00000000
00000000
00100000
00010000
00000000
00000000
00010000
,
01000000
00001000
00010000
00000100
00000010
00000001
00001000
00000000
,
00000010
00000000
00000000
00000010
00000100
00000000
00000000
00000100
00000001
00000000
00001000
00000000
00000100
00000000
00000000
00000000
,
00000010
00000100
00001000
00000010
00010000
00000000
00011000
00000000
,
02002000
00000000
00000000
00000000
00000000
03000000
00003000
00000000
;

//---------------dance-double - M.Emirzian----------------
#NOTES:
     dance-double:
     M.Emirzian:
     Easy:
     3:
     0.199,0.226,0.048,0.057,0.000,135.000,5.000,6.000,0.000,0.000,0.000,0.199,0.226,0.048,0.057,0.000,135.000,5.000,6.000,0.000,0.000,0.000:
00000000
00000000
00000000
00000000
,
00000000
00000000
00000000
00000000
,
00000000
00000000
00000000
00000000
,
00000000
00000000
00000000
00000000
,
00000000
00000000
00100000
00000000
,
10000000
00000000
00010000
01000000
,
01000000
00000000
00001000
00010000
,
00010000
00000000
00001000
00000000
,
00010000
00000000
00011000
00000000
,
00000100
00000000
00000000
00000000
,
00000000
00000000
00000000
00000000
,
00000001
00000000
00000000
00000000
,
00000000
00000000
00000000
00000000
,
00010000
00000000
00000000
00000000
,
00000000
00000000
00000000
00000000
,
00001000
00000000
00000000
00000000
,
00010000
00000000
00001000
00000000
,
01000000
00000000
00010000
00000000
,
10000000
00100000
00100000
00000000
,
01000000
00000000
00010000
00000000
,
10000000
01000000
01000000
00000000
,
00100000
00000000
00001000
00000000
,
00010000
00001000
00001000
00000000
,
00000100
00000000
00000001
00000000
,
00001001
00000000
00000100
00000000
,
00000010
00000000
00001000
00000000
,
00000100
00001000
00001000
00000000
,
00000010
00010000
00010000
00000000
,
00001000
00010000
00001000
00000000
,
00010000
00000000
00001000
00000000
,
01000000
00010000
00010000
00000000
,
00100000
10000000
10000000
00000000
,
00010000
01000000
00010000
00000000
,
00022000
00000000
00000000
00033000
,
00100000
00000000
01000000
00000000
,
00100000
00000000
01000000
00000000
,
00001000
00000000
00010000
00000000
,
00000010
00000100
00000010
00000000
,
00000001
00000000
00001000
00000000
,
00000001
00000000
00001000
00000000
,
00000010
00000000
00010000
00000000
,
00001000
00010000
00001000
00000000
,
10000000
00000000
00000000
00000000
,
01000000
00000000
00100000
00000000
,
00010000
00000000
00000000
00000000
,
00001000
00000000
00000100
00000000
,
00000010
00000000
00000000
00000000
,
00000001
00000000
00000100
00000000
,
00000010
00000000
00000000
00000000
,
00010000
00000000
01000000
00000000
,
20200000
00000000
00000000
30300000
,
10000000
00000000
00010000
00000000
,
10000000
01000000
01000000
00000000
,
00010000
00001000
00001000
00000000
,
00010000
00000100
00010000
00000000
,
00001000
00000000
00010000
00000000
,
00000100
00001000
00001000
00000000
,
00000010
00000001
00000001
00000000
,
00000010
00001000
00000010
00000000
,
00000100
00000000
00000001
00000000
,
00001000
00000100
00000100
00000000
,
00010000
00001000
00001000
00000000
,
00010000
00001000
00010000
00000000
,
01000000
00000000
10000000
00000000
,
00010000
01000000
01000000
00000000
,
00100000
10000000
10000000
00000000
,
01000000
00100000
01000000
00000000
,
20020000
00000000
00000000
00000000
00000000
30000000
00030000
00000000
;

//---------------dance-double - M.Emirzian----------------
#NOTES:
     dance-double:
     M.Emirzian:
     Medium:
     5:
     0.375,0.355,0.048,0.019,0.000,268.000,5.000,2.000,0.000,0.000,0.000,0.375,0.355,0.048,0.019,0.000,268.000,5.000,2.000,0.000,0.000,0.000:
00000000
00000000
00000000
00000000
,
00000000
00000000
00000000
00000000
,
00000000
00000000
00000000
00000000
,
00000000
00000000
00000000
00000000
00000000
00000000
00000000
10000000
,
00000000
00010000
10000000
00000000
01000000
00000000
00000000
00000000
,
00100000
00000000
00010000
00000000
00100000
00010000
00000000
10000000
,
00000000
00000000
00010000
00000000
01000000
00001000
00000000
01000000
,
00000000
00000000
00001000
00000000
00010000
00001000
00000000
00010000
,
00000000
00000100
00001000
00000100
,
00001000
00000000
00000001
00000000
,
00001000
00000010
00001000
00000000
,
00000100
00000000
00010000
00000000
,
00001000
01000000
00001000
00000000
,
00100000
00000000
00010000
00000000
,
10000000
00100000
10000000
00000000
,
10000000
00000000
01000000
00000000
00010000
00000000
00000000
00011000
,
00000000
00010000
00001000
00010000
,
00001000
00010000
00000100
00001000
,
00000100
00001000
00000000
00000100
00000000
00001000
00000100
00000000
,
00001000
00000001
00000100
00000010
,
00001000
00000010
00000000
00001000
00000000
00000010
00001000
00000000
,
00000010
00010000
00001000
01000000
,
00010000
01000000
00000000
00010000
00000000
01000000
00010000
00000000
,
10000000
00100000
01000000
00010000
,
10000000
00010000
00000000
01100000
00000000
00000000
00010000
00000000
,
10000000
01000000
10000000
00000000
00010000
00100000
00010000
00000000
,
00100000
00000000
00001000
00000000
00010000
00000100
00001000
00000000
,
00000100
00000000
00010000
00000000
00001000
01000000
00001000
00000000
,
00010000
00000100
00010000
00000100
00010000
00000000
00000000
00000000
,
00000100
00001000
00000100
00000000
00000010
00000001
00000010
00000000
,
00000001
00000000
00000100
00000000
00000010
00001000
00000010
00000000
,
00001000
00000000
00000100
00000000
00010000
00001000
00010000
00000000
,
00000100
00010000
00000100
00010000
00000100
00000000
00000000
00000000
,
00010000
00000000
00001000
00000000
,
01000000
00000000
00001000
00000000
01000000
00010000
01000000
00000000
,
00000000
00000000
00100000
00000000
10000000
00010000
10000000
00000000
,
00000000
00000000
01000000
00000000
00100000
00010000
00100000
00000000
,
00010000
00100000
00010000
00000000
00101000
00000000
00000000
00000000
,
00001000
00000000
00010000
00000000
00000100
00001000
00000100
00000000
,
00000000
00000000
00000001
00000000
00000100
00000010
00000100
00000000
,
00000000
00000000
00000010
00000000
00001000
00000010
00001000
00000000
,
00000010
00001000
00000010
00000000
00010010
00000000
00000000
00000000
,
00010000
00000000
00001000
00000000
,
01000000
00001000
01000000
00000000
,
00010000
01000000
00010000
00000000
,
10000000
00100000
01000000
00010000
,
10000000
00000000
00100000
00000000
,
01000000
00001000
00010000
00000000
,
00000100
00010000
00000100
00001000
,
00000100
00001000
00000100
00000000
,
00000001
00000100
00000001
00000100
,
00000010
00001000
00000010
00000000
00000100
00000001
00000100
00000000
,
00000010
00000000
00001000
00000000
00000100
00001000
00000100
00000000
,
00010000
00000000
00001000
00000000
01000000
00001000
00010000
00000000
,
00001000
00010000
00001000
00010000
00001000
00000000
00000000
00000000
,
01000000
00010000
01000000
00000000
00100000
10000000
00100000
00000000
,
01000000
00000000
00010000
00000000
00100000
00001000
00010000
00000000
,
00000100
00000000
00001000
00000000
00000010
00001000
00000001
00000000
,
00000100
00000010
00000100
00000010
00000100
00000000
00000000
00000000
,
00000001
00001000
00000001
00000000
00000010
00000100
00000010
00000000
,
00000001
00000000
00001000
00000000
00000010
00010000
00001000
00000000
,
00010000
00000000
00000100
00000000
00010000
00001000
01000000
00000000
,
00010000
01000000
00010000
01000000
00010000
00000000
00000000
00000000
,
00100000
10000000
00100000
00000000
10000000
00010000
10000000
00000000
,
01000000
00000000
00100000
00000000
00010000
01000000
00100000
00000000
,
01000000
00000000
00001000
00000000
00010000
00000100
00001000
00000000
,
00000001
00001000
00000001
00001000
00000001
00000000
00000000
00000000
,
00000220
00000000
00000000
00000000
00000000
00000300
00000030
00000000
;
