#TITLE:Land of the Rising Sun;
#SUBTITLE:(Diskowarp Mix);
#ARTIST:Spacekats;
#TITLETRANSLIT:;
#SUBTITLETRANSLIT:;
#ARTISTTRANSLIT:;
#GENRE:World Techno;
#CREDIT:;
#BANNER:Land of the Rising Sun (Diskowarp Mix)-bn.png;
#BACKGROUND:Land of the Rising Sun (Diskowarp Mix)-bg.png;
#LYRICSPATH:;
#CDTITLE:;
#MUSIC:Land of the Rising Sun (Diskowarp Mix).ogg;
#OFFSET:-0.030;
#SAMPLESTART:47.984;
#SAMPLELENGTH:14.280;
#SELECTABLE:YES;
#BPMS:0.000=159.999;
#STOPS:;
#BGCHANGES:0.066=Land of the Rising Sun (Diskowarp Mix).mpg=1.000=1=0=0=StretchNoLoop==CrossFade==,
99999=-nosongbg-=1.000=0=0=0 // don't automatically add -songbackground-;
#KEYSOUNDS:;

//---------------dance-single - K. Ward----------------
#NOTES:
     dance-single:
     K. Ward:
     Hard:
     8:
     0.524,0.522,0.281,0.091,0.072,364.000,31.000,10.000,14.000,0.000,0.000,0.524,0.522,0.281,0.091,0.072,364.000,31.000,10.000,14.000,0.000,0.000:
0000
0000
0000
0000
,
0000
0000
0000
0000
,
0000
0000
0000
0000
,
1100
0011
0110
1001
,
0100
0010
1000
0000
0010
0100
0001
0000
,
0010
0100
1000
0100
0010
0100
1000
0000
,
0010
0100
0001
0000
0100
0010
1000
0000
,
0010
0100
0001
0010
0001
0100
0001
0010
,
0100
0000
0000
0000
0100
0000
0000
1000
0000
1000
0010
0000
0100
0000
0001
0000
,
0020
0100
0001
0130
,
1000
0100
0010
0000
0100
0010
0001
0000
,
0100
1000
0010
0001
,
1001
0000
0000
0000
0001
0000
0000
0010
0000
0010
0001
0000
0100
0000
0010
0000
,
0200
1000
0010
1300
,
0010
0100
0001
0000
0010
0100
1000
0000
,
0100
0010
0100
0010
,
1001
0100
0100
0000
1001
0010
0010
0000
,
0100
0000
0001
0000
0010
0000
0100
0000
1000
0100
0000
1000
0000
0000
0000
0000
,
0010
0100
0001
0010
0100
0010
0001
0000
,
1000
0001
1000
0001
1000
1000
1000
0000
,
0100
0010
0001
0000
0010
0100
0010
0000
,
0001
0001
0100
0001
0010
0010
0010
0000
,
0100
1000
0100
1000
,
0010
0100
0001
0010
0100
0000
0010
0000
,
1001
1001
0011
0011
,
1100
0110
1001
1001
,
1000
0100
0010
0001
1000
0100
0010
0001
,
1000
0001
1000
0001
,
0010
0101
1000
1100
,
0010
0100
0001
0000
0010
0000
1001
0000
,
0100
0000
0000
0010
0000
0000
0100
0000
0001
0000
0000
0010
0000
0000
0001
0000
,
0000
0000
0000
0000
,
1000
0000
0000
0000
0001
0000
0000
0010
0100
0000
1000
0000
0010
0000
0100
0000
,
0010
0100
0001
1000
,
0100
0000
0110
0000
0100
0000
1010
0020
,
0000
0100
0001
0130
,
0001
0000
0000
0000
1000
0000
0000
0100
0010
0000
0001
0000
0100
0000
0010
0000
,
0100
0001
1000
0100
,
MMMM
0000
0101
0000
0010
0100
0001
0000
,
0010
0100
0010
0100
,
1001
0001
0001
0001
,
1000
1000
1000
1000
,
0100
1000
0010
0002
,
0003
0110
1001
0110
,
0010
1000
0010
0100
0010
0001
0010
0100
,
0010
1000
0010
0100
0010
0001
0010
0100
,
0010
1000
0010
0100
0010
0001
0010
0100
,
0010
1000
0100
0011
,
0010
0000
0100
0000
0010
0000
0100
1000
0000
1000
0010
0000
0100
0000
0001
0000
,
0020
0100
0001
0130
,
1000
0001
0010
0000
0100
0010
1000
0000
,
0001
0001
1000
1000
,
0100
0000
0010
0000
0100
0000
0010
0100
0000
0100
1000
0000
0010
0000
0100
0000
,
0020
0100
0001
0130
,
0001
1000
0100
0000
0100
0010
0001
0000
,
1000
0000
0001
0000
0010
0100
0010
0000
,
1001
0000
1001
0000
0100
0010
0100
0000
,
1000
0001
1000
0001
,
0020
0000
0130
0MM0
,
0200
0010
1000
0310
,
0010
0000
0000
0000
0100
0000
0000
0001
0010
0000
0001
0000
1000
0000
0000
0000
,
0100
0010
0100
0010
,
MMMM
1001
0010
0000
,
0100
1000
0010
0001
,
1000
0001
0100
0001
1000
0001
0100
0001
,
0010
0100
0010
0100
,
0001
0100
0010
0100
0001
0100
0010
1000
,
0100
0000
0000
0000
0100
0000
0000
0000
0010
0000
0000
0100
1000
0000
0100
0000
,
0001
0010
0100
0010
0001
0010
0100
0010
,
0100
0001
1000
0100
,
MMMM
2002
3003
0100
,
0010
0100
0001
0000
1000
0100
0010
0000
,
1001
0000
0000
0000
;

//---------------dance-single - J. Frederick----------------
#NOTES:
     dance-single:
     J. Frederick:
     Beginner:
     1:
     0.098,0.098,0.054,0.000,0.000,70.000,6.000,0.000,0.000,0.000,0.000,0.098,0.098,0.054,0.000,0.000,70.000,6.000,0.000,0.000,0.000,0.000:
0000
0000
0000
0000
,
0000
0000
0000
0000
,
0000
0000
0000
0000
,
1001
0000
0000
0000
,
0010
0000
0000
0000
,
0100
0000
0000
0000
,
1000
0000
0000
0000
,
0001
0000
0000
0000
,
0100
0000
0000
0000
,
0010
0000
0000
0000
,
1000
0000
0000
0000
,
1001
0000
0000
0000
,
0100
0000
0000
0000
,
0010
0000
0000
0000
,
1000
0000
0000
0000
,
0001
0000
0000
0000
,
0100
0000
0000
0000
,
1000
0000
0000
0000
,
0001
0000
0000
0000
,
0010
0000
0000
0000
,
0100
0000
0000
0000
,
1000
0000
0000
0000
,
0001
0000
0000
0000
,
1001
0000
0000
0000
,
0100
0000
0000
0000
,
0010
0000
0000
0000
,
1000
0000
0000
0000
,
0001
0000
0000
0000
,
0100
0000
0000
0000
,
0010
0000
0000
0000
,
1000
0000
0000
0000
,
1001
0000
0000
0000
,
0100
0000
0000
0000
,
0010
0000
0000
0000
,
1000
0000
0000
0000
,
0001
0000
0000
0000
,
0100
0000
0000
0000
,
0010
0000
0000
0000
,
1000
0000
0000
0000
,
0001
0000
0000
0000
,
0001
0000
0000
0000
,
1000
0000
0000
0000
,
0010
0000
0000
0000
,
0100
0000
0000
0000
,
1000
0000
0000
0000
,
0001
0000
0000
0000
,
0100
0000
0000
0000
,
0110
0000
0000
0000
,
1000
0000
0000
0000
,
0001
0000
0000
0000
,
0100
0000
0000
0000
,
0010
0000
0000
0000
,
1000
0000
0000
0000
,
0001
0000
0000
0000
,
0010
0000
0000
0000
,
0100
0000
0000
0000
,
1000
0000
0000
0000
,
0001
0000
0000
0000
,
0100
0000
0000
0000
,
0010
0000
0000
0000
,
1000
0000
0000
0000
,
0001
0000
0000
0000
,
0010
0000
0000
0000
,
0100
0000
0000
0000
,
1000
0000
0000
0000
,
0001
0000
0000
0000
,
0100
0000
0000
0000
,
1000
0000
0000
0000
,
0001
0000
0000
0000
,
0100
0000
0000
0000
,
0010
0000
0000
0000
,
1000
0000
0000
0000
,
1001
0000
0000
0000
;

//---------------dance-single - J. Frederick----------------
#NOTES:
     dance-single:
     J. Frederick:
     Easy:
     4:
     0.329,0.359,0.136,0.254,0.000,211.000,15.000,28.000,0.000,0.000,0.000,0.329,0.359,0.136,0.254,0.000,211.000,15.000,28.000,0.000,0.000,0.000:
0000
0000
0000
0000
,
0000
0000
0000
0000
,
0000
0000
0000
0000
,
0000
0000
0000
0000
,
1000
0000
0001
0000
,
0010
0000
0100
0000
,
1000
0000
0001
0000
,
2002
0000
0000
3003
,
0100
0010
1000
0100
,
0020
0000
0000
0030
,
0001
0000
0100
0000
,
1010
0101
0022
0033
,
0010
0100
1000
0100
,
2000
0000
0000
3000
,
0001
0100
0010
0100
,
0200
0000
0020
0330
,
1000
0001
0010
0000
,
0100
1000
0010
0000
,
0100
0001
0010
0000
,
0100
1000
0100
0000
,
0010
0001
0100
0000
,
0010
1000
0001
0000
,
0010
0100
1000
0000
,
1001
1001
2002
3003
,
0100
0010
2000
3000
,
0100
0010
0002
0003
,
0100
0010
0100
0010
,
0220
0000
0000
0330
,
1000
0001
0020
0030
,
0100
1000
0002
0003
,
0100
0010
1000
0001
,
2002
0000
0000
3003
,
0010
0100
1000
0100
,
0010
0001
0200
0301
,
1000
0010
0100
0010
,
1000
0100
0010
0010
,
0001
0100
0001
1000
,
0010
0100
0001
0010
,
0000
0100
1000
0010
,
0100
0001
0010
0001
,
1000
1000
0001
0000
,
0100
0100
0010
0000
,
0001
0001
0010
0000
,
0100
1000
0100
1000
,
0100
0100
0010
0000
,
0001
0001
0100
0000
,
0010
0010
1000
0010
,
0220
0000
0000
0330
,
1000
0001
0010
0100
,
2000
0000
0000
3000
,
0001
0100
0010
0100
,
2002
0000
0000
3003
,
0010
0100
1000
0100
,
0020
0000
0000
0030
,
0001
0100
0010
1000
,
2002
0000
0000
3003
,
0010
0100
1000
0100
,
0010
0001
0100
0001
,
1000
0001
0100
0010
,
1000
0010
0100
0010
,
1000
0100
0010
0001
,
0100
0001
1000
0001
,
0000
0100
0010
1000
,
0010
0100
0001
0010
,
0100
0100
1000
1000
,
0001
0100
0020
1030
,
0100
0010
0001
0100
,
0001
1000
1001
1001
,
0010
0100
1000
0100
,
0010
0001
0100
0001
,
0000
1000
0001
0100
,
0010
0010
0100
0000
,
1001
0000
0000
0000
;

//---------------dance-single - J. Frederick----------------
#NOTES:
     dance-single:
     J. Frederick:
     Medium:
     6:
     0.437,0.424,0.136,0.217,0.000,299.000,15.000,24.000,0.000,0.000,0.000,0.437,0.424,0.136,0.217,0.000,299.000,15.000,24.000,0.000,0.000,0.000:
0000
0000
0000
0000
,
0000
0000
0000
0000
,
0000
0000
0000
0000
,
1000
0001
1000
0001
,
0010
0100
0010
0000
0100
0000
1000
0000
,
0010
0100
0010
0000
0100
0000
0001
0000
,
0010
0001
0010
0000
0100
0000
1000
0000
,
0020
0000
0000
0000
0200
0000
0000
0330
,
0100
0010
1000
0000
0100
0000
0010
0000
,
0001
0100
0001
1000
,
0001
1000
0001
0000
0010
0000
0100
0000
,
1100
0000
0011
0000
2002
0000
0000
3003
,
0100
0010
0100
0000
0001
0000
0010
0000
,
0100
1000
0100
0010
,
0001
0100
0001
0000
1000
0000
0010
0000
,
0200
0000
0000
0000
0020
0000
0000
0330
,
1000
0010
0100
0000
0001
0000
0010
0000
,
0001
1000
0001
0000
0100
0000
0010
0000
,
1000
0100
1000
0000
0001
0010
0001
0000
,
0010
0100
0220
0330
,
1000
0000
0001
0000
0100
0001
0100
0000
,
0010
0000
1000
0000
0010
0100
0010
0000
,
0100
0000
0001
0000
0010
0100
0010
0000
,
0110
0110
0220
0330
,
1000
0001
1000
0000
0002
0000
0003
0000
,
0100
0010
0100
0000
0020
0000
0030
0000
,
1000
0010
1000
0000
0001
0000
0100
0000
,
0002
1000
1000
1003
,
0010
0100
0010
0000
0200
0000
0300
0000
,
0010
1000
0010
0000
2000
0000
3000
0000
,
0001
0010
0001
1000
,
2002
0000
0000
3003
,
0100
1000
0010
0100
,
0001
0000
0010
0000
0100
0000
1000
0100
,
1000
0000
0010
0000
0100
0001
0100
0000
,
0001
0000
0010
0000
0100
0010
0100
0000
,
1000
0000
0001
0000
0100
0001
0100
0000
,
0010
0000
1000
0000
0010
0000
0100
0001
,
0000
0000
0010
0000
0100
1000
0100
0000
,
0010
0000
0001
0000
0100
0001
0100
0000
,
0001
0001
1000
1000
,
0010
0010
0100
0100
,
0010
1000
0100
0010
,
0002
0000
0010
0000
0100
0000
1000
0003
,
1000
0010
0100
0001
,
0010
0100
1000
0100
,
0010
0001
0100
0010
,
0220
0000
0000
0330
,
1000
0010
1000
0000
0001
0000
0010
0000
,
0100
1000
0010
0100
,
0001
0011
0100
0001
,
1010
0000
0101
0000
0022
0000
0000
0033
,
0010
0100
0010
0000
0100
0000
1000
0000
,
0010
0100
0001
0010
,
0001
1000
0001
0000
0100
0000
0010
0000
,
2000
0000
0000
0000
0002
0000
0000
3003
,
0100
0000
0010
0000
1000
0010
1000
0000
,
0001
0000
0010
0000
0100
0000
1000
0100
,
1000
0000
0010
0000
0100
0001
0100
0000
,
0001
0000
0010
0000
0100
0010
0100
0000
,
0110
0000
1000
0000
0010
0100
0001
0000
,
0010
0000
0001
0000
1000
0000
0001
1000
,
0000
0000
1000
0000
0001
0100
0001
0000
,
1000
0000
0010
0000
0100
0010
0100
0000
,
0010
0000
1000
0000
0100
0010
0001
0000
,
0010
0000
0001
0000
0100
0000
0001
1000
,
0001
0000
0100
0000
0010
0100
0010
0000
,
1000
0000
0010
0000
0100
0010
0100
0000
,
0001
0000
0010
0000
0100
1000
0100
0000
,
0010
0000
0001
0000
0100
0000
0001
1000
,
0000
0000
1000
0000
0010
0100
0010
0000
,
0100
0000
0001
0000
0010
0100
0010
0000
,
0110
0000
0000
0000
;

//---------------dance-single - M. Calfin----------------
#NOTES:
     dance-single:
     M. Calfin:
     Challenge:
     10:
     0.837,0.883,0.272,0.435,0.462,569.000,30.000,48.000,27.000,6.000,0.000,0.837,0.883,0.272,0.435,0.462,569.000,30.000,48.000,27.000,6.000,0.000: // measure 1
0000
0000
0000
0000
,  // measure 2
0000
0000
0000
0000
,  // measure 3
0000
0000
0000
0000
,  // measure 4
0000
0000
0000
0000
,  // measure 5
0001
0000
0100
0000
0010
0000
1000
0010
0000
1000
0010
0000
1000
0000
0010
0000
,  // measure 6
1000
0000
0001
0000
0010
0000
0001
0010
0000
0010
0001
0100
0001
0000
1000
0000
,  // measure 7
0100
0000
1000
0000
0100
0000
0010
1000
0000
1000
0010
0000
0100
0000
0010
0000
,  // measure 8
0001
0010
0001
0010
0001
0010
0100
0010
0100
0000
1000
0100
0010
0000
0001
0010
,  // measure 9
0100
0000
1000
0000
0100
0000
1000
0010
0000
0010
0100
0000
0010
0000
0100
0000
,  // measure 10
0001
0010
0001
0010
0100
1000
0100
1000
,  // measure 11
0200
0000
0000
0320
0000
0000
0002
0030
0020
0003
0000
0030
0021
0000
000M
0030
,  // measure 12
M102
0000
0000
0003
M210
0000
0000
0300
1010
0000
0010
M000
0100
0000
0010
0100
,  // measure 13
0010
0000
1000
0000
0100
0000
0010
0001
0000
0001
0100
0000
0100
0000
0010
0100
,  // measure 14
0001
0100
0001
0010
0100
0010
0100
0010
,  // measure 15
0002
0000
0000
0023
0000
0000
0230
0000
2000
0300
0000
3000
0010
0000
0000
0000
,  // measure 16
0010
1000
0010
0000
0100
0000
0010
1000
0100
0000
0010
0000
0100
0010
0001
0000
,  // measure 17
0100
0000
0001
0000
0100
0000
0001
0010
0000
0001
0010
0001
0100
0000
0010
0000
,  // measure 18
1000
0000
0100
0000
1000
0000
0010
1000
0000
0010
1000
0100
0010
0000
0100
0000
,  // measure 19
0010
0000
0001
0000
0100
0000
0010
1000
0000
0100
0010
0100
0010
0000
0001
0000
,  // measure 20
0010
0000
1000
0000
0010
0000
0100
0000
0021
0M00
0000
0030
0102
00M0
0000
0003
,  // measure 21
0110
0000
0010
0000
0100
0000
0010
1000
0000
1000
0010
0000
0100
0000
0010
0000
,  // measure 22
0100
0000
0001
0000
0001
0000
0100
0001
0000
0100
0010
1000
0010
0000
1000
0000
,  // measure 23
0010
0000
0100
0000
0001
0000
0100
0001
0000
0010
0001
0010
0100
0000
1000
0000
,  // measure 24
0100
0010
0001
0000
0010
0000
0100
0010
0001
0000
0100
0000
0101
0000
0000
0000
,  // measure 25
0110
0010
1000
0010
0110
0010
0100
0001
,  // measure 26
0101
0001
0010
0001
0011
0001
0010
0100
,  // measure 27
1100
0100
1000
0010
0110
0010
0100
0010
,  // measure 28
0101
0010
1000
0010
0100
0001
0100
0001
,  // measure 29
0101
0001
0010
0001
0011
0100
1000
0100
,  // measure 30
1100
0100
1000
0010
0110
0001
0100
0010
,  // measure 31
0120
0000
0000
2030
0000
0000
3200
0000
0320
0000
0000
0032
0000
0000
0023
0030
,  // measure 32
0001
0010
0001
0010
0100
0010
0100
0010
0001
0000
1000
0100
1000
0100
0010
0000
,  // measure 33
0001
0000
0100
0000
0010
0000
0100
0010
0100
0000
0001
0000
0010
0000
0100
0000
,  // measure 34
0010
0100
1000
0100
0010
0001
0010
0100
,  // measure 35
1000
0100
0010
0001
0010
0100
0010
1000
,  // measure 36
0010
0000
0001
0000
0100
0000
0010
0000
0100
0000
0010
1000
0100
0000
0010
0000
,  // measure 37
0001
0000
0100
0000
0010
0000
0100
0010
1000
0000
0010
0000
0100
0000
0010
0000
,  // measure 38
0100
0001
0100
0010
1000
0100
1000
0200
,  // measure 39
M0MM
0300
1000
0000
0100
0000
0010
0000
0100
0000
1000
0000
0010
0000
0100
0000
,  // measure 40
0010
0100
0010
0100
0001
0100
0010
0000
0010
0100
0001
0000
0010
0000
0001
0000
,  // measure 41
0100
0000
0001
0000
0100
0000
0001
0100
0000
0100
1000
0000
0100
0000
0010
0000
,  // measure 42
0100
0000
0001
0000
0100
0000
0001
0010
0000
0010
0001
0010
0001
0010
0100
0000
,  // measure 43
1000
0000
0100
0000
1000
0000
0010
0100
0000
0010
0100
0000
0010
0100
0001
0000
,  // measure 44
0M21
0000
0000
0000
1230
000M
0000
0000
2310
0000
0000
0000
31M2
0000
0000
0000
,  // measure 45
0103
0000
0010
0000
0100
0000
0001
0100
0000
0100
0001
0010
0001
0000
0010
0000
,  // measure 46
0100
0000
1000
0000
0100
0000
1000
0100
0000
0100
1000
0010
1000
0000
0010
0000
,  // measure 47
0100
0000
0010
0000
0100
0000
0001
0100
0000
0001
0100
0001
0100
0000
0010
0000
,  // measure 48
2020
0000
0000
0M00
0000
000M
0000
0000
3232
0000
0000
M000
0000
0000
03M3
0000
,  // measure 49
0001
0000
0100
0000
0001
0000
0100
0010
0000
0010
0100
0000
0010
0000
1000
0000
,  // measure 50
0100
0010
0001
0010
0100
0010
0001
0100
,  // measure 51
0020
0000
0000
0230
0000
0000
0320
0000
2000
0030
0000
3000
0012
0M00
0000
0000
,  // measure 52
0213
0000
M000
0000
0321
0000
0000
000M
0130
0000
0010
0000
0001
0000
0010
0001
,  // measure 53
0100
0000
0010
0000
1000
0000
0100
1000
0000
1000
0100
0000
1000
0000
0010
0000
,  // measure 54
0100
1000
0100
0010
0100
0001
0100
0001
,  // measure 55
0020
0000
0000
0230
0000
0000
2300
0000
0200
3000
0000
0000
0000
0000
0000
0000
,  // measure 56
2300
0000
0000
0000
3010
0200
0000
0000
,  // measure 57
0301
0000
0010
0000
0100
0000
0010
0000
0100
0000
1000
0100
0010
0000
0001
0000
,  // measure 58
0010
0001
0010
0100
0010
0001
0010
0100
,  // measure 59
0010
1000
0010
0001
0100
0010
0100
0010
,  // measure 60
1000
0010
0100
0010
0001
0010
1000
0100
,  // measure 61
0001
0000
0100
0000
0010
0000
0100
0010
0100
0000
1000
0000
0010
0000
0100
0000
,  // measure 62
0010
0001
0010
0100
0010
0100
0001
0020
,  // measure 63
MM0M
0031
1000
0010
0100
0001
0010
0100
,  // measure 64
1000
0100
1000
0100
0010
0001
0010
0001
0010
0000
0001
0010
0100
0000
1000
0000
,  // measure 65
0001
0000
0010
0000
0100
0000
1000
0100
0010
0000
0001
0000
0100
0000
1000
0000
,  // measure 66
0100
0001
0010
0100
1000
0100
0010
0001
,  // measure 67
0010
0100
0001
0100
0010
0100
0010
0100
,  // measure 68
1000
0000
0100
0000
1000
0000
0100
0000
0010
0000
0100
1000
0010
0000
0001
0000
,  // measure 69
0010
0000
1000
0000
0001
0000
0010
0001
0010
0000
0100
0000
1000
0000
0100
0000
,  // measure 70
0010
1000
0010
0001
0100
0010
1000
2000
,  // measure 71
0MMM
3010
0100
1000
0100
0010
0002
0000
,  // measure 72
0023
0000
0230
0000
0301
0100
0010
0000
,  // measure 73
2002
0MM0
3003
0000
0000
0000
0000
0000
;

//---------------dance-double - M.Emirzian----------------
#NOTES:
     dance-double:
     M.Emirzian:
     Easy:
     4:
     0.370,0.391,0.235,0.109,0.000,248.000,26.000,12.000,0.000,0.000,0.000,0.370,0.391,0.235,0.109,0.000,248.000,26.000,12.000,0.000,0.000,0.000:
00000000
00000000
00000000
00000000
,
00000000
00000000
00000000
00000000
,
00000000
00000000
00000000
00000000
,
00000000
00000000
00000000
00000000
,
00100000
10000000
00100000
10000000
,
00100000
01000000
00010000
01000000
,
00010000
01000000
00001000
00010000
,
00220000
00330000
02020000
03030000
,
01000000
00010000
01000000
00010000
,
00022000
00000000
00000000
00033000
,
00010000
00000100
00010000
00001000
,
00002200
00000000
00000000
00003300
,
00000001
00000100
00000001
00000100
,
00002002
00000000
00000000
00003003
,
00001000
00000100
00001000
00000100
,
00020200
00000000
00000000
00030300
,
00010000
00001000
01000000
00001000
,
00010000
00000010
00010000
00001000
,
00100000
00001000
00010000
00000100
,
00010000
00001000
01000000
00001000
,
00010000
00000100
00010000
00001000
,
01000000
00001000
00010000
00000100
,
00010000
00001000
00100000
00001000
,
00010000
00011000
00011000
00011000
,
00010000
00000100
00001000
00000001
,
00001000
00000010
00010000
00001000
,
01000000
00010000
10000000
00100000
,
01000000
00010000
01000000
00001000
,
00010000
00000100
00001000
00000001
,
00001000
00000010
00010000
00001000
,
00100000
00010000
10000000
01000000
,
00100000
00010000
00100000
00001000
,
00010000
00001000
00011000
00011000
,
00000100
00001000
00001100
00001100
,
00000001
00001000
00001001
00001001
,
00000100
00010000
00010100
00010100
,
00001000
00010000
00011000
00011000
,
00001000
01000000
01001000
01001000
,
00000000
01000000
10010000
10010000
,
10000000
01000000
00100000
00010000
,
00100000
00001000
00010000
00001000
,
00010000
00000100
00010000
00001000
,
00010000
00001000
01000000
00001000
,
00010000
00001000
00010000
00001000
,
00010000
00000100
00010000
00001000
,
00100000
00001000
00010000
00000100
,
00010000
00001000
00100000
00001000
,
00010000
00000100
00011000
00011000
,
01000000
00001000
00010000
00000100
,
00010000
00001000
00100000
00001000
,
00010000
00000100
00001000
00000100
,
00000010
00000001
00001000
00000100
,
00000010
00000001
00000100
00000010
,
00001000
00000100
00010000
00001000
,
01000000
00010000
00100000
01000000
,
10000000
00100000
01000000
00010000
,
10000000
00000000
10000000
00000000
,
10000000
10000000
10000000
00000000
,
00010000
00000000
00010000
00000000
,
00010000
00010000
00010000
00000000
,
00001000
00000000
00001000
00000000
,
00001000
00001000
00001000
00000000
,
00000000
00010000
00010000
00010000
,
00000100
00001000
00000100
00001000
,
00000100
00001000
00000001
00001000
,
00000010
00010000
00001000
01000000
,
00010000
10000000
00010000
00100000
,
00001000
00010000
00000100
00001000
,
00000100
00001000
00000001
00001000
,
00000010
00001000
00000100
00010000
,
00001000
01000000
00010000
10000000
,
01000000
00100000
00010000
00100000
,
00011000
00000000
00000000
00000000
;

//---------------dance-double - M.Emirzian----------------
#NOTES:
     dance-double:
     M.Emirzian:
     Medium:
     6:
     0.462,0.424,0.371,0.235,0.000,290.000,41.000,26.000,8.000,0.000,0.000,0.462,0.424,0.371,0.235,0.000,290.000,41.000,26.000,8.000,0.000,0.000:
00000000
00000000
00000000
00000000
,
00000000
00000000
00000000
00000000
,
00000000
00000000
00000000
00000000
,
00000000
00000000
00000000
00000000
,
10000000
00000000
00010000
00000000
10000000
00010000
10000000
00000000
,
00001000
00000000
00010000
00000000
00001000
00010000
00001000
00000000
,
00010000
00000000
00000001
00000000
00001000
00000001
00001000
00000000
,
00002002
00000000
00003003
0000M00M
00002002
00000000
00003003
00000000
,
00001000
00000000
00000100
00000000
00001000
00000100
00001000
00000000
,
00022000
00000000
00000000
00033000
,
00010000
00001000
01000000
00001000
,
02020000
00000000
03030000
0M0M0000
02020000
00000000
03030000
00000000
,
01000000
00000000
00010000
00000000
10000000
00100000
01000000
00000000
,
02002000
00000000
00000000
03003000
,
00010000
00000010
00001000
00000001
,
00002002
00000000
00003003
00000000
00001000
00000001
00000000
00000000
,
00001000
00000000
00000010
00000000
00010000
00001000
01000000
00000000
,
00001000
00000000
00010000
00000000
00000010
00010000
00001000
00000000
,
00100000
00000000
00001000
00000000
00010000
00000100
00010000
00000000
,
00001000
01000000
00010000
00000000
01000000
00100000
10000000
00000000
,
00010000
00000000
01000000
00000000
00001000
00010000
00000100
00000000
,
00001000
00000001
00000100
00000000
00000010
00010000
00001000
00000000
,
01000000
00010000
10000000
00100000
,
01000000
00000000
01010000
00000000
01010000
00000000
01010000
0M0M0000
,
10000000
01000000
00000000
00100000
00000000
00001000
00000000
00000100
,
00000000
00000001
00000000
00000010
00000000
00000100
00000000
01000000
,
00000000
00001000
00000000
00010000
00000000
00001000
00010000
00001000
,
00010000
00001000
00000000
01000000
00000000
00010000
00000000
10000000
,
00000000
01000000
00000000
00100000
00000000
00000100
00000000
00000010
,
00000000
00000001
00000000
00001000
00000000
00000010
00000000
00001000
,
00000100
00010000
00001000
00010000
,
00000100
00000000
00011000
00000000
00011000
00000000
00011000
000MM000
,
00010000
00000000
00100000
00000000
10000000
00010000
10000000
01000000
,
00100000
00110000
00110000
00110000
,
01000000
00001000
00010000
00000100
,
00000010
00001001
00001001
00001001
,
00000010
00000000
00001000
00000000
00000100
00001000
00000100
00010000
,
00001000
01001000
01001000
01001000
,
00000000
00010000
10000000
00000000
01000000
00000000
00010000
00000000
,
00001000
00101000
00101000
00101000
,
00010000
00000000
00000100
00000000
00010000
00001000
00010000
00000000
,
00000010
00000000
00010000
00000000
00001000
00010000
00001000
00000000
,
01000000
00000000
00001000
00000000
00010000
00000010
00001000
00000000
,
00000100
00010100
00010100
00010100
,
00010000
00000000
00001000
00000000
00100000
00001000
00010000
00000000
,
00000100
00000000
00010000
00000000
00001000
01000000
00010000
00000000
,
00100000
00000000
00001000
00000000
00010000
00000100
00001000
00000000
,
00000202
00000303
00002020
00003030
,
00001000
00000100
00010000
00001000
,
00022000
00000000
00000000
00000000
00033000
00001000
01000000
00010000
,
10000000
10000000
00010000
00010000
,
01000000
00001000
00022000
00033000
,
00010000
00000100
00000010
00000001
,
00002200
00000000
00000000
00003300
00000000
00000010
00001000
00000100
,
00010000
00010000
00001000
00001000
,
01000000
00010000
02020000
03030000
,
00100000
10000000
00000000
00100000
00000000
01000000
00000000
00010000
,
00000000
01000000
00000000
00001000
00000000
00010000
00000000
00001000
,
00000000
00000100
00000000
00000001
00000000
00001000
00000000
00000001
,
00000000
00000100
00000000
00001000
00000000
00000100
00000000
00001000
,
00000000
00010000
00000000
00010000
00000000
00001000
00000000
00001000
,
00000000
01000000
00000000
01000000
00000000
00010000
00000000
00010000
,
00000000
00100000
01000000
00000000
01000000
10000000
01000000
00000000
,
00010000
00000100
00000010
00000001
,
00001000
00000000
00000010
00000000
00000100
00000001
00001000
00000000
,
00000100
00000000
00010000
00000000
00001000
01000000
00010000
00000000
,
10000000
11000000
11000000
11000000
,
00100000
00001000
00010000
00000100
,
00001000
00000000
00000010
00000000
00000100
00000001
00001000
00000000
,
00000100
00000010
00000100
00001000
,
00000000
00100000
00010000
00000000
10000000
00100000
01000000
00000000
,
00010000
01001000
00011000
00010010
,
00001010
00000000
00000000
00000000
;

//---------------dance-double - M.Emirzian----------------
#NOTES:
     dance-double:
     M.Emirzian:
     Challenge:
     11:
     0.667,0.587,0.525,0.181,0.104,438.000,58.000,20.000,45.000,11.000,12.000,0.667,0.587,0.525,0.181,0.104,438.000,58.000,20.000,45.000,11.000,12.000:
00000000
00000000
00000000
00000000
,
00000000
00000000
00000000
00000000
,
00100000
00000000
00000000
00000000
00000010
00000000
00000000
00011000
00000000
00000000
01000100
00000000
00000000
00000000
00010000
00000000
,
10002000
00003100
00020001
00130000
,
00010000
00000000
00000010
00000000
00001000
00000000
00000001
00000100
00000000
00000001
00010000
00000000
00000100
00000000
01000000
00000000
,
00001000
00000000
10000000
00000000
00100000
00000000
01000000
00001000
00000000
10000000
00010000
00000000
00100000
00000000
00001000
00000000
,
00010000
00000000
00000100
00000000
00001000
00000000
00000001
00000100
00000000
00000010
00001000
00000000
00000100
00000000
00010000
00000000
,
00040001
00000000
00000000
00030000
10004000
00000000
00000000
00003000
,
01000000
00000000
00010000
00000000
10000000
00000000
01000000
00100000
00000000
00100000
00001000
00000000
00010000
00000000
00000100
00000000
,
00010000
00002000
00000000
00010000
00000000
00000010
00000000
00000100
,
00000000
00023000
00000000
00001000
00000000
00100000
00000000
01000000
,
00000000
00000000
00031000
00000000
00000000
00000000
00000100
00000000
00010001
00000000
00000000
00001000
00000100
00000000
00000010
00000000
,
00000001
00000000
00010000
00000000
00001000
00000000
01000000
00001000
00000000
00001000
00010000
00000000
00100000
00000000
10000000
00000000
,
01000000
10001000
00000000
00011000
00000000
00010001
00000000
00000110
,
00000000
00100010
00000000
01100000
00000000
01000100
00000000
00000110
,
00000001
00001000
00000001
00000000
00000010
00000000
00000100
00000000
00000010
00000000
00000000
00000000
00100100
00000000
00000000
00000000
,
00001000
00010000
00001000
00100000
00001000
10000000
00001000
01000000
,
00001000
00010000
00000100
00010000
00000001
00010000
00000010
00010000
,
00001000
01000000
00001000
10000000
00001000
00100000
00001000
00010000
,
00000010
00010000
00000001
00010000
00000100
00010000
00001000
00100000
,
00000010
00010000
00000001
00010000
00000100
01000000
00001000
10000000
,
00001000
00100000
00000010
00010000
00000001
00010000
00000100
01000000
,
00001000
10000000
00001000
00100000
00000010
00010000
00000001
00010000
,
00001000
01000000
01001000
00001000
00010000
00000100
00010100
00000000
,
00010000
00000100
00001000
00000001
00010000
00001000
01000000
00010000
,
10000000
00001000
00010000
00000100
00001000
00000001
00010000
00001000
,
00100000
00010000
10000000
00001000
00010000
00000010
00001000
00000001
,
00020001
00130000
10002000
00003100
,
00010000
00001000
01000000
00010000
10000000
00001000
00010000
00000010
,
00001000
00000001
00010000
00001000
01000000
00100000
10000000
00001000
,
00010000
00000010
00000100
00000001
00010000
00001000
01000000
00000100
,
01000000
01100000
01000100
00000110
,
00100010
00000000
00000000
00000000
00011000
00000000
00000000
00010000
00001000
00000000
00100000
00000000
00000010
00000000
01000000
00000000
,
0M000100
00000100
00000100
00000100
01000M00
01000000
01000000
01000000
,
0M001000
0000M000
10000000
M0000000
00001000
0000M000
00000010
00000410
,
00000000
00000000
00000300
00100000
04100000
00000000
00000000
03000000
,
00011000
00000000
00000000
00000000
01000100
00000000
00000000
00010000
00001000
00000000
01000000
00000000
00000100
00000000
00010000
00000000
,
00000010
001000M0
00M00010
00100MM0
0MM00100
01000M00
0M000100
01000M00
,
0M000000
00011000
01000100
0M000000
00100M00
00M00000
00000100
00M00M00
,
10004000
00000000
00000000
00003000
00040001
00000000
00000000
00030000
,
00000010
00001000
00000010
00010000
00001000
00100000
00010000
00100000
,
00001000
00010000
00000010
00010000
00001000
01000000
00001000
00010000
,
00000100
00010000
00001000
10000000
00001000
00010000
00000001
00010000
,
00001000
01000000
00000100
00010000
00001000
00100000
00000010
00010000
,
00001000
10000000
00001000
00010000
00000001
00010000
00001000
01000000
,
00000010
00010000
00001000
00100000
00000100
00010000
00001000
01000000
,
00000010
00010000
00001000
00100000
00000100
01000000
00000010
00100000
,
00000100
01000000
00000010
00010000
00011000
00011000
00011000
00000000
,
01000000
00000000
00010000
00000000
10000000
00000000
01000000
00100000
00000000
00100000
00001000
00000000
00010000
00000000
00000100
00000000
,
00000010
00002000
00000000
00010000
00000000
00000100
00000000
00000010
,
00000000
00023000
00000000
00001000
00000000
00100000
00000000
01000000
,
00000000
00000000
00031000
00000000
00000000
00000000
01000000
00000000
10001000
00000000
00000000
00100000
01000000
00000000
00010000
00000000
,
10000000
00000000
01000000
00000000
00100000
00000000
00001000
00010000
00000000
00010000
00000001
00000000
00000010
00000000
00000100
00000000
,
00001000
00000110
00000000
00100010
00000000
01100000
00000000
01000100
,
00000000
00011000
00000000
10001000
00000000
00011000
00000000
00010001
,
00010000
00000100
00001000
00000000
00000010
00000000
00000100
00000000
00001000
00000000
00000000
00000000
00010010
00000000
00000000
00000000
,
00000000
00000002
00000000
00000200
00000000
00001000
00000000
00000013
,
00000000
00002000
00000300
00020000
00000000
00100000
00000000
00003010
,
00000000
02000000
00030000
20000000
00000000
00010000
00000000
03001000
,
00000000
00002000
30000000
02000000
00000000
00100000
00000000
00013000
,
00000000
00000200
03000000
00020000
00000000
00001000
00000000
00030001
,
00000300
00000020
00000000
00000200
00000000
00010330
00000000
0000M000
,
00000000
00000100
00000010
00000000
00010000
00000100
01000000
00000000
,
00011000
00000000
01000100
00000000
00100000
00001000
00010000
00000000
,
01001000
00000000
00000000
00000000
01000100
00000000
00000000
00010000
00000100
00000000
00001000
00000000
00000010
00000000
00010000
00000000
,
000M0100
00000100
00000100
00000100
00100M00
00100000
00100000
00100000
,
00M01000
0M00M000
01000000
0M000M00
00000100
00000M00
00010000
00400040
,
00000000
00000000
00300030
00010000
04000400
00000000
00000000
03000300
,
00011000
00000000
00000000
00000000
00100010
00000000
00000000
00010000
00000100
00000000
00001000
00000000
00000010
00000000
00010000
00000000
,
00000100
00100M00
00M00100
00100MM0
0MM00010
010000M0
0M000010
010000M0
,
0M000000
00011000
01000100
0M000M00
00010000
000M0000
00000001
000M000M
,
00040001
00000000
00000000
00030000
10004000
00000000
00000000
00000000
,
00013000
00000000
00000000
00000000
;

//---------------dance-double - M.Lee----------------
#NOTES:
     dance-double:
     M.Lee:
     Hard:
     8:
     0.653,0.554,0.335,0.543,0.104,408.000,37.000,60.000,0.000,0.000,0.000,0.653,0.554,0.335,0.543,0.104,408.000,37.000,60.000,0.000,0.000,0.000:
00000000
00000000
00000000
00000000
,
00000000
00000000
00000000
00000000
,
00010000
00000000
00000000
00000000
00001000
00000000
00000000
01000000
00000000
00000000
00001000
00000000
00000000
00000000
00010000
00000000
,
00011000
00101000
00110000
11000000
,
10010000
00000000
00000000
00000000
10100000
00000000
00000000
01000000
00000000
01000000
00010000
00000000
00100000
00000000
00000000
00000000
,
00001000
00000000
00000000
00000000
00101000
00000000
00000000
00010000
00000000
00010000
00001000
00000000
00010000
00000000
00000100
00000000
,
00000010
00000000
00000001
00000000
00000010
00000000
00000000
00000001
00000000
00000001
00001000
00000000
00000010
00000000
00000010
00000000
,
00000200
00001000
00002300
00010000
,
00013000
00000000
00001000
00000000
00000100
00000000
00000000
00000010
00000000
00000010
00000100
00000000
00000001
00000000
00000001
00000000
,
00000010
00000021
00000000
00000130
00000000
00020100
00000000
00031000
,
00010000
00001000
01000000
00000000
00010000
00100000
01000000
00000000
,
10000000
01000000
00100000
00010000
01000000
00100000
10100000
00000000
,
10000000
00000000
00100000
00000000
01000000
00000000
00000000
00010000
00000000
00010000
10000000
00000000
01000000
00000000
01000000
00000000
,
00100000
00102000
00000000
00013000
00000000
00010200
00000000
00001300
,
00000100
00000010
00000001
00000000
00000100
00000010
00001000
00000000
,
00000010
00000001
00000010
00001000
00000100
00000010
00000011
00000000
,
00000010
00000000
00000100
00000000
00001000
00000000
00000000
00000100
00000000
00000000
00010000
00000000
00001000
00000000
00000000
00000000
,
00010000
00000000
00001000
00000000
01000000
00000000
00000000
00010000
00000000
00000000
10000000
00000000
10100000
00000000
00000000
00000000
,
10000000
01000000
00010000
00001000
00000100
00000010
00000001
00000010
,
00001000
00000100
00010000
00001000
01000000
00010000
00010000
00000000
,
10000000
00000000
00100000
00000000
01000000
00000000
00000000
00010000
00000000
00000000
01000000
00000000
00001000
00000000
00000000
00000000
,
00010000
00000000
00001000
00000000
00000100
00000000
00000000
00000010
00000000
00000000
00001000
00000000
00001001
00000000
00000000
00000000
,
00000001
00000010
00001000
00010000
01000000
10000000
00010000
01000000
,
00100000
00010000
00001000
00000100
00000001
00000000
00001001
00000000
,
00000100
00000000
00000201
00000000
00000310
00000010
00000010
00000000
,
00010000
00000000
00012000
00000000
01003000
01000000
01000000
00000000
,
00010000
00010000
00100000
00100000
00001000
00010000
00000100
00000100
,
00000010
00000001
00000100
00001000
,
00010000
00000000
00201000
00000000
00310000
00010000
00010000
00000000
,
01000000
00000000
01200000
00000000
10300000
10000000
10000000
00000000
,
00100000
00100000
00100000
00000000
01000000
00010000
00100000
00000000
,
00100000
00001000
00010000
00000100
00001000
00000000
00001100
00000000
,
00001000
00000000
00000000
00000000
00000010
00000000
00000000
00001000
00000010
00000000
00000100
00000000
00000001
00000000
00000010
00000000
,
00000200
00000302
00000203
00002300
,
00003010
00000000
00001000
00000000
00000010
00010000
00001000
00010000
,
00000000
00010000
00100000
01000000
10000000
01000000
00010000
00000000
,
10000000
00000000
00000000
00000000
01000000
00000000
00000000
00100000
01000000
00000000
00100000
00000000
00010000
00000000
01000000
00000000
,
00200000
00000000
20300000
00000000
32000000
00000000
03200000
00010000
,
00300000
00101000
00001000
00000000
00010000
00000100
00001000
00000000
,
00001000
00000100
00000010
00000001
00000100
00000001
00001001
00000000
,
00000200
00000000
00000020
00000300
00000002
00000030
00002000
00000003
,
00000002
00003000
00000020
00000003
00002000
00000030
00020000
00003000
,
00002000
00030000
20000000
00003000
00020000
30000000
00230000
00000000
,
01300000
10000000
00100000
00100000
10000000
01000000
01200000
00000000
,
20000000
00300000
00200000
30000000
00020000
00300000
20000000
00030000
,
02000000
30000000
00200000
03000000
00002000
00300000
00020000
00003000
,
00000200
00030000
00000020
00000300
00002000
00000030
00000002
00003000
,
00000103
00001000
00000100
00000010
00000001
00000000
00001001
00000000
,
00000010
00000000
00001000
00000000
00000100
00000000
00000000
00000010
00000000
00000010
00000100
00000000
00001000
00000000
00001000
00000000
,
00000010
00002010
00000000
00003100
00000000
00000012
00000000
00001003
,
00000100
00010000
00001000
00000000
00100000
00010000
01000000
00000000
,
00010000
01000000
00100000
10000000
01000000
00100000
00110000
00000000
,
00100000
00000000
00001000
00000000
00010000
00000000
00000000
00001000
00000000
01000000
00001000
00000000
00010000
00000000
00010000
00000000
,
00001000
00012000
00000000
00003100
00000000
00000201
00000000
00000301
,
00000010
00000100
00001000
00000000
00000100
00001000
00000010
00000100
,
00000010
00000001
00000010
00001000
00000100
00010000
00001000
01000000
,
00010000
00000000
00000000
00000000
10000000
00000000
00000000
01000000
10000000
00000000
00010000
00000000
01000000
00000000
00100000
00000000
,
20000000
30200000
02300000
23000000
,
31000000
00000000
01010000
00000000
01000000
00010000
00100000
00001000
,
00000000
00001000
00010000
00000010
00001000
00000001
00000100
00000000
,
00000001
00000000
00000000
00000000
00001000
00000000
00000000
00000010
00001000
00000000
00000100
00000000
00001000
00000000
00001000
00000000
,
00000020
00000230
00002300
00023000
,
00030000
00010100
00000100
00000000
00000100
00010000
00001000
01000000
,
00010000
01000000
00100000
01000000
00010000
00100000
10010000
00000000
,
10000000
10200000
01000000
00010000
,
02300000
10000000
00100000
00010000
,
03002000
01000000
00010000
00000010
,
00003010
00000100
00001000
00000001
00000100
00000010
00000010
00000000
,
00001020
00000001
00000100
00001000
,
00020030
00000010
00001000
00130000
,
00000000
10100000
00100000
00000000
00100000
01000000
00010000
00000000
,
01000000
00010000
00100000
00100000
00001000
00010000
01000000
00000000
,
10010000
00000000
00000000
00000000
;
