#TITLE:King Kong;
#SUBTITLE:;
#ARTIST:Shanadoo;
#TITLETRANSLIT:;
#SUBTITLETRANSLIT:;
#ARTISTTRANSLIT:;
#GENRE:;
#CREDIT:Rynker;
#BANNER:King Kong-bn.png;
#BACKGROUND:King Kong-bg.png;
#LYRICSPATH:;
#CDTITLE:;
#MUSIC:King Kong.ogg;
#OFFSET:-0.015;
#SAMPLESTART:34.165;
#SAMPLELENGTH:12.000;
#SELECTABLE:YES;
#BPMS:0.000=71.490,14.000=142.980;
#STOPS:130.000=0.420;
#BGCHANGES:0.081=King Kong.mpg=1.000=1=0=0=StretchNoLoop==CrossFade==,
237.000=King Kong-bg.png=1.000=1=0=1===CrossFade==,
99999=-nosongbg-=1.000=0=0=0 // don't automatically add -songbackground-
#KEYSOUNDS:;

//---------------dance-single - J. Nordli----------------
#NOTES:
     dance-single:
     J. Nordli:
     Hard:
     9:
     0.627,0.601,0.326,0.484,0.228,385.000,35.000,52.000,0.000,6.000,6.000,0.627,0.601,0.326,0.484,0.228,385.000,35.000,52.000,0.000,6.000,6.000:
0000
0000
0000
0000
,
0000
0000
0000
0000
0000
0000
0000
0000
0001
0000
0100
0000
0001
1000
0000
0001
,
0000
0000
0000
1000
0100
0010
0001
0010
0001
0000
0100
0000
0001
1000
0000
0100
,
0000
0000
0000
0010
0001
0010
0001
0010
0001
0000
0100
0000
0010
0000
1000
0000
,
0100
0010
0001
0010
0100
1000
0100
1000
,
0001
1000
0100
0010
0001
0100
0010
0100
,
0001
0100
0001
0100
0202
0000
0000
0000
,
0010
0000
0010
0303
0001
0100
0010
1000
,
0100
0010
0100
0000
0010
0000
0001
0000
0100
0000
0010
0000
0100
0000
0001
0000
,
0100
0001
0100
0000
0010
0000
0100
0000
0001
0000
0010
0000
0001
0000
0100
0000
,
0010
1000
0010
0000
1000
0000
0100
0000
0010
0000
0001
0000
0100
0000
0000
0000
,
2002
3003
0202
0303
2010
3010
1000
0100
,
0010
0001
0010
0000
0001
0000
0100
0000
0010
0000
0100
0000
0001
0000
0100
0000
,
0010
0100
0010
0000
0100
0000
0001
0000
0010
0000
0100
0000
1000
0000
0100
0000
,
1000
0001
1000
0000
0001
0000
0100
0000
0010
0000
1000
0000
0010
0000
0000
0000
,
2020
0000
3030
0000
2200
0000
3300
0000
0022
0000
0033
1000
0000
0000
0100
0000
,
0000
0010
0000
0000
0001
0000
0100
0000
0010
0000
0000
1000
0000
0000
0100
0000
,
0000
0010
0000
0000
0001
0000
0010
0000
0001
0000
0000
0100
0000
0000
0010
0000
,
0000
1000
0000
0000
0100
0000
0010
0000
0001
0000
0000
0001
0000
0000
0001
0000
,
2000
0000
0000
0000
0200
0000
0000
0000
0010
0000
3300
0010
0000
0000
0001
0000
,
0000
0100
0000
0000
0010
0000
1000
0000
0100
0000
0000
0010
0000
0000
0001
0000
,
0000
0001
0000
0000
0100
0000
0010
0000
1000
0000
0000
0100
0000
0000
0010
0000
,
0000
0001
0000
0000
0001
0000
0100
0000
0010
0000
0000
1000
0000
0000
0100
0000
,
0000
1000
0000
0000
0100
0000
0000
0000
0004
4000
0000
0000
0000
0000
0000
0000
,
0000
0000
0000
3003
1001
0001
0010
0100
,
1000
0010
0100
0001
0100
0010
1000
0100
,
0010
0001
0010
0100
1000
0001
1000
0100
,
1000
0001
1000
0100
1000
0001
0010
0001
,
0100
0001
0010
0001
0100
0010
1000
0100
,
0010
0001
0001
0100
0010
1000
0100
1000
,
0100
1000
0001
1000
0001
0010
0001
0100
,
0010
1000
0100
0010
0001
0010
0001
0100
,
0010
0220
0000
1000
,
0001
0000
0000
0000
0000
0000
1000
0000
0330
0000
0000
0000
1000
0000
0000
0100
0000
0000
0010
0000
0000
0001
0000
0000
,
1000
0100
1000
0000
0100
0000
1000
0000
0001
0000
0010
0000
0001
0000
0100
0000
,
0010
1000
0010
0000
1000
0000
0100
0000
0010
0000
0001
0000
0010
0000
0001
0000
,
0100
0010
0100
0000
0010
0000
1000
0000
0100
0000
0000
0000
2002
0000
3003
0000
,
0220
0330
0102
0013
0001
0100
0010
1000
,
0100
0010
0100
0000
0010
0000
0001
0000
0100
0000
0010
0000
1000
0000
0100
0000
,
0010
0001
0010
0000
0001
0000
0010
0000
0001
0000
0100
0000
0010
0000
1000
0000
,
0100
1000
0100
0000
0010
0000
0001
0000
0100
0000
0000
0000
0220
0000
0330
0000
,
2002
3003
2200
3300
0001
1000
0001
1000
,
0001
0010
0100
0010
0100
0010
0100
1000
,
0100
1000
0100
1000
0100
1000
0100
1000
,
0001
1000
0001
1000
0001
0000
0022
0033
,
2002
3003
2020
3030
0001
0100
0001
0100
,
0001
1000
0001
1000
0001
1000
0001
0100
,
0001
0100
0001
0010
0001
0010
0001
1000
,
0001
0000
0100
0000
0001
0000
0400
0004
0000
0000
0300
0003
0100
0000
0000
0000
,
0101
0000
0000
0000
1000
0000
0000
0100
0000
0000
0010
0000
0000
0001
0000
0000
,
0100
0000
0010
0000
1000
0000
0000
0100
0000
0000
1000
0000
2200
0000
3300
0000
,
0202
0000
0303
0000
0022
0000
0033
1000
0000
0000
0100
0000
0000
0010
0000
0000
,
0001
0000
0100
0000
0010
0000
0000
1000
0000
0000
0100
0000
2200
0000
3300
0000
,
2002
0000
3003
0000
0022
0000
0033
0010
0000
0000
0001
0000
0000
0100
0000
0000
,
0010
0000
1000
0000
0100
0000
0000
0010
0000
0000
0001
0000
0202
0000
0303
0000
,
2200
3300
0022
0033
0101
0000
1100
0000
,
0011
1010
1100
0101
,
0011
0000
0000
0000
0004
4000
0000
0000
0000
0000
0000
0000
0000
0000
0000
0000
,
0000
0000
0000
3003
;

//---------------dance-single - J. Nordli----------------
#NOTES:
     dance-single:
     J. Nordli:
     Medium:
     7:
     0.538,0.574,0.335,0.642,0.000,300.000,36.000,69.000,0.000,0.000,0.000,0.538,0.574,0.335,0.642,0.000,300.000,36.000,69.000,0.000,0.000,0.000:
0000
0000
0000
0000
,
0000
0000
0000
0000
0001
0100
0001
0000
,
0000
0000
0100
0001
0100
0001
0100
0000
,
0000
0000
0001
1000
0001
0000
1000
0000
,
0001
0100
0010
0000
1000
0000
0100
0000
,
0010
0001
0010
0000
0001
0000
0100
0000
,
0010
1000
0001
1000
0002
0000
0000
0000
,
1000
0000
1000
0003
0001
0100
0001
0100
,
0001
1000
0100
0010
,
0001
1000
0001
0010
0001
0000
0100
0000
,
0010
0000
1000
0001
1000
0001
1000
0000
,
2002
3003
0202
0303
2020
3030
0001
0000
,
0100
0001
0100
0001
0100
0000
0001
0000
,
1000
0000
0100
0000
0010
0001
0010
0001
,
0010
0000
0001
0000
0100
0010
0100
0000
,
2020
3030
2200
3300
0022
0033
1000
0000
,
0001
0000
0100
0010
0100
0000
0001
0000
,
0100
0000
0010
1000
0010
0000
1000
0000
,
0001
0000
0100
0010
0100
0000
0001
0000
,
2002
3003
2002
3003
2002
3003
1000
0000
,
0100
0000
0010
0001
0010
0000
0001
0000
,
0100
0000
0010
0100
0010
0000
0100
0000
,
0001
0000
0010
0001
0010
0000
0001
0000
,
0100
0001
2002
0000
,
0000
0000
0000
3003
1000
0001
1000
0001
,
1000
0001
1000
0000
0001
1000
0001
1000
,
0001
1000
0001
0000
0010
0100
0010
0100
,
0010
0100
0010
0000
0100
0010
0100
0010
,
0100
0010
0100
0000
1000
0100
1000
0100
,
1000
0100
1000
0000
0100
1000
0100
1000
,
0100
1000
0100
0000
1000
0001
1000
0001
,
1000
0001
1000
0000
0001
0010
0001
0010
,
0001
0000
0220
0330
0110
0000
0022
0033
,
2200
3300
0202
0303
0001
0000
0100
0000
,
0001
0100
0001
0000
0010
0000
0001
0000
,
0010
0001
0010
0000
0001
0000
0100
0000
,
0010
1000
0010
0000
1000
0000
2002
3003
,
0220
0330
0202
0303
0001
0000
0100
0000
,
0001
0100
0001
0000
0010
0000
0001
0000
,
0010
0001
0010
0000
0001
0000
0100
0000
,
0010
1000
0010
0000
1000
0000
0220
0330
,
2002
3003
2200
3300
1000
0001
1000
0001
,
1000
0001
1000
0001
1000
0001
1000
0001
,
1000
0001
1000
0001
1000
0001
1000
0001
,
1000
0001
1000
0001
1000
0000
0022
0033
,
2002
3003
2020
3030
0010
0100
0010
0100
,
0010
0100
0010
0100
0010
0100
0010
0100
,
0010
0100
0010
0100
0010
0100
0010
0100
,
0010
0202
0000
0303
,
0101
0001
0100
0001
,
1000
0001
1000
0000
0100
0000
2200
3300
,
0202
0303
0022
0033
1000
0000
0100
0000
,
0010
0001
0010
0000
0001
0000
2200
3300
,
2002
3003
0022
0033
1000
0000
0001
0000
,
0100
0001
0100
0000
0001
0000
0202
0303
,
2200
3300
0022
0033
0001
0010
0001
0010
,
0001
0010
0001
0000
0010
0001
0010
0001
,
0010
2002
0000
0000
,
0000
0000
0000
3003
;

//---------------dance-single - J. Nordli----------------
#NOTES:
     dance-single:
     J. Nordli:
     Easy:
     3:
     0.355,0.464,0.195,0.446,0.000,198.000,21.000,48.000,0.000,0.000,0.000,0.355,0.464,0.195,0.446,0.000,198.000,21.000,48.000,0.000,0.000,0.000:
0000
0000
0000
0000
,
0000
0000
0001
0100
,
0001
0000
0001
0100
,
0001
0100
0001
1000
,
0001
1000
0100
1000
,
0001
1000
0100
0010
,
0001
1000
2000
0000
,
0001
3001
1000
0001
,
0100
0010
0100
0001
,
0010
0001
0100
0010
,
1000
0100
0010
0100
,
2000
3000
2000
3000
2000
3000
0001
0000
,
0100
0010
0100
0001
,
0100
0010
1000
0100
,
0010
0001
0010
0100
,
2000
3000
2000
3000
2000
3000
0001
0000
,
1000
0010
0100
0010
,
0002
0003
0002
0003
0002
0003
1000
0000
,
0001
0100
0010
0100
,
0002
0003
0002
0003
0002
0003
1000
0000
,
0100
0010
0001
0010
,
0100
1000
0010
0100
,
0001
0100
0010
1000
,
0100
0010
2002
0000
,
0000
0000
0000
3003
0001
0000
0000
0000
,
0101
0000
1000
0000
,
1100
0000
0010
0000
,
0110
0000
0001
0000
,
0011
0000
0100
0000
,
1100
0000
0010
0000
,
0110
0000
0001
0000
,
0011
0000
0100
0010
,
0100
0000
0010
0000
0010
0000
0020
0030
,
0020
0030
0020
0030
0001
0000
0100
0000
,
0001
0100
0001
1000
,
0001
0010
0001
1000
,
0010
0000
0100
0000
0001
0000
2000
3000
,
2000
3000
2000
3000
0001
0000
0100
0000
,
0010
1000
0100
0010
,
0001
0010
0100
1000
,
0100
0000
0010
0000
0001
0000
0200
0300
,
0200
0300
0200
0300
1000
0000
0100
0000
,
1000
0001
1000
0001
,
0010
0001
0010
0001
,
1000
0000
0010
0000
0100
0000
0002
0003
,
0002
0003
0002
0003
0100
0000
0001
0000
,
0100
0001
1000
0001
,
1000
0001
0010
0001
,
0100
0202
0000
0303
,
0000
0100
0001
0100
,
0001
0000
1000
0000
0100
0000
2200
3300
,
0202
0303
0022
0033
0010
0000
0001
0000
,
0100
0000
0010
0000
1000
0000
2200
3300
,
2002
3003
0022
0033
0001
0000
1000
0000
,
0100
0000
0010
0000
0001
0000
0202
0303
,
2200
3300
0022
0033
0000
0000
1100
0000
,
0000
1001
0000
0011
,
0000
0002
0000
0000
,
0000
0000
0000
0003
;

//---------------dance-single - J. Nordli----------------
#NOTES:
     dance-single:
     J. Nordli:
     Beginner:
     1:
     0.165,0.160,0.065,0.019,0.000,115.000,7.000,2.000,0.000,0.000,0.000,0.165,0.160,0.065,0.019,0.000,115.000,7.000,2.000,0.000,0.000,0.000:
0000
0000
0000
0000
,
0000
0000
0001
0000
,
0100
0000
0001
0000
,
1000
0000
0001
0000
,
1000
0000
0001
0000
,
0010
0000
0001
0000
,
1000
0000
1000
0000
,
0001
0001
0001
0000
,
0100
0000
0010
0000
,
1000
0000
0001
0000
,
0100
0000
0001
0000
,
1000
1000
1000
0000
,
0001
0000
0010
0000
,
0001
0000
1000
0000
,
0010
0000
0001
0000
,
1000
1000
1000
0000
,
0001
0000
1000
0000
,
0001
0001
0001
0000
,
0010
0000
1000
0000
,
0001
0001
0001
0000
,
1000
0000
0100
0000
,
0010
0000
0001
0000
,
1000
0000
0001
0000
,
1000
0000
0002
0000
,
0000
0003
0001
0000
,
0101
0000
0000
0000
,
1100
0000
0000
0000
,
0110
0000
0000
0000
,
0011
0000
0000
0000
,
1100
0000
0000
0000
,
0110
0000
0000
0000
,
0011
0000
0100
0000
,
0100
0000
0010
0010
,
0010
0010
0000
1000
,
0000
0001
0000
0100
,
0000
0010
0000
0100
,
0000
0001
0000
1000
,
1000
1000
0000
0001
,
0000
0100
0000
0001
,
0000
1000
0000
0001
,
0000
0010
0000
0100
,
0100
0100
0000
1000
,
0000
0100
0000
0010
,
0000
0001
0000
1000
,
0000
1000
0000
0001
,
0001
0001
0000
0100
,
0000
0010
0000
0100
,
0000
0001
0000
0100
,
0000
0002
0000
0003
,
1000
0000
0001
0000
,
0100
0000
0000
0100
,
0100
0100
0000
0000
,
0001
0000
0000
0001
,
0001
0001
0000
0000
,
0010
0000
0000
1000
,
1000
1000
0000
1000
,
0000
0001
0000
0010
,
0000
0001
0000
0000
;

//---------------dance-single - D. Renzetti----------------
#NOTES:
     dance-single:
     D. Renzetti:
     Challenge:
     10:
     0.805,0.741,0.326,0.605,0.698,506.000,35.000,65.000,6.000,3.000,18.000,0.805,0.741,0.326,0.605,0.698,506.000,35.000,65.000,6.000,3.000,18.000: // measure 1
0000
0000
0000
0000
,  // measure 2
0000
0000
0000
1000
0010
1000
0100
0010
0001
0000
0100
0000
0010
1000
0000
1010
,  // measure 3
0000
0000
0000
0001
0100
0001
0010
0100
1000
0000
0001
0000
0100
0010
0000
0110
,  // measure 4
0000
0000
0000
0010
0100
0001
0010
0100
1000
0000
0010
0000
0200
0000
0000
0001
,  // measure 5
0310
0000
0100
0000
2000
0000
0000
0010
3100
0000
0001
0000
0020
0000
0000
0001
,  // measure 6
0130
0000
0010
0000
2000
0000
3100
0010
0100
0000
1000
0000
0002
0000
0000
0100
,  // measure 7
0013
1000
0001
0010
0100
0000
MMMM
0000
,  // measure 8
0022
0000
0033
0000
0202
0000
0303
0000
0010
0000
1000
0100
1000
0000
0100
0010
,  // measure 9
0100
0000
0010
0001
0010
0000
0100
1000
0100
0010
0001
0010
0100
0000
1000
0010
,  // measure 10
1000
0000
0010
0100
0010
0000
0100
0001
0100
0000
0001
0010
0001
0000
0100
0010
,  // measure 11
0100
0000
0001
1000
0010
0000
0100
0010
1000
0100
0010
0001
0100
0000
0010
0000
,  // measure 12
0220
0000
0330
0000
2020
0000
3030
0000
0100
0000
0010
1000
0100
0000
0010
0001
,  // measure 13
0100
0000
0020
0000
0030
0000
0110
0000
0000
0000
1000
0010
1000
0000
0100
0010
,  // measure 14
0100
0000
0010
0001
0010
0000
0100
0000
0220
0000
0330
0000
2002
0000
3003
0000
,  // measure 15
0100
0000
0020
0000
0030
0000
1010
0000
0000
0000
4000
0400
0000
0000
0000
3000
,  // measure 16
1300
0000
0100
0000
0010
0000
0001
0000
0100
0000
0100
0010
0000
0010
1000
0000
,  // measure 17
1000
0100
0000
0100
0010
0100
0010
0000
0001
0000
0001
1000
0000
1000
0100
0000
,  // measure 18
0220
0000
0330
0000
0022
0000
0033
0000
0100
0000
0100
0010
0000
0010
1000
0000
,  // measure 19
1000
0001
0000
0001
0100
0001
0100
0000
0001
0000
0001
0100
0000
0100
0010
0000
,  // measure 20
0220
0000
0330
0000
2020
0000
3030
0000
1000
0000
1000
0010
0000
0010
0100
0000
,  // measure 21
0100
0001
0000
0001
0010
0001
0010
0000
0100
0000
0100
0010
0000
0010
0001
0000
,  // measure 22
0202
0000
0303
0000
2002
0000
3003
0000
0100
0010
0100
0000
0010
0000
1000
0000
,  // measure 23
0100
0010
0100
0000
0010
0000
0001
0000
0100
0010
0100
0000
0010
0000
1000
0000
,  // measure 24
0100
0010
0100
0000
0010
0000
0001
0000
2002
0000
0000
0000
0000
0000
0000
0000
,  // measure 25
0010
0000
3003
0000
0000
0000
0000
0000
1000
0010
0200
0000
0310
0000
0000
0000
,  // measure 26
0100
0001
0020
0000
0130
0000
0000
0000
1000
0010
0200
0000
0310
0000
0100
0000
,  // measure 27
0001
0100
0020
0000
0130
0000
0010
0000
1000
0100
1000
0000
0100
0000
0010
0000
,  // measure 28
0001
0010
0001
0000
0010
0000
0100
0000
1000
0100
1000
0010
0100
0001
0010
0001
,  // measure 29
0100
0010
1000
0100
0010
0000
0000
0000
0004
0400
0000
0000
0000
0000
0000
0303
,  // measure 30
0001
0000
0100
0000
0010
0000
0000
0000
4000
0040
0000
0000
0000
0000
0000
3030
,  // measure 31
1000
0000
0010
0000
0100
0000
0000
0000
0040
0400
0000
0000
0000
0000
0000
0330
,  // measure 32
0010
0000
0100
0000
0001
0000
0000
0000
0040
0400
0000
0000
0000
0000
0000
0330
,  // measure 33
0010
0100
1000
0000
2002
0000
0010
0000
,  // measure 34
0010
0000
3003
0000
0001
0000
1000
0100
1000
0000
0100
0010
0100
0000
0010
0001
,  // measure 35
0010
0000
0001
0010
0100
1000
0100
0010
0001
0000
0100
0010
0100
0000
0010
1000
,  // measure 36
0100
0000
0010
0000
0001
0000
0100
0010
0100
0000
0010
1000
0010
0000
1000
0100
,  // measure 37
1000
0000
0100
0010
0001
0010
0100
1000
0100
0000
0010
0000
0202
0000
0303
0000
,  // measure 38
2020
0000
3030
0000
1001
0000
1000
0010
1000
0000
0100
0010
0100
0000
0020
0000
,  // measure 39
0030
0000
0110
0000
0000
0000
0010
0100
1000
0000
0001
0010
0100
0000
0010
0001
,  // measure 40
0100
0000
0010
0000
1000
0000
0100
0010
0100
0000
0010
0001
0010
0000
0002
0000
,  // measure 41
0003
0000
0101
0000
0000
0000
0400
0040
0000
0000
0000
0330
0100
0000
0010
0000
,  // measure 42
1000
0000
0100
0000
0022
0000
0033
0000
0220
0000
0330
0000
1000
0000
0001
0100
,  // measure 43
0001
0000
1000
0100
0010
0001
0010
0100
1000
0000
0001
0010
0001
0000
1000
0100
,  // measure 44
1000
0000
0001
0100
0010
0000
1000
0010
0100
0000
0010
0100
0001
0000
0010
0100
,  // measure 45
1000
0000
0010
0100
0001
0010
0100
1000
0100
0000
0010
0000
0220
0000
0330
0000
,  // measure 46
0022
0000
0033
0000
1001
0000
1000
0100
1000
0000
0100
0010
0100
0000
0010
0000
,  // measure 47
0100
0000
0110
0000
0000
0000
0010
0100
1000
0000
0001
0010
0001
0100
0001
0010
,  // measure 48
0100
0000
1000
0000
0010
0000
0100
0001
0100
0000
0010
1000
0010
0000
1000
0100
,  // measure 49
1000
0000
0010
0000
0100
0000
0004
4000
0000
0000
0000
3003
0001
0000
0100
0000
,  // measure 50
0010
0000
1000
0000
0001
0000
0001
0100
0000
0100
0010
0000
0010
1000
0000
1000
,  // measure 51
0100
1000
0100
0000
0010
0000
0010
0001
0000
0001
0100
0000
0220
0000
0330
0000
,  // measure 52
2020
0000
3030
0000
0100
0000
0100
0001
0000
0001
1000
0000
1000
0100
0000
0100
,  // measure 53
0010
0100
0010
0000
0001
0000
0001
1000
0000
1000
0010
0000
2020
0000
3030
0000
,  // measure 54
0220
0000
0330
0000
0001
0000
0001
0100
0000
0100
0010
0000
0010
0100
0000
0100
,  // measure 55
0001
0100
0001
0000
0010
0000
0010
0100
0000
0100
1000
0000
2200
0000
3300
0000
,  // measure 56
0022
0033
1000
0010
0100
0001
0010
0100
,  // measure 57
1000
0000
0001
0000
0100
0010
0100
0000
0001
0000
1000
0000
0100
0010
0100
0000
,  // measure 58
1000
0000
0001
0000
0400
0040
0000
0000
0000
0000
0000
0330
0100
0000
0000
0000
,  // measure 59
M001
0000
0000
0000
0010
0000
0000
0000
010M
0000
0000
0000
4000
0004
0000
0000
,  // measure 60
3003
0000
0000
0000
;

//---------------dance-double - S. Hanson----------------
#NOTES:
     dance-double:
     S. Hanson:
     Edit:
     10:
     -1.000,-1.000,-1.000,-1.000,-1.000:
// measure 1
00000000
00000000
00000000
00000000
,  // measure 2
00000000
00000000
00001000
00000001
00000100
00000000
00000000
00000001
,  // measure 3
00001000
00000010
00000100
00001000
00010000
00000000
01000000
10000000
,  // measure 4
00100000
00001000
00000010
00001000
00010000
00100000
01000000
00001000
,  // measure 5
00000100
00000000
00000010
00010000
00000000
00000000
00000000
00001000
,  // measure 6
10000000
01000000
00100000
00010000
00100000
00000000
00000100
00000000
,  // measure 7
01000000
00001000
00000000
00010000
M1MMM1MM
00001000
00000000
00001000
,  // measure 8
00010010
00000000
00010000
00000000
01001000
00000000
00001000
00000000
00010010
00000000
00000010
00001000
00000010
00000000
00001000
00000001
,  // measure 9
00000100
00000000
00000001
00000010
00000100
00000000
00010000
00001000
01000000
00000000
00001000
00100000
00010000
00000000
10000000
00000000
,  // measure 10
10100000
00000000
00010000
00000000
00110000
00000000
10000000
00000000
10010000
00000000
00010000
01000000
00100000
00000000
01000000
00001000
,  // measure 11
01000000
00000000
00010000
00100000
00001000
00000000
00010000
00001000
00000100
00000000
00000010
00001000
00000100
00000000
00000010
00000000
,  // measure 12
00000011
00000000
00001000
00000000
00001100
00000000
00000001
00000000
00001001
00000000
00001000
00000100
00000010
00000000
00000100
00010000
,  // measure 13
00001000
00000000
00000100
00000010
00001000
00000000
00000010
00010000
00001000
00000000
00010000
01000000
00100000
00000000
00001000
00000000
,  // measure 14
00011000
01000000
01000100
00000100
00011000
00000000
00000110
00000000
,  // measure 15
00010000
00000000
00010000
00000000
00000000
00000000
01100000
00000000
00000000
00000000
00001000
01000000
00001000
01000000
00001000
01000000
,  // measure 16
00000100
00000000
00000000
00000000
00100010
00000000
00000000
00000000
00001100
00000000
00000000
00010000
00000000
00000000
01001000
00000000
,  // measure 17
00000000
10000000
00000000
00010000
00100000
00000000
00001000
00000000
01010000
00000000
00000000
00000100
00000000
00000000
00001001
00000000
,  // measure 18
00000000
00000010
00000000
00001000
00000100
00000000
00010000
00000000
00101000
00000000
00000000
00010000
00000000
00000000
00001010
00000000
,  // measure 19
00000000
00000100
00000000
01000000
00010000
00000000
00100000
00000000
11000000
00000000
00000000
00010000
00000000
00000000
01100000
00000000
,  // measure 20
00000000
00001000
00000000
00100000
00010000
00000000
01000000
00000000
00011000
00000000
00000000
00000010
00000000
00000000
00001100
00000000
,  // measure 21
00000000
00000001
00000000
00000100
00000010
00000100
00000001
00000100
00000010
00000000
00000000
00001000
00000000
00000000
00010100
00000000
,  // measure 22
00000000
01000000
00000000
00010000
00100000
01000000
00100000
00010000
1M000000
00000000
00000000
00000000
00M11M00
00000000
00000000
00000000
,  // measure 23
1M000000
00M11M00
000000M1
00M11M00
,  // measure 24
000000M1
00M11M00
00000020
00000000
,  // measure 25
00000000
00000000
00000000
00000000
00000000
00000000
00000000
00000000
00001030
00000001
00000010
00000000
00000100
00000000
00000000
00000000
,  // measure 26
00001000
00000001
00000010
00000000
00000100
00000000
00000000
00000000
00010000
00001000
00100000
00000000
00000000
00001000
00010000
00001000
,  // measure 27
00100000
00010000
10000000
00010000
00000000
00000000
00000000
00000000
00010000
10000000
00100000
10000000
00010000
00000000
01000000
00000000
,  // measure 28
00001000
00010000
00001000
00010000
00000000
00000000
00000000
00000000
10010000
00000000
00110000
00000000
00101000
00000000
00001000
00010000
,  // measure 29
00000100
00001000
00000100
00000010
00000000
00000000
00000000
00000000
00011000
00000000
00010000
00000010
00010000
00000010
00010000
00000010
,  // measure 30
00000100
00000000
00000100
00000000
00000100
00000000
00000000
00000000
00001001
00000000
00000001
00000010
00000000
00000010
00000001
00000000
,  // measure 31
00001000
00000000
00001000
00000000
00001000
00000000
00000000
00000000
00001100
00000000
00000100
00010000
00000100
00010000
00000100
00010000
,  // measure 32
00001000
00000000
00001000
00000000
00001000
00000000
00000000
00000000
01010000
00000000
00010000
01000000
00000000
01000000
00100000
00000000
,  // measure 33
10000000
10000000
10000000
00000000
MMMMMMM1
00010000
00101000
00001000
,  // measure 34
00010100
00000000
00010000
00000000
00101000
00000000
00001000
01000000
00010000
00000000
10000000
00010000
10000000
00000000
00100000
01000000
,  // measure 35
00010000
00000000
00100000
00001000
00010000
00000000
00001000
00000100
00000010
00000000
00001000
00000000
00000110
00000000
00000010
00000000
,  // measure 36
00001001
00000000
00000001
00000000
00001100
00000000
00000100
00010000
00001000
00000000
00010000
00000010
00001000
00000000
00000100
00000010
,  // measure 37
00000100
00000000
00010000
00001000
01000000
00000000
00100000
00010000
00001000
00000000
00100000
00000000
00110000
00000000
10000000
00000000
,  // measure 38
10100000
00000000
01000000
00000000
10010000
00000000
00010000
00100000
01000000
00000000
10000000
01000000
00010000
00000000
00001000
00010000
,  // measure 39
00000100
00000000
00000010
00000100
00001000
00000000
00000001
00001000
00000010
00000000
00001000
00000000
00010100
00000000
00010000
00000000
,  // measure 40
01001000
00001000
10010000
00000000
01100000
00000000
00001000
00001000
,  // measure 41
00000000
00000000
00000110
00000000
00000000
00000000
00001000
01000000
00001000
01000000
00001000
01000000
00100000
00000000
00000000
00000000
,  // measure 42
10001000
00000000
00000000
00000000
00010001
00000000
00000001
00000100
00000010
00000000
00001000
00000010
00010000
00000000
00001000
00010000
,  // measure 43
01000000
00000000
00100000
00010000
10000000
00000000
00100000
01000000
00010000
00000000
10000000
00000000
11000000
00000000
00010000
00000000
,  // measure 44
01100000
00000000
00010000
00000000
00110000
00000000
00100000
00001000
00010000
00000000
00001000
00010000
00000010
00000000
00000100
00000010
,  // measure 45
00001000
00000000
00000001
00000100
00001000
00000000
00010000
00000100
00010000
00000000
00000100
00000000
00000011
00000000
00000001
00000000
,  // measure 46
00001001
00000100
00011000
00000000
00000000
00100000
00000010
00000000
,  // measure 47
01000000
00000100
00000000
00000000
00000000
00010000
01000000
10000000
,  // measure 48
01000000
00010000
00001000
00000000
00000100
00000000
00000010
00010000
,  // measure 49
00000000
00000000
10010000
00000000
00000000
00000000
01000000
00000100
01000000
00000100
01000000
00000100
00010000
00000000
00000000
00000000
,  // measure 50
00101000
00000000
00000000
00000000
00010010
00000000
00000000
00000100
00000000
00000000
00001001
00000000
00000000
00000010
00000000
00010000
,  // measure 51
00000100
00000000
00001000
00000000
00000110
00000000
00000000
00010000
00000000
00000000
01001000
00000000
00000000
00100000
00000000
00010000
,  // measure 52
10000000
00000000
01000000
00000000
00110000
00000000
00000000
00001000
00000000
00000000
01010000
00000000
00000000
00100000
00000000
00001000
,  // measure 53
00010000
00000000
00000100
00000000
00000011
00000000
00000000
00001000
00000000
00000000
00000101
00000000
00000000
00000010
00000000
00000100
,  // measure 54
00001000
00000000
00010000
00000000
01001000
00000000
00000000
00010000
00000000
00000000
11000000
00000000
00000000
00010000
00000000
00100000
,  // measure 55
01000000
10000000
01000000
00100000
00010000
00000000
00000000
00100000
00000000
00000000
00011000
00000000
00000000
00000010
00000000
00000100
,  // measure 56
00000010
00001000
00000010
00000100
000000M1
00000000
00000000
00000000
00M11M00
00000000
00000000
00000000
000000M1
00000000
00000000
00000000
,  // measure 57
00M11M00
1M000000
00M11M00
1M000000
,  // measure 58
00M11M00
00000000
00000000
00000000
001MM100
00000000
00000000
00000000
00001000
00010000
00001000
00010000
00000100
00000000
00000000
00000000
,  // measure 59
00000200
01000000
02000000
00002000
,  // measure 60
00000000
03003300
00000000
00000000
;

//---------------dance-double - O. Ramirez----------------
#NOTES:
     dance-double:
     O. Ramirez:
     Challenge:
     10:
     0.601,0.301,0.251,0.381,0.367:
00000000
00000000
00000000
00000000
,
00000000
00000000
00000000
10000000
01000000
00100000
00010000
01000000
00100000
00000000
01000000
00000000
00001000
00010000
00000000
00011000
,
00000000
00000000
00000000
00001000
00010000
00000010
00001000
00000001
00000100
00000000
00001000
00000000
00010000
01000000
00000000
10000000
,
00000000
00000000
00000000
00010000
00100000
00001000
00010000
00000010
00001000
00000000
00000000
00000000
00001MM1
00000000
00000000
00000000
,
0000001M
0001MM10
000M1000
00011000
,
00010000
00001000
00100000
01000000
00010000
00000000
00001000
00000000
,
00020000
02000000
00000000
00000000
03031000
00000000
M0M00000
00000000
,
02000000
00000000
00000000
00000000
23000000
00000000
00000000
00000000
30100000
00000000
01000000
00010000
10000000
00000000
01000000
00000000
,
00010000
00001000
00000010
00000001
0000M1M1
00000000
0000M1M1
00000000
,
0000M11M
00000000
00000000
0000M0M0
00000101
00000000
00000000
00000000
00000100
00000000
00000001
00001000
00000010
00000000
00010000
00000000
,
00001000
00010000
01000000
10000000
1M1M0000
00000000
10000000
00000000
,
20010000
00000000
00100000
00000000
32000000
00000000
00000000
13000000
,
00100000
00020000
00000000
00031000
00000000
000MM000
00000000
00000000
,
00010000
00001000
00010000
00000010
00010000
00000000
00000100
00000000
,
00001000
00000000
00000010
00000000
00000000
00000000
00001001
00000000
00000000
00000000
00000001
00000100
00000010
00001000
00000001
00000100
,
00000020
00000200
00001330
00000000
,
MMMMMMMM
00000000
00000000
00000000
00000000
00000000
00000000
00000000
00000001
00000100
00000000
00000100
00000001
00000000
00000001
00001000
,
00000000
00001000
00000020
00000000
00010000
00000000
00010030
00000000
00001000
00100000
00000000
00100000
00010000
00000000
00010000
01000000
,
00000000
01000000
00002000
00000000
00010000
00000000
00013000
00000000
00010000
00000010
00000000
00000010
00001000
00000000
00001000
00000010
,
00000000
00000010
00000200
00000000
00000001
00000000
00000301
00000000
00000001
00000100
00000000
00000100
00000010
00000000
00000010
00010000
,
00000000
00010000
00002000
00000000
01000000
00000000
01003000
00000000
00100000
10000000
00000000
00010000
01000000
00000000
01000000
00001000
,
00000000
00001000
00020000
00000000
00001000
00000000
00031000
00000000
00011000
00000000
00000000
00000000
00101000
00000000
00000000
00000000
,
00011000
00010100
00011000
01001000
,
00011000
00000000
00010010
00000000
00M22000
00000M00
00M00000
00000M00
,
00M00000
00000M00
00M33M00
00000000
00010000
00001000
00100000
01000000
,
00010000
00001000
00000100
00000010
00010000
00001000
01000000
00100000
,
10000000
00010000
01000000
00001000
00100000
01000000
00100000
00001000
,
00010000
00001000
00000100
00000001
00000010
00001000
00020000
00000000
,
00000000
00000000
00000000
00000000
00030100
00000000
00000000
00000000
00010000
00001000
00100000
00010000
01000000
00100000
10000000
00010000
,
01000000
00000000
00100000
00000000
01000000
00000000
00000000
00000000
00010000
00000000
01010000
00000000
01000000
00001000
00010000
00001000
,
00010000
00000000
00001000
00000000
00011000
00000000
00000000
00000000
00010000
00000000
00001000
00000000
00010000
00000100
00001000
00000000
,
00000010
00000000
00000100
00000000
00001000
00000000
00000000
00000000
00010000
00000000
00010000
00100000
10000000
00000000
00010000
00000000
,
01000000
00100000
20020000
00000000
30030000
00000000
00000002
00000000
,
00000200
00000000
00000000
00000000
00000313
00000000
00000100
00000001
00001000
00000000
00000100
00000000
00010000
00000000
00000010
00000000
,
00010000
00000000
00001000
00000000
00100000
00000000
00000000
00000000
00000000
00000000
00100000
00000000
01000000
00000000
01000000
10000000
,
00100000
01000000
00010000
00100000
00001000
00010000
00000010
00000001
,
00000010
00000100
00000001
00000000
00000000
00000000
00000020
00000000
,
00020000
00000000
00000000
00000000
00101000
00000000
00000000
00030030
00000000
00000000
00000000
00000000
00002000
00000000
00020000
00000000
,
00000000
00100010
00033000
00000000
00000000
00001000
00010000
00001000
,
00100000
01000000
00020000
00000000
00031000
00000000
00010000
00000010
,
00000000
00000000
00001010
00000000
00000000
00000000
00001000
00000010
00000100
00000001
00001000
00000010
00000200
00000000
00000000
00000000
,
00000002
00000000
00000313
00000000
00000000
00000000
00000001
00000100
,
00000001
00000001
00001000
00000100
00010000
00010000
00001000
00010000
,
00000010
00000010
00000100
00001000
00010000
00010000
00001000
00100000
,
01000000
01000000
00010000
01000000
10000000
10000000
00002000
00000000
,
00200000
00000000
00313000
00000000
00000000
00010000
00100000
00000000
,
00100000
00001000
00000000
00000000
00000000
00010000
00001000
00100000
,
00000010
01000000
00000200
00000000
00010300
00000000
00001000
00000200
,
00000000
00000000
00000301
00000000
00000000
00000000
00001000
00000001
00000100
00000010
00010000
00001000
00020000
00000000
00000000
00000000
,
00032000
00000000
00000000
00000000
00103000
00010000
00000000
01000000
00010000
00000000
01000000
00001000
00000000
00010000
00001000
00000000
,
00000100
00000000
00000010
00000000
00000100
00000001
00000000
00001000
00000010
00000000
00010000
00001000
00000000
00010000
01000000
00000000
,
10000000
00000000
00100000
00000000
01000000
00010000
00000000
10000000
00100000
00000000
10000000
01000000
00000000
01000000
00010000
00000000
,
00001000
00000000
00001000
00000000
00010000
00001000
00000000
00100000
00001000
00000000
00010000
00001000
00000000
00010000
00000010
00000000
,
00000100
00000000
00000001
00000000
00001000
00000010
00000000
00001000
00000001
00000000
00001000
00000100
00000000
00000100
00010000
00000000
,
00001000
00000000
00001000
00000000
00010000
01000000
00000000
01000000
10000000
00000000
10000000
00100000
00000000
00100000
00010000
00000000
,
00001000
00001000
00020000
00000000
02000000
00000000
00031000
00000000
,
00200000
00010000
03310000
02000000
,
00000200
00022000
00000000
00000000
,
00000000
00000000
00000000
03033300
;

//---------------dance-double - O. Ramirez----------------
#NOTES:
     dance-double:
     O. Ramirez:
     Hard:
     8:
     0.497,0.137,0.195,0.288,0.121:
00000000
00000000
00000000
00000000
,
00000000
00000000
00000000
00000000
00000000
00000000
00000000
00000000
10000000
00000000
01000000
00000000
00100000
00010000
00000000
00100000
,
00000000
00000000
00000000
00000000
00000000
00000000
00000000
00000000
00000001
00000000
00000100
00000000
00000010
00001000
00000000
00000010
,
00000000
00000000
00000000
00000000
00020000
00000000
00000000
00031000
,
00000100
00000000
00000010
00001000
00000000
00000000
00000000
00010000
,
00001000
00100000
01000000
00010000
00001000
00000000
01000000
00000000
,
00100000
10000000
00000000
00000000
10010000
00000000
00000000
00000000
,
10010000
00000000
00011000
00000000
00001001
00000000
00001000
00000100
,
00000010
00000001
00001000
00000100
00001100
00000000
00001000
00000000
,
00000011
00000000
00000101
00000000
00001000
00000000
00010000
00100000
,
10000000
00010000
01000000
00100000
10100000
00000000
M0M00000
00000000
,
10100000
00000000
11000000
00000000
10010000
00000000
00000000
10000000
,
01000000
00200000
00000000
00301000
00000000
00000000
00000000
00100000
,
00001000
00010000
00000010
00000100
00001001
00000000
00000001
00000000
,
00000100
00000000
00000010
00000000
00000000
00000000
00010010
00000000
00000000
00000000
00010000
00001000
00010000
00001000
00010000
00001000
,
00020000
00000200
00001000
00030300
,
00000000
00000000
00MMMM00
00000000
00000000
00000000
00000000
00000000
10000000
00000000
00000000
00010000
00000000
00000000
01000000
00000000
,
00000000
00100000
00000000
00000000
10000000
00000000
00010000
00000000
01000000
00000000
00000000
00001000
00000000
00000000
00010000
00000000
,
00000000
00000100
00000000
00000000
00001000
00000000
00000001
00000000
00000010
00000000
00000000
00000100
00000000
00000000
00001000
00000000
,
00000000
00000100
00000000
00000000
00010000
00000000
00001000
00000000
00100000
00000000
00000000
00010000
00000000
00000000
01000000
00000000
,
00000000
10000000
00000000
00000000
01000000
00000000
00010000
00000000
10000000
00000000
00000000
00100000
00000000
00000000
01000000
00000000
,
00000000
00001000
00000000
00000000
00010000
00000000
00001000
00000000
00020000
00000000
00000000
00000000
00032000
00000000
00000000
00000000
,
00203000
00320000
02030000
03002000
,
00023000
00000020
00001100
00030030
,
00000000
00000000
00000000
00000000
00010000
01000000
10000000
00000000
,
00010000
00100000
00010000
00000000
00100000
00000000
00000000
00000000
00010000
00000000
00200000
00000000
00000000
00000000
00000000
00301000
,
00010000
00000000
00001000
00000000
01000000
00000000
00000000
00000000
00000010
00010000
00000000
00000010
00001000
00000000
00000010
00000000
,
00000100
00000001
00000000
00000100
00000010
00000000
00000000
00000000
00000010
00000000
00010000
00000000
00000010
00000000
00001000
00000000
,
00000010
00001000
00000001
00000000
00001000
00000100
00010000
00001000
,
00100000
00100000
00110000
00000000
00200000
00000000
00301000
00000000
,
00010000
00001000
00011000
00000000
00010000
00001000
00100000
01000000
,
10000000
00010000
10010000
00000000
10000000
00010000
01000000
00001000
,
00010000
00001000
02000000
00002000
03013000
00000000
02000000
00000000
,
00002000
00000000
03013000
00000000
00000000
00000000
01000000
10000000
,
00000000
10100000
00000000
00000000
00000000
10000000
01000000
00100000
,
00001000
00010000
00000100
00000000
00000010
00000000
00000001
00000100
,
00000000
00001010
00000000
00000000
00000000
00000001
00000100
00000001
,
00001000
00000100
00002000
00000000
00000000
00003100
00001000
00000200
,
00000000
00010300
00000000
00000000
00000000
00010000
00000010
00000100
,
00000001
00001000
00001001
00000000
00000100
00000000
00010000
00001000
,
00000000
00000000
00011000
00000000
00000000
00000000
00010000
00001000
00010000
00001000
00010000
00001000
00020000
00000000
00000000
00000000
,
00032000
00000000
00203000
00000000
00310000
01000000
10000000
00000000
,
10000000
01000000
00010000
00000000
00010000
00100000
10000000
00000000
,
10000000
00100000
00010000
00000000
00100000
00001000
00010000
00000000
,
00010000
00000100
00001000
00000000
00001000
00000010
00000100
00000000
,
00000001
00000100
00000010
00000000
00000010
00010000
00001000
00000000
,
00010000
00000010
00001000
00000000
00000001
00001000
00000100
00001000
,
00000001
00000010
00001000
00000010
00000001
00001000
00000010
00010000
,
00001000
00100000
01000000
10000000
00010000
01000000
00001000
00010000
,
00001000
00010000
00000100
00000100
00010000
00010000
00001000
01000000
,
00010000
01000000
00100000
00100000
10000000
10000000
00010000
01000000
,
00001000
00010000
00001000
00001000
00010000
00010000
00000010
00000100
,
00000001
00001000
00000100
00000100
00010000
00010000
00001000
01000000
,
00001000
00010000
00001000
00001000
00100000
00100000
00010000
00100000
,
10000000
00100000
00010000
00010000
10000000
10000000
01000000
00100000
,
00010000
10000000
02000000
00000000
03200000
00000000
00320000
00000000
,
00230000
00302000
00023000
00030200
,
00002000
00000010
00000000
00000000
,
00000000
00000000
00000000
00003300
;

//---------------dance-double - O. Ramirez----------------
#NOTES:
     dance-double:
     O. Ramirez:
     Medium:
     6:
     0.407,0.106,0.270,0.316,0.000:
00000000
00000000
00000000
00000000
,
00000000
00000000
00000000
00000000
10000000
01000000
00200000
00000000
,
00310000
00000000
00001000
00010000
00001000
00010000
00002000
00000000
,
00013000
00000000
00010000
00000100
00002000
00000000
00000000
00000000
,
00000100
00000000
00003100
00000000
,
00000010
00000001
00001000
00000001
,
00000200
00000000
00000310
00000000
,
00010010
00001100
00011000
00000000
,
00010000
00001000
00010000
00001000
00100000
00000000
00000000
00000000
,
11000000
00000000
10010000
00000000
00110000
00000000
00100000
00010000
,
00100000
00010000
00100000
01000000
00100000
00000000
00000000
00000000
,
01010000
00110000
00022000
00033000
,
00010000
00002000
00000000
00000000
00013000
00000000
00000000
00000000
,
00011000
00010100
00001000
00000001
,
00000010
00000000
00000100
00000000
00001000
00000000
00000100
00000010
,
00000100
00000010
00000200
00000000
00000310
00000000
00000000
00000000
,
00000000
00000000
00000001
00000010
,
00000100
00000000
00001000
00000100
00001000
00000000
00000100
00000000
,
00010000
00000000
00001000
00010000
00001000
00000000
01000000
00000000
,
00010000
00000000
10000000
00100000
10000000
00000000
00010000
00000000
,
10000000
00000000
01000000
00100000
01000000
00000000
00100000
00000000
,
00001000
00000000
00010000
00001000
00010000
00000000
00001000
00000000
,
00010000
00000100
00010000
00000010
,
00011000
00011000
00022000
00033000
,
00000000
00000000
00010000
00001000
,
00100000
00000000
01000000
00000000
01000000
10000000
00000000
00000000
,
00010000
00010000
00010000
01000000
,
00001000
00010000
00010000
00000010
,
00000100
00000000
00000001
00000000
00001000
00000100
00001000
00000100
,
00001000
00000100
00001000
00000000
00000001
00000010
00000001
00000010
,
00000001
00000010
00000001
00000000
00001000
00000010
00001000
00000010
,
00001000
00000010
00001000
00000000
00000010
00000000
00010000
00000000
,
00001000
00010000
00002000
00000000
00013000
00000000
00011000
00000000
,
00110000
00000000
01001000
00000000
01000000
00010000
01000000
00100000
,
01000000
00100000
01000000
00000000
00000000
00000000
01010000
00000000
,
00011000
00000000
00010100
00000000
00002000
00000000
00000000
00003100
,
00001000
00001100
00000000
00001010
,
00000101
00000000
00001001
00000000
00000001
00001000
00000100
00000200
,
00000000
00010300
00000000
00011000
,
00101000
00000000
01010000
00000000
01000000
00010000
10000000
00200000
,
00000000
10300000
00000000
01000000
10000000
01000000
10000000
01000000
,
10000000
00010000
00200000
00000000
00310000
00000000
02000000
00000000
,
03001000
00020000
00030010
00000200
,
00000301
00000002
00000013
00000200
,
00000310
00000200
00010300
00002000
,
00013000
00002000
00103000
00200000
,
00310000
00200000
01300000
02000000
,
13000000
10010000
00000000
20000000
,
31000000
00000000
00100000
00010000
00100000
00010000
00200000
00000000
,
00302000
00013000
00000000
00000000
,
00000000
00001000
00010000
00000100
,
00001000
00000010
00001000
00000000
00000010
00000000
00000100
00000000
,
00000001
00001000
00000001
00000000
00001000
00000000
00000100
00000000
,
00010000
00001000
01000000
00000000
00010000
00000000
10000000
00000000
,
01000000
10000000
00100000
00000000
10000000
00000000
00010000
00000000
,
01000000
00100000
02000000
00000000
03100000
00000000
02000000
00000000
,
03010000
02000000
03001000
00020000
,
00002000
00133010
00000000
00000000
;

//---------------dance-double - O. Ramirez----------------
#NOTES:
     dance-double:
     O. Ramirez:
     Easy:
     3:
     0.238,0.027,0.251,0.084,0.000: // measure 1
00000000
00000000
00000000
00000000
,  // measure 2
00000000
00000000
10000000
00000000
,  // measure 3
10000000
00000000
00010000
00000000
,  // measure 4
00010000
00000000
01000000
00000000
,  // measure 5
00000000
00000000
01000000
00000000
,  // measure 6
00000000
00000000
00001000
00000000
,  // measure 7
00000000
00000000
00011000
00000000
,  // measure 8
00000000
00000000
00011000
00010000
,  // measure 9
00010000
00010000
00010000
00000000
,  // measure 10
00000000
00000000
00011000
00001000
,  // measure 11
00001000
00001000
00001000
00000000
,  // measure 12
00000100
00000010
00000100
00000000
,  // measure 13
00000000
00000000
00000110
00000000
,  // measure 14
00000100
00010000
00001000
00000000
,  // measure 15
00000000
00000000
00011000
00000000
,  // measure 16
01000000
00100000
01100000
00000000
,  // measure 17
00000000
00000000
01000000
01000000
,  // measure 18
01000000
01000000
00010000
00010000
,  // measure 19
00010000
00010000
00100000
00100000
,  // measure 20
00100000
00100000
00001000
00001000
,  // measure 21
00001000
00001000
00010000
00010000
,  // measure 22
00010000
00010000
00011000
00000000
,  // measure 23
00011000
00000000
00011000
00000000
,  // measure 24
00011000
00000000
00022000
00000000
,  // measure 25
00033000
00000000
00000100
00000100
,  // measure 26
00001000
00001000
00000010
00000010
,  // measure 27
00010000
00010000
00001000
00001000
,  // measure 28
01000000
01000000
00010000
00010000
,  // measure 29
10000000
10000000
20000000
00000000
,  // measure 30
30100000
00000000
02000000
00000000
,  // measure 31
03001000
00000000
00020000
00000000
,  // measure 32
00030010
00000000
00000200
00000000
,  // measure 33
00010300
00000000
00011000
00000000
,  // measure 34
00000000
00100000
00010000
00100000
,  // measure 35
00010000
00100000
00000000
00000000
,  // measure 36
00000000
00000100
00001000
00000100
,  // measure 37
00001000
00000100
00000000
00000000
,  // measure 38
00000000
00010000
00000010
00010000
,  // measure 39
00001000
00100000
00000000
00000000
,  // measure 40
00000000
00011000
00000000
00000000
,  // measure 41
00000000
00101000
00000000
00000000
,  // measure 42
00000000
00010100
00001000
00000100
,  // measure 43
00001000
00000100
00000000
00000000
,  // measure 44
00000000
00101000
00010000
00100000
,  // measure 45
00010000
00100000
00000000
00000000
,  // measure 46
00000000
10010000
00000000
00000000
,  // measure 47
00000000
01100000
00000000
00000000
,  // measure 48
00000000
10010000
00000000
00000000
,  // measure 49
00000000
10010000
20000000
00000000
,  // measure 50
00000000
30100000
01000000
00100000
,  // measure 51
01000000
00010000
10000000
00010000
,  // measure 52
10000000
01000000
00100000
01000000
,  // measure 53
00100000
00001000
00100000
00001000
,  // measure 54
00100000
00001000
00010000
00001000
,  // measure 55
00010000
00001000
00001000
00010000
,  // measure 56
00010000
00101000
00011000
01001000
,  // measure 57
00011000
00010010
00011000
00020200
,  // measure 58
00000000
00031300
00000000
00000000
;
