#TITLE:Kahu;
#SUBTITLE:;
#ARTIST:Asha;
#TITLETRANSLIT:;
#SUBTITLETRANSLIT:;
#ARTISTTRANSLIT:;
#GENRE:Breaks;
#CREDIT:;
#BANNER:Kahu-bn.png;
#BACKGROUND:Kahu-bg.png;
#LYRICSPATH:;
#CDTITLE:;
#MUSIC:Kahu.ogg;
#OFFSET:-0.034;
#SAMPLESTART:63.980;
#SAMPLELENGTH:11.860;
#SELECTABLE:YES;
#BPMS:0.000=135.000;
#STOPS:;
#BGCHANGES:0.062=Kahu.mpg=1.000=1=0=0=StretchNoLoop==CrossFade==,
99999=-nosongbg-=1.000=0=0=0 // don't automatically add -songbackground-;
#KEYSOUNDS:;

//---------------dance-single - D. D'Amato----------------
#NOTES:
     dance-single:
     D. D'Amato:
     Challenge:
     11:
     0.804,0.870,0.028,0.037,1.000,604.000,3.000,4.000,0.000,2.000,0.000,0.804,0.870,0.028,0.037,1.000,604.000,3.000,4.000,0.000,2.000,0.000: // measure 1
0000
0000
0000
0000
,  // measure 2
0000
0000
0000
0000
,  // measure 3
0000
0000
0000
0000
,  // measure 4
0010
0000
0000
0000
0001
0000
0100
0000
0001
0000
0100
0000
0010
0000
1000
0000
0010
0000
1000
0000
0100
0000
0000
0000
0010
0100
0010
0100
0010
0100
0010
0100
,  // measure 5
0010
0000
0100
0000
0010
0100
1000
0000
0100
0000
0010
0000
0001
0000
0100
0000
,  // measure 6
1000
0000
0100
0000
0010
0100
1000
0000
0100
0000
0001
0000
0010
0000
0100
0000
,  // measure 7
1000
0000
0100
0000
0010
0100
1000
0000
0100
0000
0010
0000
0001
0000
0100
0000
,  // measure 8
2002
0000
0000
0000
0000
0000
0000
0000
0000
0000
0010
0000
0000
0010
3003
0000
,  // measure 9
1000
0000
0010
0100
0000
0001
0000
0010
0000
0100
1000
0000
0010
0000
0100
0000
,  // measure 10
0001
0000
0010
0100
0000
1000
0000
0010
0000
0100
0001
0000
0010
0000
0100
0000
,  // measure 11
1000
0000
0100
0010
0000
0001
0000
0100
0000
0010
1000
0000
0100
0000
0010
0000
,  // measure 12
0001
0000
0100
0010
0000
1000
0000
0100
0000
0010
0001
0000
0100
0000
0010
0000
,  // measure 13
1000
0000
0010
0100
0000
1000
0000
0100
0000
0001
0010
0000
0100
0000
1000
0000
,  // measure 14
0001
0000
0010
0100
0000
0001
0000
0100
0000
1000
0010
0000
0100
0000
0001
0000
,  // measure 15
1000
0000
0100
0010
0000
1000
0000
0010
0000
0001
0100
0000
0010
0000
1000
0000
,  // measure 16
0001
0000
0100
0010
0000
0001
0000
0010
0000
1000
0100
0000
0010
0000
0001
0000
,  // measure 17
1000
0100
0010
0100
0000
1000
0000
0010
0000
0100
0001
0000
0010
0100
0010
0000
,  // measure 18
0001
0100
0010
0100
0000
0001
0000
0010
0000
0100
1000
0000
0010
0100
0010
0000
,  // measure 19
1000
0010
0100
0010
0000
1000
0000
0100
0000
0010
0001
0000
0100
0010
0100
0000
,  // measure 20
0001
0010
0100
0010
0000
0001
0000
0100
0000
0010
1000
0000
0100
0010
0100
0000
,  // measure 21
1000
0100
0001
0100
0000
1000
0000
0010
0000
0100
0001
0000
0010
1000
0010
0000
,  // measure 22
0001
0100
1000
0100
0000
0001
0000
0010
0000
0100
1000
0000
0010
0001
0010
0000
,  // measure 23
1000
0010
0001
0010
0000
1000
0000
0100
0000
0010
0001
0000
0100
1000
0100
0000
,  // measure 24
0001
0010
1000
0010
0000
0001
0000
0100
0000
0010
1000
0000
0100
0001
0100
0000
,  // measure 25
1000
0100
0010
0100
0000
1000
0010
0100
0000
0010
1000
0000
0001
0100
0010
0100
,  // measure 26
0001
0100
0010
0100
0000
0001
0010
0100
0000
0010
0001
0000
1000
0100
0010
0100
,  // measure 27
1000
0010
0100
0010
0000
1000
0100
0010
0000
0100
1000
0000
0001
0010
0100
0010
,  // measure 28
0001
0010
0100
0010
0000
0001
0100
0010
0000
0100
0001
0000
1000
0010
0100
0010
,  // measure 29
1000
0100
0010
0001
0100
1000
0100
0001
,  // measure 30
0010
0100
1000
0010
0001
0010
0100
0001
,  // measure 31
0010
0100
1000
0010
0100
1000
0100
0001
,  // measure 32
0010
0100
1000
0001
0010
1000
0010
0001
,  // measure 33
1000
0100
0001
0100
1000
0010
0100
0001
,  // measure 34
0010
0100
1000
0010
0100
1000
0100
0001
,  // measure 35
0010
0100
0001
0100
1000
0010
0100
0001
,  // measure 36
1000
0000
0000
0000
0100
0000
0010
0000
0100
0000
0010
0000
0001
0000
1000
0000
0001
0000
1000
0000
0010
0000
0000
0000
1000
0001
1000
0001
1000
0001
1000
0001
,  // measure 37
1000
0000
0000
1000
0100
0000
0010
0000
0100
0000
1000
0000
0001
0000
0000
0001
,  // measure 38
0100
0000
0001
1000
0001
0000
1000
0000
0010
0000
0010
0000
0100
0000
0100
0000
,  // measure 39
0001
1000
0100
0100
0010
0010
0001
0010
,  // measure 40
0100
0000
1000
0000
1000
0000
1000
0000
0010
0000
0100
0000
0001
0000
1000
0001
,  // measure 41
1000
0000
0001
0000
0001
0000
0001
0000
0001
1000
0001
0000
0010
0000
0001
0000
,  // measure 42
1000
0000
0100
0000
1000
0000
0001
0000
0100
0000
0001
1000
0000
0010
0000
1000
,  // measure 43
0000
0001
0000
0010
0000
0001
0000
0100
0000
0010
0000
1000
0000
0100
0000
1000
,  // measure 44
0001
0000
0000
0110
0000
0000
1001
0000
0000
1000
0100
0010
0001
0010
0100
1000
,  // measure 45
0200
0000
0000
0000
,  // measure 46
1300
0010
1000
0001
0010
0100
1000
0100
0010
0001
0100
0010
1000
0001
0010
0100
,  // measure 47
1000
0001
0100
0000
1000
0100
0000
0001
0010
0000
1000
0010
0000
0001
0100
0001
,  // measure 48
1000
0100
1000
0001
0100
0010
1000
0100
0010
0001
1000
0010
1000
0001
0010
0001
,  // measure 49
1000
0001
0100
0010
0100
0001
1000
0100
0000
1000
0100
1000
0001
0010
0100
1000
,  // measure 50
0010
0100
0010
1000
0001
0100
0001
1000
0100
1000
0001
0010
0100
1000
0001
0100
,  // measure 51
0001
1000
0100
0000
0001
0100
0000
1000
0010
0000
0001
0010
0000
1000
0100
1000
,  // measure 52
0001
0100
0001
1000
0010
0100
0010
1000
0100
0010
0001
1000
0100
0010
0100
1000
,  // measure 53
0010
0100
0001
0100
0010
1000
0001
0100
0000
0001
0100
0001
1000
0010
0100
0010
,  // measure 54
1000
0001
1000
0010
0100
0001
0010
0100
1000
0100
0010
0001
1000
0010
0100
0001
,  // measure 55
1000
0100
0010
0100
1000
0010
1000
0001
0010
0001
0100
0010
0100
0001
0010
0100
,  // measure 56
1000
0010
0100
0001
1000
0001
0100
0010
1000
0010
0100
0001
1000
0100
0010
0001
,  // measure 57
0100
0010
1000
0001
0010
0100
1000
0010
0100
0010
1000
0100
0010
0001
1000
0100
,  // measure 58
0010
0100
1000
0001
0010
0100
0010
0001
1000
0010
1000
0100
0010
0001
0100
0010
,  // measure 59
0200
0000
0000
0000
,  // measure 60
0300
0000
0000
0000
;

//---------------dance-single - D. D'Amato----------------
#NOTES:
     dance-single:
     D. D'Amato:
     Hard:
     9:
     0.575,0.788,0.028,0.037,0.461,430.000,3.000,4.000,0.000,0.000,0.000,0.575,0.788,0.028,0.037,0.461,430.000,3.000,4.000,0.000,0.000,0.000:
0000
0000
0000
0000
,
0000
0000
0000
0000
,
0000
0000
0000
0000
,
0010
0000
0001
0000
0100
0000
1000
0000
0100
0000
0001
0000
0010
0100
0010
0100
,
0010
0000
0000
0001
0100
0000
0010
0000
1000
0000
0100
0000
0010
0000
0001
0000
,
0100
0000
0000
0001
0010
0000
0100
0000
1000
0000
0010
0000
1000
0000
0100
0000
,
0010
0000
0000
0001
0100
0000
0010
0000
1000
0000
0001
0000
0010
0000
0100
0000
,
2002
0000
0000
0000
0000
0000
0000
0000
3003
0000
0110
0000
0000
1001
0000
0000
,
1000
0000
0010
0000
0000
1000
0000
0100
0000
0000
0010
0000
0001
0000
0100
0000
,
0001
0000
0010
0000
0000
0001
0000
0100
0000
0000
0010
0000
1000
0000
0100
0000
,
0010
0000
0001
0000
0000
0100
0000
0001
0000
0000
0010
0000
0100
0000
1000
0000
,
0010
0000
1000
0000
0000
0100
0000
1000
0000
0000
0010
0000
0100
0000
0001
0000
,
0100
0000
1000
0000
0000
0100
0000
0001
0000
0000
1000
0000
0010
0000
0001
0000
,
0010
0000
1000
0000
0000
0010
0000
0001
0000
0000
1000
0000
0100
0000
0001
0000
,
1000
0000
0010
0000
0000
0001
0000
0010
0000
0000
1000
0000
0001
0000
0100
0000
,
1000
0000
0100
0000
0000
0001
0000
0100
0000
0000
1000
0000
0001
0000
0010
0000
,
1000
0000
0100
0000
0000
1000
0000
0010
0000
0000
0100
0000
0001
0000
0010
0000
,
0001
0000
0100
0000
0000
0001
0000
0010
0000
0000
0100
0000
1000
0000
0010
0000
,
0100
0000
0001
0000
0000
0010
0000
0001
0000
0000
0100
0000
0010
0000
1000
0000
,
0100
0000
1000
0000
0000
0010
0000
1000
0000
0000
0100
0000
0010
0000
0001
0000
,
0010
0000
1000
0000
0000
0010
0000
0001
0000
0000
1000
0000
0100
0000
0001
0000
,
0100
0000
1000
0000
0000
0100
0000
0001
0000
0000
1000
0000
0010
0000
0001
0000
,
1000
0000
0100
0000
0000
0001
0000
0100
0000
0000
1000
0000
0001
0000
0010
0000
,
1000
0000
0010
0000
0000
0001
0000
0010
0000
0000
1000
0000
0001
0000
0100
0000
,
0010
0000
0001
0100
0000
0001
0000
1000
0000
0010
1000
0000
0001
0000
0100
0000
,
0010
0000
1000
0100
0000
1000
0000
0001
0000
0010
0001
0000
1000
0000
0001
0000
,
0100
0000
0001
0010
0000
0001
0000
1000
0000
0100
1000
0000
0001
0000
0010
0000
,
0100
0000
1000
0010
0000
1000
0000
0001
0000
0100
0001
0000
1000
0000
0100
0000
,
0010
0000
0001
0100
1000
0000
0010
0001
,
0100
0000
1000
0100
0010
0001
1000
0010
,
0100
0000
0001
0010
1000
0000
0100
0001
,
0010
0000
1000
0010
0100
0001
1000
0010
,
1000
0100
0001
0100
1000
0010
0100
0000
,
0001
0100
1000
0100
0001
0010
0100
0000
,
0010
0000
0000
0001
0000
0000
0100
0000
0010
0000
0000
1000
0000
0000
0010
0000
,
1000
0000
0001
0000
0010
0000
1000
0000
0001
0000
0100
0000
1000
0001
1000
0001
,
1000
0000
0010
0100
0001
1000
0001
0000
,
0010
0001
0010
0100
1000
0001
1000
0010
,
0100
0001
0100
0010
1000
0100
0010
0100
,
1000
0001
1000
0001
0010
0100
1000
0010
,
0100
0001
1000
0001
1000
0010
0100
0001
,
0010
0000
0001
0000
0100
0000
0010
0000
1000
0000
0001
0100
0000
0010
0000
0100
,
0000
0010
0000
0100
0000
0010
0000
0100
0000
0010
0000
0100
0000
0010
0000
0100
,
0001
0000
0000
0010
0000
0000
0100
0000
0000
1000
0100
0000
0010
0000
0001
0000
,
0200
0000
0000
0000
,
0310
1000
0010
0100
0001
0100
0010
1000
,
0100
0000
0010
0000
0001
0100
0000
0100
0001
0000
1000
0100
0000
0100
1000
0000
,
0010
0100
0010
1000
0001
0100
0010
1000
,
0100
0000
0010
0000
0001
0000
0000
0100
0000
0000
0010
0000
1000
0000
0001
0000
,
0100
0001
1000
0100
0010
0001
1000
0010
,
0100
0000
0001
0000
1000
0100
0000
0100
1000
0000
0001
0100
0000
0100
0001
0000
,
0010
0100
1000
0010
0100
0001
1000
0100
,
0010
0000
0001
0000
0010
0000
0000
0100
0000
0000
0010
0000
0001
0000
0100
0000
,
0001
1000
0010
1000
0100
1000
0010
0100
,
0001
0000
1000
0100
1000
0100
1000
0000
0001
0000
1000
0001
1000
0001
1000
0000
,
0010
0000
1000
0010
1000
0010
1000
0000
0100
0000
0010
0000
0001
0000
0100
0000
,
0001
0010
0001
0010
0001
0010
0001
1000
0001
1000
0001
1000
0001
0100
0001
0100
,
0001
0100
0010
0000
1000
0000
0001
0000
1000
0010
1000
0001
1000
0100
1000
0001
,
0200
0000
0000
0000
,
0300
0000
0000
0000
;

//---------------dance-single - D. D'Amato----------------
#NOTES:
     dance-single:
     D. D'Amato:
     Medium:
     6:
     0.430,0.408,0.046,0.166,0.166,304.000,5.000,18.000,0.000,0.000,0.000,0.430,0.408,0.046,0.166,0.166,304.000,5.000,18.000,0.000,0.000,0.000:
0000
0000
0000
0000
,
0000
0000
0000
0000
,
0000
0000
0000
0000
,
1000
0100
1000
1000
0001
0100
0002
0000
,
0013
0000
1000
0010
1000
0010
0100
0000
,
0010
0000
0001
0100
0001
0100
0010
0000
,
0100
0000
1000
0001
1000
0001
0010
0000
,
2002
0000
0000
0000
0000
0000
3003
0000
0000
0000
0101
0000
0000
1100
0000
0000
,
0001
0000
0100
0000
0000
0000
0000
0010
0000
0000
1000
0000
0100
0000
0000
0000
,
0010
0000
0100
0000
0000
0000
0000
1000
0000
0000
0100
0000
0010
0000
0000
0000
,
0001
0000
0010
0000
0000
0000
0000
0100
0000
0000
1000
0000
0010
0000
0000
0000
,
0100
0000
0010
0000
0000
0000
0000
0100
0000
0000
0010
0000
0100
0000
0001
0000
,
1000
0000
0100
0000
0000
0000
0000
0010
0000
0000
0001
0000
0100
0000
0000
0000
,
0010
0000
0100
0000
0000
0000
0000
0001
0000
0000
0100
0000
0010
0000
0000
0000
,
1000
0000
0010
0000
0000
0000
0000
0100
0000
0000
0001
0000
0010
0000
0000
0000
,
0100
0000
0010
0000
0000
0000
0000
0001
0000
0000
0010
0000
0100
0000
1000
0000
,
0001
0000
0010
0000
0000
0000
0000
0100
0000
0000
1000
0000
0010
0000
0000
0000
,
0100
0000
0010
0000
0000
0000
0000
1000
0000
0000
0010
0000
0100
0000
0000
0000
,
0001
0000
0100
0000
0000
0000
0000
0010
0000
0000
1000
0000
0100
0000
0000
0000
,
0010
0000
0100
0000
0000
0000
0000
1000
0000
0000
0100
0000
0010
0000
0001
0000
,
1000
0000
0010
0000
0000
0000
0000
0100
0000
0000
0001
0000
0010
0000
0000
0000
,
0100
0000
0010
0000
0000
0000
0000
0001
0000
0000
0010
0000
0100
0000
0000
0000
,
1000
0000
0100
0000
0000
0000
0000
0010
0000
0000
0001
0000
0100
0000
0000
0000
,
0010
0000
0100
0000
0000
0000
0000
0001
0000
0000
0100
0000
0010
0000
1000
0000
,
0001
0000
0000
0010
0000
0001
0000
0010
0000
0000
0100
0000
1000
0000
0010
0000
,
0100
0000
0000
0010
0000
1000
0000
0010
0000
0000
0100
0000
0001
0000
0010
0000
,
0100
0000
0000
0010
0000
0001
0000
0100
0000
0000
0001
0000
0010
0000
0100
0000
,
1000
0000
0000
0010
0000
1000
0000
0100
0000
0000
1000
0000
0010
0000
0100
0000
,
0001
0010
1000
0010
,
0001
0000
1000
0100
0010
0000
0001
0000
,
0100
0000
1000
0000
0100
0000
0001
0010
,
0100
1000
0010
0100
,
0001
0100
0001
0100
1000
0000
0001
0000
,
1000
0010
1000
0010
0001
0000
1000
0000
,
0010
0100
0010
1000
,
0001
0100
0001
0001
1000
0100
2000
0000
,
3010
0000
0100
0010
1000
0000
0001
0000
,
0010
0100
1000
0000
0010
0100
0010
1000
,
0001
0000
0010
0000
0100
0000
1000
0001
,
0100
0010
0100
0010
1000
0000
0001
0010
,
0100
0000
0010
0100
0010
0100
1000
0001
,
0100
0000
0010
1000
0001
0100
0001
0000
,
0010
0100
1000
0010
,
0100
0000
0000
1010
0000
0000
0011
0000
0000
0000
0001
0000
1000
0000
0010
0000
,
0200
0000
0000
0000
,
0302
0000
1003
0100
0010
0001
0200
0000
,
0310
0000
1000
0000
0001
0000
0000
0100
0000
0000
1000
0000
0000
0100
0000
0000
,
0001
0010
0100
1000
0002
0000
0203
0000
,
0310
0000
1000
0000
0001
0000
0000
0010
0000
0000
0100
0000
1000
0000
0001
0000
,
0100
0001
0010
0100
2000
0000
3020
0000
,
0130
0000
0001
0000
1000
0000
0000
0100
0000
0000
0001
0000
0000
0100
0000
0000
,
1000
0010
0200
0000
0000
0000
0300
0001
,
0010
0000
0100
0000
1000
0000
0000
0010
0000
0000
0100
0000
0000
0000
0001
0000
,
2000
0000
0000
0000
3010
0100
0010
1000
,
0020
0000
1000
0030
2000
0000
0100
3000
,
0200
0000
0010
0300
0010
0001
1000
0100
,
0010
0100
1000
0001
0020
0000
0100
0000
,
0001
0000
0100
0000
0031
0100
0010
1000
,
0200
0000
0000
0000
,
0300
0000
0000
0000
;

//---------------dance-single - D. D'Amato----------------
#NOTES:
     dance-single:
     D. D'Amato:
     Easy:
     4:
     0.245,0.272,0.037,0.322,0.000,147.000,4.000,35.000,0.000,0.000,0.000,0.245,0.272,0.037,0.322,0.000,147.000,4.000,35.000,0.000,0.000,0.000:
0000
0000
0000
0000
,
0000
0000
0000
0000
,
0000
0000
0000
0000
,
2000
0100
0001
3020
,
0130
0101
0010
1000
,
0100
1100
0010
0001
,
0100
0101
0010
1000
,
2002
0000
0000
3003
,
0010
0000
0000
1000
,
0100
0000
0000
0010
,
0001
0000
0000
0010
,
0100
0000
0000
1000
,
0001
0000
0000
1000
,
0010
0000
0000
0100
,
0001
0000
0000
0100
,
0010
0000
0000
1000
,
0002
0000
0000
0010
,
0023
0000
0230
0000
,
2300
0100
0000
0000
,
3020
0000
0130
0001
,
0200
0010
0000
0001
,
0302
0000
0023
0000
,
0230
0010
0000
1300
,
0020
0001
0000
0130
,
0002
0100
0000
0100
,
0010
0000
0000
0013
,
0200
0010
0000
1300
,
0020
1000
0000
0130
,
0001
0010
0000
1000
,
0000
0010
0000
0001
,
0000
0010
0000
1000
,
0000
0010
0000
0001
,
0000
0100
0000
1000
,
0000
0100
0000
0001
,
0000
0100
0010
1000
,
0002
0100
1000
0023
,
0130
0010
0100
0100
,
1000
0100
0010
0010
,
0001
0010
0100
1000
,
0010
0010
0010
0100
,
0001
0010
0010
0100
,
1000
0001
0000
0001
,
0010
0100
1000
0010
,
0100
0000
0020
1000
,
0230
0000
0000
0010
,
0002
0000
0003
0010
,
0001
0000
0000
0020
0000
0000
0000
0000
,
0000
0300
1000
0100
,
2000
0000
0000
0000
,
0000
0030
0001
0010
,
3002
0000
0000
1000
0000
0010
0000
2003
,
0100
0000
0000
0000
0000
0000
0000
3001
,
0020
0000
0000
0001
0000
0100
0000
0032
,
0100
0000
0000
0000
,
2003
0000
3200
0000
,
0320
0000
0000
0032
0000
0000
0000
0000
,
0000
0000
0023
0100
,
0001
0100
0032
1000
,
0203
0000
0000
0000
,
0300
0000
0000
0000
;

//---------------dance-double - M.Emirzian----------------
#NOTES:
     dance-double:
     M.Emirzian:
     Easy:
     3:
     0.203,0.217,0.129,0.074,0.000,132.000,14.000,8.000,0.000,0.000,0.000,0.203,0.217,0.129,0.074,0.000,132.000,14.000,8.000,0.000,0.000,0.000:
00000000
00000000
00000000
00000000
,
00000000
00000000
00000000
00000000
,
00000000
00000000
00000000
00000000
,
00000000
00000000
00000000
00000000
,
10000000
01000000
00010000
00000000
,
00001000
00000010
00000001
00000000
,
00000010
00001000
00000100
00000000
,
00002020
00000000
00000000
00003030
,
00000001
00000100
00001000
00000000
,
00010000
00100000
10000000
00000000
,
10000000
01000000
00010000
00000000
,
00001000
00100000
00001000
00000010
,
00000100
00000000
00000001
00000000
,
00000010
00001000
00000100
00000000
,
00000010
00010000
00001000
01000000
,
00100000
00000000
10010000
00000000
,
01000000
00000000
10010000
00000000
,
00100000
10000000
01000000
00000000
,
10010000
00000000
00100000
00000000
,
00010000
00100000
00001000
00000000
,
00011000
00000000
00000100
00000000
,
00010000
00001000
00000100
00000000
,
00001001
00000000
00000000
00000010
,
00000010
00000000
00000000
00000100
,
00000100
00001000
00000010
00000000
,
00000100
00001000
00010000
00000000
,
00100000
10000000
01000000
00100000
,
00110000
00000000
00000000
00000000
,
00022000
00000000
00000000
00000000
,
00000000
00000000
00000000
00000000
,
00033000
00000000
00000000
00000000
,
00000000
00000000
00000000
00000000
,
00000001
00000000
00000100
00000000
,
00010000
00000000
00100000
00000000
,
10000000
00000000
01000000
00000000
,
00002000
00000000
00013000
00001000
,
00000100
00000001
00000010
00000000
,
00000100
00001000
00010000
00000000
,
00001000
00010000
01000000
00000000
,
10000000
00010000
01000000
00000000
,
00100000
00000000
10000000
00000000
,
01000000
00100000
00010000
00000000
,
00100000
00000000
00001000
00000000
,
00020200
00000000
00000000
00030300
,
00001000
00000000
00001100
00000000
,
00000010
00000010
00000010
00000000
,
00000001
00000100
00000000
00000010
,
00001000
00000000
00000100
00000100
,
00000100
00000000
00011000
00000000
,
01000000
00000000
00010000
00010000
,
00010000
00000000
01100000
00000000
,
10000000
01000000
00100000
00001000
,
00010000
00000000
00001000
00000000
,
00000100
00000000
00000001
00000000
,
00000110
00000000
00001100
00000000
,
00000010
00001000
00000100
00010000
,
00001000
00000000
00000100
00000000
,
00001000
00000000
00010000
00100000
,
20000000
00000000
00000000
00000000
,
30000000
00000000
00000000
00000000
;

//---------------dance-double - M.Emirzian----------------
#NOTES:
     dance-double:
     M.Emirzian:
     Medium:
     5:
     0.312,0.299,0.111,0.120,0.000,212.000,12.000,13.000,0.000,0.000,0.000,0.312,0.299,0.111,0.120,0.000,212.000,12.000,13.000,0.000,0.000,0.000:
00000000
00000000
00000000
00000000
,
00000000
00000000
00000000
00000000
,
00000000
00000000
00000000
00000000
,
00000000
00000000
00000000
00000000
,
00010000
00000000
10000000
00000000
01000000
00100000
00010000
00000000
,
00100000
00001000
00020000
00030100
,
00001000
00000100
00000010
00000000
00000001
00001000
00000010
00000000
,
00000202
00000000
00000000
00000303
,
00000010
00000000
00001000
00000100
00000000
00000100
00010000
00000000
,
00001000
00000100
00001000
00001000
,
01000000
00000000
00001000
01000000
00000000
01000000
00010000
00000000
,
00100000
01000000
10000000
00000000
00100000
01000000
10000000
00000000
,
01000000
00000000
00001000
00010000
00000000
00010000
00000100
00000000
,
00010000
00001000
00000010
00000010
,
00000001
00000000
00000010
00000100
00000000
00000100
00001000
00000000
,
00000001
00000100
00000010
00000000
00001000
00000010
00010000
00000000
,
00001000
00000100
00001000
00010000
,
00200000
00000000
00000000
10000000
10300000
00000000
00000000
01000000
,
00100000
00010000
00100000
00001000
,
00010000
00000000
00000000
00000100
00010000
00000000
00001000
00000000
,
00000100
00000001
00000010
00000100
,
00002000
00000000
00000000
00000001
00003001
00000000
00000000
00000100
,
00000001
00000100
00001000
00010000
,
01000000
00000000
00010000
00000000
00001000
00000000
00010000
00001000
,
01000000
00100000
01000000
00010000
,
10000000
01000000
00000000
01000000
00100000
00000000
00001000
00000000
,
00010000
01000000
10000000
00100000
,
02000000
00000000
00000000
00000000
00020000
00000000
00000000
03030000
00000000
00000000
00000000
00000000
00010000
00000000
00000000
00000000
,
00022000
00000000
00000000
00000000
,
00000000
00000000
00000000
00000000
,
00033000
00000000
00000000
00000000
,
00000000
00000000
00000000
00000000
,
10000000
00000000
01000000
00000000
,
00010000
00000000
00001000
00000000
,
00010000
00000100
00001000
00000000
,
00000010
00000100
00000001
00001000
,
00000100
00000000
00000010
00000000
00000100
00001000
00000001
00000000
,
00000100
00000010
00010000
00000000
00001000
00000000
01000000
00000000
,
00001000
00010000
01000000
10000000
,
00100000
01000000
00010000
00000000
00100000
01000000
00010000
00000000
,
00100000
00000000
01000000
00000000
00100000
00001000
00010000
00000000
,
00100000
00001000
00010000
00000000
00001000
00000000
00000100
00000000
,
00000001
00000010
00001000
00000100
,
00001001
00000000
00000000
00000220
00000000
00000000
00000330
00000000
,
00001000
00000000
00000100
00010000
00000000
00010000
00001000
00000000
,
00010000
00000000
00100000
00000000
01000000
00010000
10000000
00000000
,
11000000
00000000
00000000
10010000
00000000
00000000
00100000
00000000
,
10000000
00000000
01000000
00000000
00100000
00001000
00010000
00000000
,
00000100
00000000
00010000
00001000
00000000
00001000
00000100
00000000
,
00000001
00000000
00001000
00000000
00000100
00000010
00000001
00000000
,
00001100
00000000
00000000
00001001
00000000
00000000
00000010
00000000
,
00001000
00000100
00000001
00000000
00001000
00000000
00000100
00000000
,
00010000
00000000
00001000
00000000
01000000
00000000
00001000
01000000
,
00010000
01000000
00100000
10000000
,
01000000
00000000
01010000
00000000
,
00010100
00000000
00000000
00000101
00000000
00000000
00000010
00000000
,
00001000
00000100
00010200
00000000
,
00010300
00000000
00001000
00000000
01000000
00000000
00100000
10000000
,
00020000
00000000
00000000
00000000
,
00030000
00000000
00000000
00000000
;

//---------------dance-double - M.Emirzian----------------
#NOTES:
     dance-double:
     M.Emirzian:
     Hard:
     9:
     0.601,0.516,0.240,0.083,0.359,422.000,26.000,9.000,0.000,0.000,0.000,0.601,0.516,0.240,0.083,0.359,422.000,26.000,9.000,0.000,0.000,0.000:
00000000
00000000
00000000
00000000
,
00000000
00000000
00000000
00000000
,
00000100
00001000
00010000
00000000
00100000
00010000
00001000
00000000
,
00010000
00100000
10000000
00100000
00010000
00100000
10000000
00100000
,
01000000
00000000
00010000
00000000
10000000
00000000
01000000
00100000
00000000
00100000
00010000
00000000
00100000
00000000
00001000
00000000
,
00010000
00000000
01000000
00000000
00010000
00000000
00001000
00010000
00000000
00010000
00000100
00000000
00001000
00000000
00000010
00000000
,
00001000
00000000
00000100
00000000
00000010
00000000
00000001
00000100
00000000
00000100
00000010
00000000
00001000
00000000
00000001
00000000
,
00000220
00000000
00000000
00000000
00000000
00000000
00000000
00000000
00000330
00000000
00001010
00000000
00000000
00010010
00000000
00000000
,
00010000
00000000
00001000
01000000
00000000
01000000
00010000
00000000
00000000
00010000
01000000
00000000
00100000
00000000
10000000
00000000
,
01000000
00000000
00100000
00010000
00000000
00010000
00100000
00000000
00000000
00100000
00001000
00000000
00010000
00000000
01000000
00000000
,
00010000
00000000
00001000
00000000
00000010
00000000
00000100
00000000
00001000
00000000
00000000
00001000
00000001
00000000
00000000
00000000
,
00000110
00000000
00000000
00010000
00001000
00000000
00000000
00000000
00010010
00000000
00000000
00001000
00000100
00000000
00000010
00000000
,
00000100
00000000
00001000
00000001
00000000
00000001
00000100
00000000
00000000
00000100
00000010
00000000
00001000
00000000
00000100
00000000
,
00010000
00000000
00001000
00010000
00000000
00010000
01000000
00000000
00000000
01000000
10000000
00000000
00100000
00000000
01000000
00000000
,
00001000
00000000
00010000
00000000
00100000
00000000
10000000
00000000
01000000
00000000
00000000
00100000
00010000
00000000
00000000
00000000
,
01001000
00000000
00000000
00010000
00001000
00000000
00000000
00000000
00010100
00000000
00000000
00001000
00000100
00000000
00000010
00000000
,
00000001
00000000
00000000
00000001
00000100
00000000
00000000
00000100
00001000
00000000
00000000
00001000
00000100
00000000
00000001
00000000
,
00000010
00001000
00010000
00100000
00010000
00001000
00010000
01000000
,
10000000
00000000
00000000
10000000
00100000
00000000
00000000
00100000
01000000
00000000
00000000
01000000
00001000
00000000
00010000
00000000
,
01000000
00000000
10000000
00000000
00100000
00000000
00000000
00100000
00010000
00000000
01000000
00000000
10000000
00000000
01000000
00000000
,
00010000
00000000
00000000
00010000
00100000
00000000
00000000
00100000
00001000
00000000
00000000
00001000
00010000
00000000
00000100
00000000
,
00000010
00000100
00001000
00000001
00000100
00001000
00000100
00000001
,
00000010
00000000
00000000
00000010
00001000
00000000
00000000
00001000
00010000
00000000
00000000
00010000
00100000
00000000
01000000
00000000
,
00010000
00000000
00000000
00000000
10010000
00000000
00000000
10000000
01000000
00000000
00100000
00000000
00010000
00000000
01000000
00000000
,
00001000
00000000
01000000
00010000
00000000
00000000
01000000
00001000
00000000
00000000
00010000
00001000
00010000
00000000
00001000
00000000
,
00000100
00000001
00001000
00000100
00000010
00000100
00000001
00000100
,
00001000
00000000
00000010
00000100
00000000
00000000
00000010
00010000
00000000
00000000
00001000
00010000
00001000
00000000
01000000
00000000
,
01001000
00000000
00000000
00000000
00110000
00000000
00000000
01100000
00000000
00000000
00000000
00000000
00100000
00000000
00000000
00000000
,
20010000
00000000
01000000
01000000
00000000
00100000
30100000
00000000
,
01000000
00010000
00000100
00000000
00001000
00000100
00000001
00000000
,
00001020
00000000
00010000
00010000
00000000
00000001
00000031
00000000
,
00001010
00000000
00000100
00001000
00010000
00000000
00100000
00010000
,
00012000
00000000
00000100
00000100
00000000
00010000
00013000
00000000
,
01000000
00100000
00010000
00000000
10000000
01000000
00010000
00000000
,
01020000
00000000
01000000
01000000
00000000
00001000
00031000
00000000
,
00010000
00000000
00001000
00000000
00000100
00000000
00000001
00001000
,
00000001
00000000
00000100
00000010
00000000
00000000
00000010
00001000
00000000
00000000
00001000
00000010
00001000
00000000
00000100
00000000
,
00010000
00001000
00000100
00000100
00001000
00001000
00010000
00010000
,
00100000
00000000
01000000
00010000
00000000
00000000
00010000
00100000
00000000
00000000
00100000
01000000
00100000
00000000
00010000
00000000
,
10000000
10000000
01000000
01000000
00010000
00010000
01001000
00000000
,
00010000
00000000
00001000
01000000
00000000
00000000
01000000
00010000
00000000
00000000
00010000
01000000
00010000
00000000
01000000
00000000
,
00001000
00010000
00000100
00000100
00000010
00000010
00000001
00000001
,
00000100
00000100
00000010
00000010
00010000
00001000
01000000
00001000
,
00010000
00000000
00000000
01001000
00000000
00000000
01010000
00000000
00000000
00000000
10000000
00000000
01000000
00000000
00100000
00000000
,
00010000
00000000
00100000
01000000
00000000
01000000
00100000
00000000
00100000
00001000
00000000
00001000
00010000
00000000
00001000
00000000
,
00000100
00000001
00000010
00001000
00000010
00000001
00001000
00000010
,
00000100
00000000
00000000
00000100
00000001
00000000
00000000
00000000
00001100
00000000
00000000
00010000
00001000
00000000
00000000
00000000
,
01001000
00000000
00000000
00010000
01000000
00000000
00100000
00000000
01000000
00000000
10000000
00000000
01000000
00000000
01000000
00000000
,
00010000
00000000
10000000
00100000
00000000
00100000
01000000
00000000
01000000
00001000
00000000
00001000
00010000
00000000
00100000
00000000
,
00010000
00001000
00000100
00000001
00000010
00000100
00001000
00000100
,
00000010
00000001
00000100
00000010
00010000
00100000
01000000
00010000
,
10000000
00000000
00000000
10000000
01000000
00000000
00100000
00000000
01000000
00000000
10000000
00000000
01000000
00000000
00100000
01000000
,
00100000
00010000
01000000
00001000
00000100
00000001
00001000
00000100
,
00000010
00000000
00000001
00000100
00000000
00000100
00000010
00000000
00000010
00001000
00000000
00001000
00000100
00000000
00010000
00000100
,
00010000
00000000
00000000
00000000
00010010
00000000
00000010
00001000
00000010
00000000
00000000
00000000
01001000
00000000
01000000
00010000
,
01000000
00000000
00000000
00000000
00100000
10000000
00100000
00000000
00000000
00000000
01000000
00000000
10010000
00000000
00000000
00000000
,
01000000
00100000
00001000
00010000
00021000
00000000
00000010
00000010
,
00000000
00000000
00100000
00000000
00130000
00000000
00000000
00000000
00000000
00010000
00001000
00000000
00000010
00000000
00000100
00000000
,
00000202
00000000
00000000
00000000
,
00000303
00000000
00000000
00000000
;

//---------------dance-double - M.Emirzian----------------
#NOTES:
     dance-double:
     M.Emirzian:
     Challenge:
     10:
     0.708,0.622,0.212,0.046,0.778,510.000,23.000,5.000,8.000,0.000,0.000,0.708,0.622,0.212,0.046,0.778,510.000,23.000,5.000,8.000,0.000,0.000:
00000000
00000000
00000000
00000000
,
00000000
00000000
00000000
00000000
,
00001000
00000001
00001000
00000000
00000100
00000000
00000010
00000001
00000000
00000001
00001000
00000000
00000010
00000000
00000100
00000000
,
00000010
00000000
00000100
00000000
00000010
00001000
00000000
00001000
00000100
00010000
00001000
00000000
00001000
01000000
00001000
01000000
,
00010000
00000000
01000000
00000000
00100000
00000000
10000000
01000000
00000000
01000000
00100000
00000000
01000000
00000000
00100000
00000000
,
00010000
00000000
00000000
00000000
00000000
00000000
01000000
00000000
00000000
00000000
00000000
00000000
00001000
00000000
00000000
00000000
00000000
00000000
00010000
00000000
00000000
00000100
00000000
00000000
00000000
00000000
00000000
00000100
00000000
00000000
00001000
00000000
00000000
00000000
00000000
00000000
00000100
00000000
00000010
00000000
00000100
00000000
00000010
00000000
00000000
00000000
00000000
00000000
,
00000001
00000000
00001000
00000000
00000010
00000000
00000100
00001000
00000000
00001000
00000100
00000000
00000001
00000000
00001000
00000000
,
00000220
00000000
00000000
00000000
00000000
00000000
00000330
00000000
00000MM0
00000000
00010100
00000000
00000000
00011000
00000000
00000000
,
00010000
00001000
01000000
00010000
00000000
00010000
01000000
00100000
00000000
00100000
10000000
00000000
01000000
00100000
01000000
00000000
,
10000000
00010000
00000000
01000000
00000000
00100000
00000000
00010000
00000000
00001000
00010000
00000000
00000100
00000000
00010000
00000000
,
00001000
00010000
00000010
00010000
00000000
00010000
00001000
00010000
00000000
00010000
00000100
00000000
00001000
00000100
00001000
00000000
,
00000001
00000100
00001000
00000010
00001000
00000100
00000001
00000010
,
00000100
00000010
00000100
00001000
00000000
00001000
00000100
00001000
00000000
00001000
00000001
00000000
00000100
00000010
00000100
00000000
,
00001000
00000100
00000000
00001000
00000000
00010000
00000000
01000000
00000000
00100000
01000000
00000000
10000000
00000000
00010000
00000000
,
01000000
00100000
10000000
00100000
00000000
00100000
01000000
00100000
00000000
00100000
10000000
00000000
01000000
00100000
01000000
00000000
,
00100000
00001000
00010000
00100000
00010000
00001000
00000010
00000001
,
00001000
00000100
00000000
00000000
00000100
00000010
00000000
00000000
00000010
00000001
00001000
00000000
00000010
00000000
00000100
00000000
,
00000010
00001000
00000100
00010000
00100000
01000000
00010000
0M000000
,
01000000
00100000
01000000
00000000
10010000
00000000
00000000
00000000
00100000
00010000
00100000
00000000
00101000
00000000
00000000
00000000
,
01010000
00000000
00000000
01000000
00100000
00000000
10000000
00000000
01000000
00000000
00010000
00000000
00001000
00000000
00000010
00000000
,
00000001
00000100
00000000
00000000
00000100
00000010
00000000
00000000
00000010
00001000
00000100
00000000
00001000
00000000
00000010
00000000
,
00000100
00001000
00010000
00000100
00000001
00000100
00001000
000000M0
,
00000010
00000100
00000010
00000000
00001010
00000000
00000000
00000000
00000100
00010000
00000100
00000000
00001100
00000000
00000000
00000000
,
01010000
00000000
00000000
01000000
00100000
00000000
01000000
00000000
00010000
00000000
10000000
00000000
00010000
00000000
00100000
00000000
,
01000000
10000000
00000000
00000000
10000000
01000000
00000000
00000000
01000000
00100000
00010000
00000000
10010000
00000000
00000000
00000000
,
10000000
01000000
00000000
00000000
01000000
00010000
00000000
00000000
00010000
00001000
00000000
00000000
00001000
00000010
00000000
00000000
,
00000010
00000001
00000000
00000000
00000001
00000100
00000000
00000000
00000100
00000010
00000000
00000000
00000010
00001000
00000001
00000000
,
00000110
00000000
00000000
00000000
00010010
00000000
00000000
01001000
00000000
00000000
00000000
00000000
00010000
00000000
00000000
00000000
,
00001000
00010000
00001000
01000000
00010000
01000000
00100000
01000000
,
00010000
10000000
10000000
01000000
00100000
01000000
10000000
01000000
,
00010000
01000000
00100000
00001000
00000010
00001000
00010000
00100000
,
00010000
00010000
00001000
00000100
00001000
00010000
00000010
00000100
,
00000010
00000001
00000010
00000100
00001000
00000100
00000010
00001000
,
0000M100
00000000
00000000
00010100
00000000
00000000
00000100
00000000
00010000
00000000
00000000
00010010
00000000
00000000
00010000
00000000
,
000M1000
00000000
00000000
01001000
00000000
00000000
00001000
00000000
0100M000
00000000
00000000
01100000
00000000
00000000
01000000
00000000
,
00100000
00000000
10000000
00000000
00010000
10000000
00000000
10000000
01000000
00100000
01000000
00000000
00100000
00010000
00100000
00010000
,
10000000
00000000
01000000
00100000
01000000
00000000
00100000
00010000
00100000
00000000
00001000
00010000
00001000
00000000
00010000
00000100
,
00010000
00000000
00000100
00001000
00000100
00000000
00000010
00000100
00000010
00000000
00000001
00000000
00000001
00000000
00000100
00000000
,
00000100
00000010
00000010
00010000
00010000
00001000
00001000
01000000
,
01000000
00000100
00000100
00010000
00010000
00100000
00100000
M0000000
,
10000000
00000000
00100000
01000000
00100000
00000000
01000000
00010000
01000000
00000000
00001000
01000000
00001000
00000000
00010000
00001000
,
00010000
00000000
00000010
00010000
00000010
00000000
00001000
00000010
00001000
00000000
00000100
00000010
00000000
00000001
00000000
00010000
,
00000000
00000001
00000000
00000100
00000000
00000010
00000000
00010000
00000000
00001000
00000000
01000000
00000000
00000100
00000000
00010000
,
00001000
00000000
00000000
00100010
00000000
00000000
00011000
00000000
00000000
00010000
00001000
00010000
00001000
00000000
00010000
00001000
,
01000000
00000000
00010000
01000000
00100000
01000000
00100000
10000000
00000000
10000000
01000000
00000000
00100000
00010000
01000000
00000000
,
00010000
01000000
00100000
00000000
00100000
01000000
00000000
01000000
00001000
00000000
00001000
00000000
00010000
00000000
00010000
00000000
,
00000100
00000010
00000100
00000000
00001000
00000001
00000000
00000001
00000010
00000000
00000010
00000001
00000000
00000001
00001000
00000010
,
00000100
00000000
00000100
00000010
00000000
00000010
00010000
00000000
00001000
01000000
00000000
01000000
00000100
00000000
00010000
00000010
,
00001000
00000000
00000000
00001000
00000100
00001000
00000100
00010000
00000000
00010000
00001000
00000000
00001000
00100000
00000000
00100000
,
00010000
00000000
00010000
01000000
00000000
01000000
10000000
00000000
10000000
01000000
00000000
01000000
00001000
00000000
00010000
00000000
,
01000000
00100000
01000000
00000000
00100000
00001000
00000000
00001000
00010000
00000000
00010000
00000100
00000000
00000100
00001000
00000100
,
00000010
00000000
00000010
00000001
00000000
00000001
00000100
00000000
00000100
00001000
00000000
00001000
00010000
00000000
00100000
00000000
,
10000000
00000000
00000000
01000000
00000000
01000000
00100000
00010000
00000000
00010000
01000000
00000000
01000000
00100000
00000000
00100000
,
00010000
00000000
00010000
00001000
00000000
00001000
00000010
00000000
00000010
00000001
00000000
00000001
00000100
00000000
00000010
00001000
,
00000100
00000000
00000000
00010010
00000000
00000000
00100000
00010000
01000000
00000000
00000000
00101000
00000000
00000000
01000000
00100000
,
01000000
00000000
00000000
00000000
00000100
00000010
00000100
00000000
00000001
00000000
00000100
00000000
00001000
00000000
00000100
00000000
,
00000010
00000000
00001000
00000100
00000000
00000100
00010000
00000000
00012000
00000000
00000000
00000000
00100000
00000000
00100000
00000000
,
00000000
00000000
00000100
00000000
00003100
00000000
00000000
00000000
00000000
00010000
00001000
00000000
01000000
00000000
10000000
00000000
,
22000000
00000000
00000000
33000000
;

//---------------dance-single - J. Frederick----------------
#NOTES:
     dance-single:
     J. Frederick:
     Beginner:
     1:
     0.079,0.080,0.083,0.000,0.000,51.000,9.000,0.000,0.000,0.000,0.000,0.079,0.080,0.083,0.000,0.000,51.000,9.000,0.000,0.000,0.000,0.000:
0000
0000
0000
0000
,
0000
0000
0000
0000
,
0000
0000
0000
0000
,
0000
0000
0000
0000
,
1000
0000
0000
0000
,
0001
0000
0000
0000
,
0100
0000
0000
0000
,
0110
0000
0000
0000
,
1000
0000
0000
0000
,
0001
0000
0000
0000
,
0010
0000
0000
0000
,
0100
0000
0000
0000
,
1000
0000
0000
0000
,
0001
0000
0000
0000
,
0100
0000
0000
0000
,
0010
0000
0000
0000
,
1001
0000
0000
0000
,
0100
0000
0000
0000
,
0010
0000
0000
0000
,
0001
0000
0000
0000
,
1000
0000
0000
0000
,
0100
0000
0000
0000
,
0010
0000
0000
0000
,
0001
0000
0000
0000
,
1000
0000
0000
0000
,
0001
0000
0000
0000
,
0010
0000
0000
0000
,
0100
0000
0000
0000
,
1001
0000
0000
0000
,
0000
0000
0000
0000
,
0110
0000
0000
0000
,
0000
0000
0000
0000
,
1001
0000
0000
0000
,
0000
0000
0000
0000
,
0110
0000
0000
0000
,
0000
0000
0000
0000
,
1000
0000
0000
0000
,
0001
0000
0000
0000
,
0100
0000
0000
0000
,
0010
0000
0000
0000
,
1000
0000
0000
0000
,
0001
0000
0000
0000
,
0010
0000
0000
0000
,
0100
0000
0000
0000
,
1001
0000
0000
0000
,
0100
0000
0000
0000
,
0010
0000
0000
0000
,
1000
0000
0000
0000
,
0001
0000
0000
0000
,
0100
0000
0000
0000
,
0010
0000
0000
0000
,
1000
0000
0000
0000
,
0001
0000
0000
0000
,
0100
0000
0000
0000
,
0010
0000
0000
0000
,
0001
0000
0000
0000
,
1000
0000
0000
0000
,
1001
0000
0000
0000
,
0110
0000
0000
0000
;
