#TITLE:It's Over Now;
#SUBTITLE:;
#ARTIST:Virgill;
#TITLETRANSLIT:;
#SUBTITLETRANSLIT:;
#ARTISTTRANSLIT:;
#GENRE:Techno;
#CREDIT:;
#BANNER:It's Over Now-bn.png;
#BACKGROUND:It's Over Now-bg.png;
#LYRICSPATH:;
#CDTITLE:;
#MUSIC:It's Over Now.ogg;
#OFFSET:-0.004;
#SAMPLESTART:72.960;
#SAMPLELENGTH:11.860;
#SELECTABLE:YES;
#BPMS:0.000=125.000;
#STOPS:;
#BGCHANGES:0.489=It's Over Now.mpg=1.000=1=0=0=StretchNoLoop==CrossFade==,
99999=-nosongbg-=1.000=0=0=0 // don't automatically add -songbackground-;
#KEYSOUNDS:;

//---------------dance-single - D. D'Amato----------------
#NOTES:
     dance-single:
     D. D'Amato:
     Hard:
     7:
     0.431,0.386,0.048,0.124,0.110,299.000,5.000,13.000,0.000,0.000,0.000,0.431,0.386,0.048,0.124,0.110,299.000,5.000,13.000,0.000,0.000,0.000:
0000
0000
0000
0000
,
0000
0000
0000
0000
,
1000
0000
0000
0010
0000
0000
1000
0000
0000
0000
0001
0000
0001
0000
0000
0000
,
1000
0000
0000
0010
0000
0000
1000
0000
0000
0000
0001
0000
0001
0000
0000
0000
,
0100
0000
0000
0001
0000
0000
0100
0000
0000
0000
0010
0000
0010
0000
0000
0000
,
0100
0000
0000
0001
0000
0000
0100
0000
0000
0000
0010
0000
0010
0000
0000
0000
,
1000
0000
0000
0100
0000
0000
1000
0000
0000
0000
0001
0000
0001
0000
0000
0000
,
1000
0000
0000
0100
0000
0000
1000
0000
0000
0000
0001
0000
0001
0000
0000
0000
,
0010
0000
0000
0001
0000
0000
0010
0000
0000
0000
0100
0000
0100
0000
0000
0000
,
1000
0001
0100
0001
1000
1000
0001
0001
,
1001
0000
0000
0010
0000
0000
0001
0000
0000
0000
1000
0000
1000
0000
0000
0000
,
0001
0000
0000
0010
0000
0000
0001
0000
0000
0000
1000
0000
1000
0000
0000
0000
,
0100
0000
0000
1000
0000
0000
0100
0000
0000
0000
0010
0000
0010
0000
0000
0000
,
0100
0000
0000
1000
0000
0000
0100
0000
0000
0000
0010
0000
0010
0000
0000
0000
,
0001
0000
0000
0100
0000
0000
0001
0000
0000
0000
1000
0000
1000
0000
0000
0000
,
0001
0000
0000
0100
0000
0000
0001
0000
0000
0000
1000
0000
1000
0000
0000
0000
,
0010
0000
0000
1000
0000
0000
0010
0000
0000
0000
0100
0000
0100
0000
0000
0000
,
0001
1000
0100
1000
0001
0001
1000
0001
,
1000
0100
0010
0100
0000
0010
0001
0000
,
1000
0010
0100
0010
0000
0100
0001
0000
,
0010
0100
1000
0100
0000
1000
0001
0000
,
0100
0010
1000
0010
0000
1000
0001
0010
,
0001
0100
0010
0100
0000
0010
1000
0000
,
0001
0010
0100
0010
0000
0100
1000
0000
,
0010
0100
0001
0100
0000
0001
1000
0000
,
0100
0010
0001
0010
0100
0010
0001
0010
,
0110
0000
0100
1000
0001
0100
0010
1000
,
0000
0100
0000
1000
0000
0001
0001
0000
,
2000
0000
0000
0000
0000
0000
3020
0000
0000
0000
0230
0000
0000
0302
0000
0000
,
2003
0000
0100
0000
0001
0001
3001
0100
,
0010
0000
0000
0020
0000
0000
1000
0000
0000
1030
0000
0000
0200
0000
0000
0000
,
0010
0000
0000
0320
0000
0000
0001
0000
0000
0031
0000
0000
0200
0000
0000
0000
,
0320
1000
0100
1030
,
0010
1000
0100
1000
0001
0001
1000
1000
,
1001
0000
0001
0100
0010
1000
0000
0100
,
0000
1000
0001
0010
0002
0000
2003
0000
,
3200
0000
0010
0000
1000
0000
0310
0001
,
1000
0001
0100
0001
1000
1000
0001
1000
,
1001
0000
0100
0000
0010
1000
0001
1000
,
0010
0000
0100
0000
0001
0000
0010
0100
,
0010
0000
0001
0000
0100
0001
1000
0001
,
0100
0000
0001
0000
0010
0000
0001
1000
,
0001
0000
0000
0000
1000
0000
0000
0000
0010
0000
0000
0100
0000
0000
0010
0000
,
0100
0000
0010
1000
0010
1000
0100
0010
,
0000
0000
0100
0000
0000
0000
1000
0000
0001
0000
0000
1000
0000
0000
0001
0000
,
0100
0010
1000
0010
0100
0010
1000
0100
,
0110
0000
0100
0000
0010
0001
1000
0001
,
0010
0000
0100
0000
1000
0000
0010
0100
,
0010
0000
1000
0000
0100
1000
0001
1000
,
0100
0000
1000
0000
0010
0000
1000
0001
,
1000
0000
0000
0000
0001
0000
0000
0000
0010
0000
0000
0100
0000
0000
0010
0000
,
0100
0000
0010
0001
0010
0001
0100
0010
,
0000
0000
0100
0000
0000
0000
0001
0000
1000
0000
0000
0001
0000
0000
1000
0000
,
0100
0010
0001
0010
0100
0010
0001
0100
,
1000
0000
0000
0000
;

//---------------dance-single - D. D'Amato----------------
#NOTES:
     dance-single:
     D. D'Amato:
     Challenge:
     9:
     0.611,0.592,0.295,0.343,0.405,382.000,31.000,36.000,0.000,0.000,0.000,0.611,0.592,0.295,0.343,0.405,382.000,31.000,36.000,0.000,0.000,0.000: // measure 1
0000
0000
0000
0000
,  // measure 2
0000
0000
0000
0000
,  // measure 3
1000
0000
0000
0100
0000
0000
0010
0000
0000
0001
0000
0000
0100
0000
0001
0000
,  // measure 4
1000
0000
0000
0100
0000
0000
0010
0000
0000
0001
0000
0000
0100
0000
0001
0000
,  // measure 5
1000
0000
0000
0010
0000
0000
0100
0000
0000
0001
0000
0000
0010
0000
0001
0000
,  // measure 6
1000
0000
0000
0010
0000
0000
0100
0000
0000
0001
0000
0000
0010
0000
0001
0000
,  // measure 7
1000
0000
0000
0001
0000
0000
0010
0000
0000
0100
0000
0000
1000
0000
0010
0000
,  // measure 8
0100
0000
0000
0001
0000
0000
0010
0000
0000
0100
0000
0000
1000
0000
0010
0000
,  // measure 9
0100
0000
0000
0001
0000
0000
1000
0000
0000
0010
0000
0000
1000
0000
0001
0000
,  // measure 10
1000
0000
0001
0000
0001
0000
0001
0000
0001
1000
0100
0000
1000
0001
0100
0000
,  // measure 11
1010
0000
0010
1000
0000
0000
0100
0000
0010
0001
0000
0000
1000
0000
0001
0000
,  // measure 12
0100
0000
0010
1000
0000
0000
0100
0000
0010
0001
0000
0000
0100
0000
0001
0000
,  // measure 13
1000
0000
0001
0100
0000
0000
0010
0000
1000
0100
0000
0000
0010
0000
0001
0000
,  // measure 14
1000
0000
0001
0100
0000
0000
0010
0000
1000
0100
0000
0000
1000
0000
0001
0000
,  // measure 15
0010
0000
0100
1000
0000
0000
0010
0000
0100
0001
0000
0000
1000
0000
0001
0000
,  // measure 16
0010
0000
0100
1000
0000
0000
0010
0000
0100
0001
0000
0000
0010
0000
0001
0000
,  // measure 17
0100
0000
0001
1000
0000
0000
0100
0000
1000
0001
0000
0000
0100
0000
0010
0000
,  // measure 18
0100
0000
0001
0000
0001
0000
0001
0000
0001
1000
0100
0000
1000
0000
0001
0010
,  // measure 19
0100
0000
0010
0001
0000
0000
0100
0000
0010
1000
0000
0000
0100
0010
0001
0000
,  // measure 20
0100
0000
0010
1000
0000
0000
0100
0000
0010
0001
0000
0000
0100
0010
1000
0000
,  // measure 21
0001
0000
1000
0100
0000
0000
0010
0000
0001
0100
0000
0000
0010
1000
0001
0000
,  // measure 22
1000
0000
0001
0100
0000
0000
0010
0000
1000
0100
0000
0000
0010
0001
1000
0000
,  // measure 23
0001
1000
0100
0010
0000
0000
0001
0000
0100
0010
0000
0000
0100
0001
0010
0000
,  // measure 24
0001
0000
0100
0010
0000
0000
1000
0000
0100
0010
0000
0000
0100
1000
0010
0000
,  // measure 25
0100
0000
0001
1000
0000
0000
0100
0000
1000
0001
0000
0000
1000
0100
0010
0000
,  // measure 26
0011
0001
0100
0010
1010
1000
0100
0010
,  // measure 27
0110
0000
0100
1000
0010
0100
0001
0010
,  // measure 28
0001
0000
0010
1000
0010
0000
0001
0010
,  // measure 29
0002
0000
0000
0000
0000
0000
0023
0000
0000
0000
0230
0000
0000
2300
0000
0000
,  // measure 30
3002
0000
0010
0000
1000
1000
1003
0100
,  // measure 31
2010
0000
0000
3001
0000
0000
0102
0000
0000
0010
0000
0000
1003
0000
0000
0000
,  // measure 32
0012
0000
0000
1003
0000
0000
2100
0000
0000
0010
0000
0000
3002
0000
0000
0000
,  // measure 33
2003
0010
0001
0010
,  // measure 34
3001
0000
0010
0000
0010
0000
0010
0000
0010
0100
1000
0000
0010
0100
0001
0000
,  // measure 35
1010
0010
1000
0000
0010
0001
0010
0000
,  // measure 36
1000
0100
1000
0010
0200
0000
0302
0000
,  // measure 37
2003
0000
0001
0000
0100
0100
0000
3001
,  // measure 38
1000
0000
0010
0000
0010
0000
0010
0000
0010
0100
0001
0000
0100
0000
0010
1000
,  // measure 39
0100
0000
0010
0000
0001
0000
0102
0000
2003
0000
3000
1002
0000
0003
2010
0000
,  // measure 40
3001
0000
1000
0001
0000
0000
0100
0000
0010
0000
1000
0000
0100
0000
0010
0000
,  // measure 41
0000
0000
0010
0000
0100
0000
1200
0000
0320
0000
0030
0210
0000
0300
0021
0000
,  // measure 42
0130
0000
1000
0001
0000
0100
0000
0010
1000
0000
0001
0000
0010
0000
0100
0000
,  // measure 43
1000
0001
0000
0000
1000
0000
0100
0000
0010
0000
0000
0001
0000
0000
1000
0000
,  // measure 44
0010
0000
0010
0001
0010
0001
0010
1000
,  // measure 45
0000
0000
0100
0000
0010
0000
0012
0000
0203
0000
0300
0102
0000
0003
1010
0000
,  // measure 46
1100
0000
0100
0000
0010
0000
0001
0000
0101
0000
0100
0000
0010
0000
1000
0010
,  // measure 47
0100
0000
0001
0000
0010
0000
0012
0000
2003
0000
3000
1002
0000
0003
2100
0000
,  // measure 48
3001
0000
1000
0100
0000
0010
0000
0001
1000
0000
0001
0000
0100
0000
0010
0000
,  // measure 49
0000
0000
0010
0000
0100
0000
0201
0000
0320
0000
0030
0210
0000
0300
1020
0000
,  // measure 50
0130
0000
0001
1000
0000
0010
0000
0100
0000
0001
1000
0000
0100
0000
0010
0000
,  // measure 51
0001
1000
0000
0000
0001
0000
0100
0000
0010
0000
0000
1000
0000
0000
0001
0000
,  // measure 52
0010
0000
0010
1000
0010
1000
0010
0001
,  // measure 53
0000
0000
0100
0000
0010
0000
2010
0000
3200
0000
0300
2100
0000
3000
0011
0000
,  // measure 54
0101
0100
0010
1000
1100
0100
0010
0000
,  // measure 55
1000
0000
0000
0000
;

//---------------dance-single - J. Frederick----------------
#NOTES:
     dance-single:
     J. Frederick:
     Beginner:
     1:
     0.065,0.077,0.057,0.000,0.000,42.000,6.000,0.000,0.000,0.000,0.000,0.065,0.077,0.057,0.000,0.000,42.000,6.000,0.000,0.000,0.000,0.000:
0000
0000
0000
0000
,
0000
0000
0000
0000
,
1000
0000
0000
0000
,
0000
0000
0000
0000
,
0001
0000
0000
0000
,
0000
0000
0000
0000
,
0010
0000
0000
0000
,
0000
0000
0000
0000
,
0100
0000
0000
0000
,
1001
0000
0000
0000
,
0100
0000
0000
0000
,
0000
0000
0000
0000
,
0010
0000
0000
0000
,
0000
0000
0000
0000
,
1000
0000
0000
0000
,
0000
0000
0000
0000
,
0001
0000
0000
0000
,
1001
0000
0000
0000
,
0110
0000
0000
0000
,
1000
0000
0000
0000
,
0001
0000
0000
0000
,
0100
0000
0000
0000
,
0010
0000
0000
0000
,
1000
0000
0000
0000
,
0001
0000
0000
0000
,
0100
0000
0000
0000
,
0110
0000
0000
0000
,
1000
0000
0000
0000
,
0001
0000
0000
0000
,
0100
0000
0000
0000
,
1000
0000
0000
0000
,
0001
0000
0000
0000
,
0010
0000
0000
0000
,
0100
0000
0000
0000
,
1001
0000
0000
0000
,
0100
0000
0000
0000
,
0010
0000
0000
0000
,
0100
0000
0000
0000
,
1000
0000
0000
0000
,
0000
0000
0000
0000
,
0001
0000
0000
0000
,
0000
0000
0000
0000
,
0010
0000
0000
0000
,
0100
0000
0000
0000
,
0010
0000
0000
0000
,
0100
0000
0000
0000
,
1001
0000
0000
0000
,
0000
0000
0000
0000
,
0001
0000
0000
0000
,
0000
0000
0000
0000
,
0010
0000
0000
0000
,
0000
0000
0000
0000
,
0100
0000
0000
0000
,
1000
0000
0000
0000
,
0001
0000
0000
0000
;

//---------------dance-single - J. Frederick----------------
#NOTES:
     dance-single:
     J. Frederick:
     Easy:
     3:
     0.211,0.231,0.152,0.191,0.000,119.000,16.000,20.000,0.000,0.000,0.000,0.211,0.231,0.152,0.191,0.000,119.000,16.000,20.000,0.000,0.000,0.000:
0000
0000
0000
0000
,
0000
0000
0000
0000
,
1000
0001
0010
0000
,
0100
0000
1000
0000
,
0001
0100
0010
0000
,
1000
0000
0001
0000
,
0010
0001
0100
0000
,
0010
0000
1000
0000
,
0001
1000
0001
0000
,
2002
0000
0000
3003
,
0100
0010
0100
0000
,
1000
0000
0001
0000
,
1000
0100
1000
0000
,
0001
0000
0100
0000
,
0010
0100
0010
0000
,
1000
0000
0001
0000
,
0010
0001
0010
0000
,
0220
0000
0000
0330
,
1000
0000
0000
0000
,
0001
0000
0000
0000
,
0100
0000
0000
0000
,
0010
0000
0100
0000
,
0220
0330
0000
0000
,
1000
0000
0000
0000
,
0001
0000
0000
0000
,
0110
0000
1001
0000
,
0110
1000
0010
0000
,
0100
0000
0001
0000
,
0010
0000
0100
0000
,
1000
0010
0100
0000
,
0220
0000
0000
0330
,
2002
0000
0000
3003
,
0010
0000
0100
0000
,
2000
0001
0001
3001
,
1001
0000
0100
0000
,
0010
1000
0010
0000
,
0100
0000
0001
0000
,
0010
0010
0010
0010
,
0110
0000
1000
0001
,
0200
0000
0000
0300
,
0010
0000
1000
0001
,
2000
0000
0000
3000
,
0110
0000
0010
1000
,
0002
0010
0010
0013
,
0011
0000
0000
0000
,
1100
0000
0011
0000
,
0220
0330
1000
0001
,
0100
0000
0010
0000
,
1000
0000
0001
0010
,
0200
0300
1000
0010
,
0200
0300
0001
0010
,
0001
0001
1000
1000
,
0020
0030
0200
0300
,
1001
0100
0010
0000
,
0001
0000
0000
0000
;

//---------------dance-single - J. Frederick----------------
#NOTES:
     dance-single:
     J. Frederick:
     Medium:
     6:
     0.384,0.360,0.200,0.067,0.000,254.000,21.000,7.000,0.000,0.000,0.000,0.384,0.360,0.200,0.067,0.000,254.000,21.000,7.000,0.000,0.000,0.000:
0000
0000
0000
0000
,
0000
0000
0000
0000
,
1000
0001
0100
0000
0010
0000
1000
0000
,
0010
0100
0001
0000
0010
0000
0100
0000
,
1000
0100
0010
0000
0001
0000
0100
0000
,
0001
1000
0001
0000
0100
0000
0010
0000
,
1000
0010
1000
0000
0001
0000
0100
0000
,
0001
0010
0001
0000
0010
0000
0100
0000
,
1000
0100
1000
0000
0010
0000
0100
0000
,
2001
0000
0001
0000
0001
0000
0001
3000
,
1001
0000
0100
0000
0010
0100
0010
0000
,
1000
0000
0100
0000
0010
0001
0010
0000
,
0001
0000
0100
0000
0010
0100
0010
0000
,
1000
0000
0100
0000
0010
0001
0100
0000
,
0001
0000
1000
0000
0010
0100
0010
0000
,
1000
0000
0001
0000
0010
0001
0010
0000
,
0100
0000
1000
0000
0100
0010
0100
0000
,
2002
0000
0000
3003
,
0110
1000
0010
0100
,
0001
0010
0001
0100
,
0010
1000
0100
0010
,
0001
0000
0100
0000
0001
0000
1000
0001
,
1001
0100
0010
1000
,
0010
0100
0001
0010
,
0100
1000
0100
0010
,
0011
0100
1100
0110
,
0011
0000
0100
0001
1000
0000
0001
0000
,
0100
0000
0010
1000
0000
0000
0100
0000
,
0010
0000
0001
0100
0000
0010
0000
1000
,
0100
1000
0001
0010
,
0001
0000
0100
0001
0000
0001
1000
0000
,
0100
0000
0010
0100
0000
0100
1000
0000
,
0010
0100
0001
0010
,
0100
1000
0100
0100
0010
0001
0100
0001
,
1001
0000
0100
0010
1000
0000
0010
0000
,
0100
0000
0001
0010
0001
0000
0100
0000
,
1001
0000
0100
0000
0010
1000
0010
0000
,
0100
0001
0001
0001
0010
0100
1000
0100
,
0110
0000
1000
0001
0100
0000
0010
0000
,
1000
0000
0010
0100
0001
0000
0010
0000
,
0001
0000
1000
0100
0010
0000
0001
0000
,
0100
0000
0001
1000
0001
0000
0100
0010
,
0110
0000
1000
0100
0010
0000
0001
0100
,
0002
0000
1003
0000
0010
0000
0100
0010
,
0000
1000
0000
0100
0010
0000
0010
0001
,
2002
0000
3003
0000
0110
0000
1000
0010
,
1010
0000
0100
0001
0010
0000
0100
0000
,
1000
0000
0100
0010
0001
0000
0101
0000
,
1000
0000
0010
0100
0001
0000
0010
0000
,
0100
0000
1000
0100
1000
0000
0010
0100
,
0110
0000
1000
0001
0010
0000
0001
0000
,
0002
0000
1003
0010
0100
0000
0010
0000
,
1000
0000
0100
0010
0001
0000
0100
0000
,
0110
0000
1000
0100
0110
0000
0010
0000
,
1001
0000
0000
0000
;

//---------------dance-double - C & M.Emirzian----------------
#NOTES:
     dance-double:
     C & M.Emirzian:
     Hard:
     7:
     0.478,0.411,0.295,0.200,0.200,299.000,31.000,21.000,0.000,0.000,0.000,0.478,0.411,0.295,0.200,0.200,299.000,31.000,21.000,0.000,0.000,0.000:
00000000
00000000
00000000
00000000
,
00000000
00000000
00000000
00000000
,
10000000
00000000
00000000
01000000
00000000
00000000
10000000
00000000
00000000
00010000
00000000
00000000
10000000
00000000
00100000
00000000
,
10000000
00000000
00000000
00010000
00000000
00000000
00100000
00000000
00000000
00001000
00000000
00000000
00010000
00000000
00000000
00000000
,
00200000
00000000
00000000
00010000
00000000
00000000
00320000
00000000
00000000
00001000
00000000
00000000
00031000
00000000
00010000
00000000
,
00000200
00000000
00000000
00000010
00000000
00000000
00000320
00000000
00000000
00000001
00000000
00000000
00000031
00000000
00000000
00000000
,
00001000
00000000
00000000
00000100
00000000
00000000
00001000
00000000
00000000
00000001
00000000
00000000
00001000
00000000
00000010
00000000
,
00000200
00000000
00000000
00001000
00000000
00000000
00002300
00000000
00000000
00010000
00000000
00000000
00013000
00000000
00001000
00000000
,
00020000
00000000
00000000
01000000
00000000
00000000
02030000
00000000
00000000
10000000
00000000
00000000
13000000
00000000
00010000
00000000
,
01000000
10000000
01000000
00010000
00100000
00000000
00101000
00000000
,
00010000
00100000
00000000
00000000
10010000
00000000
00000000
00000000
01000000
00010000
00000000
00000000
01001000
00000000
00000000
00000000
,
00010000
00001000
00000000
00000000
00010100
00000000
00000000
00000000
00001000
00000100
00000000
00000000
00010100
00000000
00000000
00000000
,
00000100
00001000
00000001
00001000
00000010
00001000
00000001
00001000
,
00000100
00000010
00001000
00010000
00001000
00000100
00000001
00000000
,
00000010
00000100
00000000
00000000
00001001
00000000
00000000
00000000
00000010
00010000
00000000
00000000
00001010
00000000
00000000
00000000
,
00000100
00010000
00000000
00000000
00011000
00000000
00000000
00000000
01000000
00010000
00000000
00000000
01100000
00000000
00000000
00000000
,
01000000
10000000
01000000
00010000
10000000
01000000
00100000
00001000
,
00010000
00000100
00000010
00000001
00000100
00000000
00001001
00000000
,
00000010
00000000
00001000
00000000
00000100
00000010
00000000
00000100
00000010
00000000
00000000
00000000
00000000
00000000
00000000
00000000
,
00010000
00000000
00000100
00000000
00010000
00001000
00000000
00010000
00001000
00000000
00000000
00000000
01001000
00000000
00000000
00000000
,
00002000
00000000
00020000
00003000
00200000
00030000
10000000
00300000
,
01000000
10000000
00010000
10000000
00100000
01000000
00001000
00000000
,
00010000
00000000
00001000
00000000
00010000
00000100
00000000
00010000
00000100
00000000
00000000
00000000
00000000
00000000
00000000
00000000
,
00001000
00000000
00000010
00000000
00001000
00000001
00000000
00001000
00000001
00000000
00000000
00000000
00001100
00000000
00000000
00000000
,
00000002
00000000
00000200
00000003
00002000
00000300
00010000
00003000
,
00010000
00001000
00010000
00100000
01000000
00100000
10000000
00000000
,
11000000
00000000
00100000
01000000
00001000
01000000
00100000
10000000
,
01000000
00110000
00001000
00010100
,
00010000
00001000
00000010
00001100
,
00000010
00001000
00000001
00001000
00000100
00001000
00000001
00000000
,
00000200
00000000
00000000
00000010
00000000
00000000
00000310
00000000
00000000
00010000
00000000
00000000
00001000
00000000
00000000
00000000
,
00000200
00000000
00000000
00001000
00000000
00000000
00001300
00000000
00000000
00010000
00000000
00000000
00001000
00000000
00000000
00000000
,
02002000
00000000
00000000
00000000
00000000
00000000
00000000
03003000
,
00000000
00100000
10000000
00010000
00100000
00000000
11000000
00000000
,
00100000
00010000
01000000
00001100
,
00000100
00001000
00000010
00110000
,
00100000
00010000
10000000
00010000
00100000
00001000
00010000
00000100
,
00000000
00001000
00000010
00001000
00000001
00000000
00000110
00000000
,
00002001
00000000
00000000
00000000
00000000
00000000
00000010
00000000
00003010
00000000
00000000
00001000
00000000
00000000
00000100
00000000
,
00000000
00000000
00010100
00000000
00001000
00010000
00000010
00000000
,
00021000
00000000
00000000
00000000
00000000
00000000
00100000
00000000
00130000
00000000
00000000
10000000
00000000
00000000
00010000
00000000
,
00000000
00000000
00000000
00000000
11000000
00000000
00000000
00000000
10000000
00000000
01000000
00000000
00100000
00010000
00000000
00000000
,
00102000
00000000
00000000
00000000
00000000
00000000
00010000
00000000
00013000
00000000
00000000
00001000
00000000
00000000
00010000
00000000
,
00000100
00000000
00010000
00000010
00001000
00000001
00001000
00000100
,
00000000
00000000
00001001
00000000
00000000
00000000
00000010
00000000
00000100
00000000
00000000
00000010
00000000
00000000
00010000
00000000
,
00001000
01000000
00100000
10100000
,
10000000
01000000
00100000
00010000
01000000
00100000
01000000
00010000
,
00100000
00001000
00010000
00000100
00001000
00000000
00001010
00000000
,
00000001
00000000
00001000
00000000
00000001
00000000
00000010
00000000
00000001
00000000
00000000
00001000
00000000
00000000
00000010
00000000
,
00010000
00001000
00000100
00001000
00010000
00100000
00010000
00000000
,
00001000
00000000
01000000
00000000
00010000
00000000
00100000
00000000
01000000
00000000
00000000
10000000
00000000
00000000
00010000
00000000
,
01000000
00000000
00001000
00010000
00001000
00100000
00001000
00010000
,
00000000
00000000
00001100
00000000
00000000
00000000
00000001
00000000
00001000
00000000
00000000
00000010
00000000
00000000
00000100
00000000
,
00000001
00000000
00001000
00000000
00000100
00000000
00010000
00001000
,
00010010
00000000
00000000
00000000
;

//---------------dance-double - M. Emirzian----------------
#NOTES:
     dance-double:
     M. Emirzian:
     Easy:
     3:
     0.193,0.180,0.162,0.000,0.000,125.000,17.000,0.000,0.000,0.000,0.000,0.193,0.180,0.162,0.000,0.000,125.000,17.000,0.000,0.000,0.000,0.000:
00000000
00000000
00000000
00000000
,
00000000
00000000
00000000
00000000
,
00000000
00000000
00000000
00000000
,
10000000
00000000
00000000
01000000
,
01000000
00000000
00000000
00010000
,
00010000
00000000
00000000
00001000
,
00001000
00000000
00000000
00000100
,
00000100
00000000
00000000
00000001
,
00000001
00000000
00000000
00000000
,
00001000
00000100
00000010
00000001
,
00001000
00000000
00000010
00000000
,
00001000
00000000
00000100
00010000
,
00001000
00000000
00010000
00000000
,
00100000
00000000
10000000
00000000
,
00001000
00000000
00010000
00000000
,
00000001
00000000
00001000
00000100
,
00000010
00000000
00000001
00000000
,
00001000
00000100
00010000
00001000
,
00100000
00000000
00010000
00000000
,
01000000
10000000
01000000
00000000
,
00010000
01000000
00001000
00000000
,
01000000
00001000
00010000
00000000
,
00010100
00000000
00011000
00000000
,
00000010
00000000
00000101
00000000
,
00001000
00000000
00010010
00000000
,
00010000
00001000
00000100
00001000
,
00010000
00000000
00100000
00000000
,
10000000
00000000
00010000
01000000
,
10000000
00000000
01000000
00000000
,
00010000
00100000
00001000
00000000
,
00010000
00000000
01000000
00000000
,
00010000
00000000
00001000
00000100
,
00000001
00000000
00001000
00000000
,
00000100
00001000
00000001
00000010
,
00000100
00000000
00001000
00000000
,
00000001
00000000
00000100
00001000
,
00010000
00000000
00001000
00000000
,
00010000
00001000
00100000
00010000
,
01000000
00000000
10100000
00000000
,
01000000
00000000
01001000
00000000
,
00010000
00000000
00010100
00000000
,
00000010
00000000
00000001
00000010
,
00001000
00000000
00010010
00000000
,
00001000
00000000
00011000
00000000
,
00000100
00000000
01001000
00000000
,
00010000
00000000
00100000
10000000
,
01000000
00000000
01001000
00000000
,
00000100
00000000
00000101
00000000
,
00010000
00000000
00011000
00000000
,
00000100
00000000
00010000
00000100
,
00010000
00000000
01001000
00000000
,
00100000
00000000
10010000
00000000
,
00001000
00000000
00010010
00000000
,
00000100
00000000
00000010
00000100
,
00001001
00000000
00000000
00000000
;

//---------------dance-double - M. Emirzian----------------
#NOTES:
     dance-double:
     M. Emirzian:
     Medium:
     5:
     0.343,0.360,0.191,0.019,0.033,230.000,20.000,2.000,1.000,0.000,0.000,0.343,0.360,0.191,0.019,0.033,230.000,20.000,2.000,1.000,0.000,0.000:
00000000
00000000
00000000
00000000
,
00000000
00000000
00000000
00000000
,
00000000
00000000
00000000
00000000
,
10010000
00000000
00000000
00110000
00000000
00000000
00100000
00000000
,
00001000
00000000
00000000
00011000
00000000
00000000
00000100
00000000
,
00010000
00001000
00000010
00000000
00001000
00000010
00000001
00000000
,
00001000
00000000
00000000
00010010
00000000
00000000
00000100
00000000
,
00001000
00000000
00000000
00010100
00000000
00000000
00001000
00000000
,
01000000
00000000
00000000
00110000
00000000
00000000
01000000
00000000
,
10000000
01000000
00010000
00000000
01000000
00010000
01000000
10000000
,
00100000
00000000
00000000
01010000
00000000
00000000
00100000
00000000
,
00001000
00000000
00000000
00011000
00000000
00000000
00010000
00000000
,
00001000
00000000
00000000
00000110
00000000
00000000
00000001
00000000
,
00001000
00001000
00001000
00000000
00000010
00000100
00000010
00001000
,
00000001
00000000
00000000
00001100
00000000
00000000
00000100
00000000
,
00001000
00000000
00000000
00011000
00000000
00000000
00010000
00000000
,
00100000
00000000
00000000
10100000
00000000
00000000
11000000
00000000
,
00100000
00100000
00100000
00000000
00010000
10000000
00010000
01000000
,
00100000
00000000
01000000
00010000
10000000
00000000
01000000
00000000
,
00010000
00000000
01000000
10000000
01000000
00000000
00010000
00000000
,
00001000
00000000
00010000
00000100
00001000
00000000
00000001
00000000
,
00000100
00000000
00001000
00010000
00001000
00000000
00000100
00000000
,
00001000
00000000
00010000
00100000
10000000
00000000
00100000
00000000
,
00010000
00000000
00100000
10000000
00010000
00000000
01000000
00000000
,
00001000
00000000
00010000
00000100
00001000
00000000
00000100
00000000
,
00000010
00000000
00000001
00000010
00000100
00001000
00000100
00000000
,
00001000
00000000
00000001
00000000
00000100
00000010
00001000
00000010
,
00000000
00000000
000M0000
00000000
00000000
00000000
00010000
00000000
00000000
00001000
00000000
00000000
00000000
00000000
00000000
00000000
,
00010000
00001000
00000100
00001000
,
00010000
00001000
01000000
00000000
00010000
01000000
00001000
00000000
,
01000000
00000000
00000000
00110000
00000000
00000000
01000000
00000000
,
01000000
00000000
00000000
00101000
00000000
00000000
00010000
00000000
,
00001000
00000100
00000001
00000010
,
00000100
00001000
00000100
00000010
00000100
00000000
00010100
00000000
,
00010000
00000000
00001000
00000000
00010000
01000000
10000000
00000000
,
00010000
00000000
01000000
00010000
01000000
00000000
00000000
00000000
,
20020000
00000000
00000000
00000000
00000000
30030000
00000000
11000000
,
00000000
00100000
00010000
00100000
00001000
00000000
00011000
00000000
,
00000100
00000000
00000000
00000000
00010000
00000000
00000000
00000000
00001000
00000000
00000000
00010000
00000000
00000000
00000100
00000000
,
00000000
00010000
00001000
00000010
,
00000001
00000000
00000000
00000000
00000100
00000000
00000000
00000000
00000010
00000000
00000000
00001000
00000000
00000000
00000010
00000000
,
00000000
00000001
00000100
00001000
,
00010000
00000000
00000000
00000000
00100000
00000000
00000000
00000000
10000000
00000000
00000000
00010000
00000000
00000000
01000000
00000000
,
00100000
01000000
00010000
10000000
,
01000000
00100000
01000000
00010000
01000000
00100000
01000000
00000000
,
00010000
01000000
00001000
00010000
00001000
00010000
00000010
00000000
,
00010000
00000000
00000000
00000000
00001000
00000000
00000000
00000000
00000100
00000000
00000000
00000010
00000000
00000000
00000100
00000000
,
00000000
00000001
00000010
00001000
,
00010000
00000000
00000000
00000000
00100000
00000000
00000000
00000000
10000000
00000000
00000000
00010000
00000000
00000000
01000000
00000000
,
00000000
00100000
10000000
01000000
,
00010000
00000000
00000000
00000000
00001000
00000000
00000000
00000000
00000100
00000000
00000000
00000001
00000000
00000000
00001000
00000000
,
00000100
00000010
00000100
00001000
,
00000001
00000100
00000001
00000100
00000010
00000100
00001000
00000000
,
00010000
00001000
00010000
00001000
01000000
00100000
01000000
00000000
,
10010000
00000000
00000000
00000000
;

//---------------dance-double - M.Emirzian----------------
#NOTES:
     dance-double:
     M.Emirzian:
     Challenge:
     9:
     0.619,0.514,0.381,0.181,0.410,396.000,40.000,19.000,0.000,0.000,0.000,0.619,0.514,0.381,0.181,0.410,396.000,40.000,19.000,0.000,0.000,0.000:
00000000
00000000
00000000
00000000
,
00000000
00000000
00000000
00000000
00000000
00000000
00000000
00000000
00000000
00000000
00000000
00000000
00000000
00000000
00000000
00000000
00000001
00000000
00000000
00001000
00000001
00000000
00000000
00000000
00001000
00000010
00000000
00001000
00000010
00000000
00000000
00000000
,
00000020
00000000
00000000
00001000
00000000
00000000
00020030
00000000
00000000
00001000
00000000
00000000
00130000
00000000
01000000
00000000
,
00010000
00000000
00000000
10010000
00000000
00000000
01100000
00000000
01000000
00000000
00100000
00000000
00001000
00000000
00010000
00000000
,
00002000
00000000
00000000
00000100
00000000
00000000
00010000
00000000
00000000
00000010
00003000
00000000
00000100
00000000
00001000
00000000
,
00001001
00000000
00000000
00000100
00000010
00000000
00001000
00000000
00010100
00000000
00000000
00001000
00010000
00000000
00000100
00000000
,
00020100
00000000
00000000
00100000
00000000
00000000
00032000
00000000
00000000
01000000
00000000
00000000
00013000
00000000
01000000
00000000
,
10000000
00000000
00000000
01010000
00000000
00000000
00011000
00000000
00001000
00000000
00010000
00000000
00000100
00000000
00000010
00000000
,
00002000
00000000
00000000
00010000
00000000
00000000
00003200
00000000
00000000
00000001
00000000
00000000
00001300
00000000
00000000
00001000
,
00010000
00000000
00000000
00000000
00001000
00000000
00000000
00000000
01000000
00000000
00000000
00000000
00001000
00000000
00000000
00000000
00010000
00000000
00000000
00001000
00100000
00000000
00000000
00000000
00100000
00010000
00000000
00100000
00010000
00000000
00000000
00000000
,
02000000
00000000
00000000
00001000
00000000
00000000
03200000
00000000
00000000
10000000
00000000
00000000
00310000
00000000
00100000
00000000
,
10000000
01000000
00000000
00000000
00100000
00000000
00001000
00000000
00010000
00001000
00000000
00000000
00000100
00000000
00000010
00000000
,
00020000
00000000
00000000
00000100
00000000
00000000
00032000
00000000
00000000
00000001
00000000
00000000
00003100
00000000
00001000
00000000
,
00001001
00000000
00000000
00000010
00001000
00000000
00000100
00000000
00010100
00000000
00000000
00000100
00010000
00000000
00001000
00000000
,
02000100
00000000
00000000
00010000
00000000
00000000
03200000
00000000
00000000
00010000
00000000
00000000
10300000
00000000
01000000
00000000
,
00100000
00000000
00010000
01000000
00000000
01000000
00001000
00000000
00001000
00000010
00000000
00000010
00000001
00000000
00001000
00000000
,
00000200
00000000
00000000
01000000
00000000
00000000
00020300
00000000
00000000
00100000
00000000
00000000
00031000
00000000
00000000
00001000
,
00010000
00000000
00000000
00000000
01000000
00000000
00000000
00000000
00010000
00000000
00000000
00000000
00001000
00000000
00000000
00000000
00010000
00000000
00000000
00001000
01000000
00000000
00000000
00000000
01000000
00010000
00000000
01000000
00010000
00000000
00000000
00000000
,
01000000
00000000
00100000
00000000
10000000
01000000
00000000
01000000
00010000
00000000
00001000
00000000
00000100
00000000
00001000
00000000
,
00010000
00000000
00000100
00000000
00000010
00000100
00000000
00000100
00010000
00000000
00100000
00000000
00010000
00000000
00001000
00000000
,
01000000
00000000
00001000
00000000
00010000
00000010
00000000
00000010
00000100
00000000
00000001
00000000
00000010
00000000
00000100
00000000
,
00010000
00000000
01000000
00000000
00010000
00001000
00000000
00001000
00100000
00000000
00010000
00000000
01000000
00000000
10000000
00000000
,
01000000
00000000
00001000
00000000
00010000
00000010
00000000
00000010
00100000
00000000
00001000
00000000
00000100
00000000
00000001
00000000
,
00000100
00000000
00000010
00000000
00010000
00000100
00000000
00000100
01000000
00000000
00001000
00000000
00010000
00000000
00100000
00000000
,
00010000
00000000
00001000
00000000
01000000
00001000
00000000
00001000
00010000
00000000
01000000
00000000
10000000
00000000
01000000
00000000
,
00100000
00000000
00010000
00000000
01000000
00001000
00000000
00001000
00010000
00000000
00000100
00000000
00001000
00000000
00000010
00000000
,
00000100
00000000
00000000
00000100
00000001
00000000
00000100
00000000
00001000
00000000
00000100
00000000
00000010
00001000
00000000
00000000
,
00011000
00000000
00000000
00001000
01000000
00000000
00010000
00000000
00100000
00000000
10000000
00000000
00100000
00010000
00000000
00000000
,
10001000
00000000
00000000
00000000
00000000
00000000
00011000
00000000
00000000
00000000
00010001
00000000
00000000
00000110
00000000
00000000
,
00001001
00000000
00000000
00000010
00000100
00000000
00010000
00000000
00001000
00000000
00000100
00000000
00000010
00001000
00000000
00000000
,
00000200
00000000
00000000
00000010
00000000
00000000
00020300
00000000
00000000
00100000
00000000
00000000
00031000
00000000
00000000
00000000
,
02000000
00000000
00000000
00100000
00000000
00000000
03002000
00000000
00000000
00010000
00000000
00000000
00003100
00000000
00000000
00000000
,
00011000
00000000
00000000
00001000
00010000
00000000
00100000
00000000
10000000
00000000
01000000
00000000
00010000
00000000
01000000
00000000
,
10000000
00000000
00000000
00000000
00010000
00000000
00000000
00000000
01000000
00000000
00000000
00000000
00000100
00000000
00000000
00000000
00001000
00000000
00000000
00000010
00001000
00000000
00000000
00000000
00000010
00010000
00000000
00000010
00010000
00000000
00000000
00000000
,
00010000
00000100
00001000
00000100
00010000
00001000
10000000
00001000
,
01000000
00000000
00100000
00000000
10000000
00000000
01000000
00000000
00100000
00000000
00001000
00000000
00010000
00001000
00000000
00000000
,
01000000
00000100
00010000
00001000
00100000
00000010
00010000
00001000
,
00000000
00000000
00000000
00000000
00010000
00000000
00000000
00000000
00010000
00000000
00000000
00000000
00011000
00000000
00000000
00000000
00001000
00000000
00000000
00010000
00000100
00000000
00000000
00000000
00001000
00000100
00000000
00001000
00000100
00000000
00000000
00000000
,
00000010
00000000
00000001
00000000
00000100
00000000
00000000
00000000
00001100
00000000
00000000
00010010
00000000
00000000
00001100
00000000
,
00000000
00000000
00000000
00000000
00000100
00000000
01000000
00000000
00000000
00011000
00000000
00000000
00010000
00000000
01000000
00000000
,
10000000
00000000
00100000
00000000
01000000
00000000
00100000
00000000
01100000
00000000
00000000
01001000
00000000
00000000
01100000
00000000
,
00000000
00000000
00100000
00000010
00010000
00001000
01000000
00001000
,
00000100
00000000
00000001
00000000
00001000
00000000
00000100
00000000
00000010
00000000
00000000
00001010
00000000
00000000
00011000
00000000
,
00000010
00000000
00000100
00001000
00010000
00100000
10000000
01000000
,
00000000
00000000
00011000
00000000
00000000
00000000
00000010
00000000
00000001
00000000
00000000
00001001
00000000
00000000
00000010
00000000
,
00010000
00000000
00000000
00000000
00001000
00000000
00000000
00000000
01000000
00000000
00000000
00000000
00001000
00000000
00000000
00000000
00100000
00000000
00000000
00010000
00100000
00000000
00000000
00000000
01000000
00000000
00000000
00000000
00100000
00000000
00000000
00000000
,
00001000
00000000
00010000
00000000
00000100
00000000
00010000
00000000
00011000
00000000
00000000
00100010
00000000
00000000
00011000
00000000
,
00000000
00001000
01000000
00001000
00010000
00000100
00001000
00000010
,
00000001
00000000
00000010
00000000
00010000
00000000
00001000
00000000
01001000
00000000
00000000
00110000
00000000
00000000
01001000
00000000
,
00000000
00000000
00000000
00000000
00100000
00000000
10000000
00000000
00100000
00000000
01000000
00000000
00001000
00010000
00000000
00000000
,
00000010
00000000
00010000
00000000
00000100
00000000
00001000
00000000
00000100
00000000
00000000
00001001
00000000
00000000
00010100
00000000
,
00001100
00000000
00000010
00000100
00001000
00010000
01000000
00100000
,
00000000
00000000
00011000
00000000
00000000
00000000
00100000
00000000
01000000
00000000
00000000
00001000
00000000
00000000
00010000
00000000
,
00000100
00000000
00000000
00000000
01000000
00000000
00000000
00000000
00001000
00000000
00000000
00000000
00010000
00000000
00000000
00000000
00000100
00000000
00000000
00000010
00000100
00000000
00000000
00000000
00001000
00000000
00000000
00000000
00000001
00000000
00000000
00000000
,
00000110
00000000
00000000
00000000
;
