#TITLE:Into My Dream;
#SUBTITLE:(Kaveh Azizi remix);
#ARTIST:Lagoona;
#TITLETRANSLIT:;
#SUBTITLETRANSLIT:;
#ARTISTTRANSLIT:;
#GENRE:Trance;
#CREDIT:;
#BANNER:Into my Dream-bn.png;
#BACKGROUND:Into my Dream-bg.png;
#LYRICSPATH:;
#CDTITLE:;
#MUSIC:Into my Dream.ogg;
#OFFSET:-0.013;
#SAMPLESTART:29.120;
#SAMPLELENGTH:11.860;
#SELECTABLE:YES;
#BPMS:0.000=140.000;
#STOPS:;
#BGCHANGES:0.083=Into my Dream.mpg=1.000=1=0=0=StretchNoLoop==CrossFade==,
99999=-nosongbg-=1.000=0=0=0 // don't automatically add -songbackground-;
#KEYSOUNDS:;

//---------------dance-double - M. Emirzian----------------
#NOTES:
     dance-double:
     M. Emirzian:
     Easy:
     4:
     0.244,0.224,0.078,0.035,0.000,185.000,9.000,4.000,0.000,0.000,0.000,0.244,0.224,0.078,0.035,0.000,185.000,9.000,4.000,0.000,0.000,0.000:
00000000
00000000
00000000
00000000
,
00000000
00000000
00000000
00000000
,
00000000
00000000
00000000
00000000
,
00000000
00000000
00000000
00000000
,
10000000
00010000
00000000
01000000
,
00010000
00100000
00000000
01000000
,
00010000
00100000
00000000
00001000
,
00010000
00000100
00000000
00000100
,
00000010
00000000
00000001
00000001
,
00000001
00000000
00000100
00000000
,
00000010
00000010
00000010
00000000
,
00001000
00000100
00000010
00000100
,
00001000
00000000
00010100
00000000
,
00001000
00010000
01000000
00000000
,
10000000
00100000
01000000
00000000
,
00010000
01000000
00100000
10000000
,
20020000
00000000
00000000
30030000
,
00100000
01000000
10000000
01000000
,
00010000
00000000
00001000
00010000
,
01000000
00010000
00001000
00000000
,
00000010
00000001
00000100
00000000
,
00000010
00000001
00000100
00000010
,
00000100
00000000
00001000
00001000
,
00001000
00000000
00010000
00010000
,
00010000
00000000
01000000
00100000
,
00010000
00100000
10000000
01000000
,
00100000
00000000
00010000
00010000
,
00010000
00000000
01000000
01000000
,
01000000
00000000
00001000
00010000
,
00001000
00000100
00000001
00000010
,
00000100
00000000
00001000
00000001
,
00000010
00000000
00000100
00001000
,
00000010
00000000
00000110
00000000
,
00002200
00000000
00000000
00003300
,
00001000
00000000
00010000
00000000
,
00001000
00010000
00100000
10000000
,
01000000
00000000
10000000
00100000
,
01000000
00000000
00010000
01000000
,
00100000
00000000
01000000
00100000
,
00010000
00001000
00000100
00000001
,
00000010
00000000
00000100
00000100
,
00000100
00000000
00000001
00000001
,
00000001
00000000
00001000
00000100
,
00010000
00000000
00001000
00010000
,
01000000
00010000
00001000
00000100
,
00001000
00000000
00010000
00010000
,
00010000
00000000
10000000
10000000
,
10000000
00000000
01000000
00100000
,
00010000
01000000
00100000
10000000
,
01000000
00000000
00100000
00010000
,
00110000
00000000
00010000
00001000
,
00011000
00000000
00000100
00001000
,
00001100
00000000
00000010
00000010
,
00000010
00000000
00000001
00000001
,
00000001
00000000
00000100
00000010
,
00001000
00000000
00000100
00001000
,
00010000
00000000
00010000
00001000
,
01000000
00010000
01000000
10000000
,
01000000
00000000
00100000
10000000
,
01000000
00000000
00100000
10000000
,
01000000
00000000
00110000
00000000
,
00100000
00000000
00100000
00000000
,
00001000
00000000
00001000
00000000
,
00010000
00000100
00001000
00000000
,
00000010
00001000
00000100
00000010
,
00000101
00000000
00000000
00000000
;

//---------------dance-double - M. Emirzian----------------
#NOTES:
     dance-double:
     M. Emirzian:
     Medium:
     6:
     0.402,0.365,0.138,0.069,0.000,302.000,16.000,8.000,0.000,0.000,0.000,0.402,0.365,0.138,0.069,0.000,302.000,16.000,8.000,0.000,0.000,0.000:
00000000
00000000
00000000
00000000
,
00000000
00000000
00000000
00000000
,
00000000
00000000
00000000
00000000
,
00000000
00000000
00000000
00000000
,
01000000
10000000
00000000
01000000
10000000
00000000
00010000
00000000
,
01000000
00010000
00000000
01000000
00010000
00000000
00100000
00000000
,
00001000
00100000
00000000
00001000
00010000
00000000
00000200
00000000
,
00000020
00000000
00000000
00000330
,
00000001
00000000
00001000
00000000
00000010
00001000
00000100
00000000
,
00000010
00000001
00000100
00000000
00000001
00000100
00000010
00000000
,
00001000
00000100
00000010
00000000
00001000
00010000
00000100
00000000
,
00010000
00001000
01000000
00000000
00100000
00010000
00001000
00000000
,
01000000
00010000
00100000
00000000
01000000
10000000
00100000
00000000
,
10000000
00010000
01000000
00000000
10000000
01000000
00100000
00000000
,
10000000
01000000
00100000
00000000
00010000
00100000
01000000
00000000
,
00100000
01000000
10000000
00000000
00100000
01000000
00010000
00000000
,
00220000
00000000
00000000
00330000
,
00100000
00000000
00000000
00101000
00000000
00010000
00001000
00010000
,
00001000
00000000
00000000
00010100
00000000
00001000
00000100
00001000
,
00000100
00000010
00000001
00000000
00000010
00000100
00001000
00000000
,
00000001
00000100
00001000
00000000
00000100
00000001
00000100
00000010
,
00001000
00000000
00000000
00001100
00000000
00010000
00000100
00010000
,
00001000
00000000
00000000
00011000
00000000
01000000
00010000
01000000
,
00100000
01000000
00001000
00000000
01000000
00010000
00100000
00000000
,
01000000
00100000
00010000
00000000
00100000
10000000
00100000
00010000
,
01000000
00000000
00000000
10010000
00000000
01000000
00100000
00010000
,
00100000
00000000
00000000
00011000
00000000
01000000
00001000
00010000
,
00000100
00001000
00000010
00000000
00000001
00000010
00000100
00000000
,
00001000
00000100
00000010
00000000
00001000
00000100
00000010
00000001
,
00000010
00000000
00000000
00001001
00000000
00000010
00001000
00000010
,
00000100
00000000
00000000
00001100
00000000
00010000
00001000
00010000
,
00000100
00010000
00001000
00000000
01000000
00100000
00010000
00000000
,
10000000
01000000
00100000
00000000
10000000
00000000
01000000
00000000
,
00200000
00000000
02300000
00000000
,
23000000
00000000
30200000
00000000
,
01300000
00010000
00000000
01000000
00000000
00010000
01000000
00000000
,
00001000
00010000
00000000
00001000
00000000
00010000
00001000
00000000
,
00000010
00000100
00000000
00000010
00000000
00000100
00001000
00000100
,
00001000
00000000
00000001
00000100
00000010
00001000
00000010
00000000
,
00001000
00000100
00010000
00000000
00001000
00000100
00000010
00000000
,
00001000
00000100
00010000
00000000
00001000
00000000
01000000
00000000
,
01010000
00100000
10000000
01000000
,
00110000
00001000
01000000
00010000
,
00100000
00001000
00000000
00100000
00000000
00001000
00010000
00000000
,
00000100
00010000
00000000
00000100
00000000
00010000
00001000
00000000
,
00010000
00000010
00000000
00001000
00000000
00000010
00000100
00000001
,
00000100
00000000
00001000
00000100
00000001
00000100
00000001
00000000
,
00000100
00000010
00001000
00000000
00000010
00010000
00001000
00000000
,
01000000
00010000
01000000
00000000
00100000
00000000
10000000
00000000
,
11000000
00100000
00001000
00010000
,
00001010
00000100
00000010
00000001
,
00001000
00000001
00000000
00001000
00000000
00000010
00000100
00000000
,
00000010
00001000
00000000
00000010
00000000
00001000
00000100
00000000
,
00010000
00001000
00000000
00010000
00000000
00001000
00000100
00001000
,
00010000
00000000
00001000
01000000
00010000
01000000
00100000
00000000
,
10000000
00010000
01000000
00000000
00100000
10000000
01000000
00000000
,
00100000
00010000
01000000
00000000
00001000
00000000
00010000
00000000
,
01001000
00001000
00010000
00000010
,
00000110
00000001
00001000
00000100
,
00001000
00000100
00000000
00000010
00000000
00000100
00001000
00000000
,
00000001
00000100
00000000
00001000
00000000
00000100
00000001
00000000
,
00000100
00000000
00000010
00000000
,
00001000
00000000
00000100
00000000
,
01000000
00000000
00100000
00000000
,
10000000
01000000
00100000
00010000
,
01100000
00000000
00000000
00000000
;

//---------------dance-double - M. Emirzian----------------
#NOTES:
     dance-double:
     M. Emirzian:
     Hard:
     8:
     0.519,0.477,0.207,0.242,0.207,369.000,24.000,28.000,0.000,6.000,0.000,0.519,0.477,0.207,0.242,0.207,369.000,24.000,28.000,0.000,6.000,0.000:
00000000
00000000
00000000
00000000
,
00000000
00000000
00000000
00000000
,
00000000
00000000
00000000
00000000
00000000
00000000
00000000
00000000
00000001
00000000
00000000
00000010
00000000
00000010
00000100
00000000
,
00001000
00000000
00000000
00000010
00000000
00000010
00000100
00000000
00000010
00000000
00000000
00010000
00000000
00010000
00001000
00000000
,
00100000
00000000
00010000
00000000
00000000
00000000
00200000
00000000
01000000
00000000
00000000
00010000
00000000
00000000
01300000
00000000
,
10000000
00000000
00000000
00010000
00000000
00010000
01000000
00000000
00100000
00000000
00000000
01000000
00000000
01000000
00010000
00000000
,
00100000
00000000
00000000
10000000
00000000
10000000
00100000
00000000
00010000
00000000
00000000
01000000
00000000
01000000
00002000
00000000
,
00020000
00000000
00000000
00033000
,
00001000
00010000
00000000
00010000
00000010
00000000
00001000
00000000
00000010
00000000
00000100
00000000
00000010
00000000
00001000
00000000
,
00000010
00000100
00000001
00000010
00000100
00000010
00000001
00000010
,
00001000
00000000
00000000
00010000
00000000
00010000
00001000
00000000
01000000
00000000
00000000
00100000
00000000
00100000
10000000
00000000
,
00100000
00000000
00000000
01000000
00000000
01000000
00010000
00000000
10000000
00000000
00010000
00000000
00100000
00000000
01000000
00000000
,
00100000
00010000
10000000
00100000
01000000
00001000
00010000
00000010
,
00000100
00000001
00000010
00000100
00000010
00000001
00001000
00000010
,
00000100
00000000
00000000
00000010
00000000
00000010
00000001
00000000
00000010
00000000
00001000
00000000
00010000
00000000
01000000
00000000
,
00100000
01000000
10000000
00010000
00100000
10000000
01000000
00100000
,
20020000
00000000
00000000
30030000
,
00010000
00000000
00000000
01000000
00000000
01000000
00100000
00000000
00000000
10000000
00000000
10000000
00100000
00000000
01000000
00000000
,
10000000
01000000
00010000
00100000
00001000
00010000
00000010
00000010
,
00000100
00000010
00000100
00000001
00000010
00000100
00001000
00000001
,
00000100
00000000
00000000
00001001
00000000
00000000
00000010
00000000
00000000
00001000
00000000
00001000
00010000
00000000
00010000
00000000
,
00001000
00000000
00000000
00000100
00000000
00000000
00001000
00000000
00000000
00010000
00000000
00000000
01000000
00000000
00100000
00000000
,
01000000
00000000
00000000
10010000
00000000
00000000
00100000
00000000
00000000
01000000
00000000
01000000
00100000
00000000
10000000
00000000
,
10000000
00100000
01000000
00100000
10000000
00100000
00010000
00100000
,
01000000
00100000
00010000
00001000
00010000
00000010
00001000
00000100
,
00000010
00000000
00000000
00001100
00000000
00000000
00010000
00000000
00000000
00000100
00000000
00000100
00001000
00000000
00000010
00000000
,
00010000
00001000
00000100
00000001
00000010
00000100
00001000
00001000
,
00000001
00000100
00000010
00010000
00001000
00100000
00010000
10000000
,
01000000
00100000
00000000
00100000
00000000
00000000
00010000
00000000
00000000
10000000
00000000
10000000
00100000
00000000
01000000
00000000
,
00001000
00010000
01000000
00010000
00001000
00010000
00000010
00001000
,
00000010
00000100
00000000
00000100
00000000
00000000
00000001
00000000
00000000
00001000
00000000
00001000
00000100
00000000
00000010
00000000
,
00000100
00000010
00000001
00000010
00000100
00001000
00010000
01000000
,
00100000
01000000
00001000
00010000
00000100
00010000
00001000
00000000
,
00201000
00000000
02300000
00000000
,
23000000
00000000
00000000
00000000
30100000
01000000
10000000
01000000
,
00010000
00100000
00000000
00001000
00010000
00000010
00000000
00000010
,
00001000
00000100
00000000
00000100
00000001
00000010
00000000
00000010
,
00000100
00010000
00000000
00000010
00000100
00001000
00000000
01000000
,
00100000
10000000
00000000
00100000
20020000
00000000
00000000
00000000
,
00100000
30030000
00000000
00000000
00000000
00000000
00000100
00000000
00002002
00000000
00000000
00000000
00000000
00000000
00000000
00000000
,
00000010
00003003
00000000
00000000
00000000
00000000
00000100
00000000
00000010
00000000
00000000
00000000
00000100
00000000
00000000
00000000
,
00001001
00001000
01000000
00100000
,
10010000
00000000
01000000
00000000
10000000
00100000
00010000
00001000
,
00010000
00000000
00000110
00000000
00000001
00000100
00001000
00010000
,
00001000
00000110
00000011
00001010
,
00011000
01100000
11000000
01010000
,
00011000
00000100
00000200
00002000
,
00000010
00003300
00000000
00000000
00000000
00000000
00000000
00000000
02000000
00000000
00000000
00000000
00020000
00000000
00000000
00000000
,
00100000
03030000
00000000
00000000
00000000
00000000
00000000
00000000
10000000
00000000
00000000
00000000
00100000
00000000
00000000
00000000
,
01000000
00010000
00100000
10000000
00100000
00000000
00011000
00000000
,
00000100
00000001
00000010
00001000
00000010
00000000
00000000
00000001
,
00001000
00000100
00000000
00010000
10000000
00100000
00000000
00010000
,
00001000
00000100
00000000
00000000
00020020
00000000
00000000
00000000
,
00031030
00000000
02002000
00000000
,
03013000
00000000
00000000
00000000
10000000
01000000
00100000
01000000
,
00010000
00001000
00100000
00001000
00010000
00001000
00000100
00001000
,
00010000
00000100
00000010
00000000
00000001
00000010
00001000
00000010
,
00000100
00000000
00011000
00000000
10000000
00100000
00010000
00100000
,
01000000
00000000
00000000
10000000
00010000
01000000
00000000
00001000
,
00000001
00000010
00000000
00001000
00010000
00100000
00000000
00010000
,
00001000
00000100
00000000
00010000
02010000
00000000
00000000
00000000
,
03002000
00000000
00003200
00000000
,
00000302
00000000
00000023
00000000
,
00002030
00000000
00023000
00000000
,
00230000
00000000
00000000
00000000
10300000
01000000
00100000
00010000
,
00110000
00000000
00000000
00000000
;

//---------------dance-double - M. Emirzian----------------
#NOTES:
     dance-double:
     M. Emirzian:
     Challenge:
     9:
     0.598,0.505,0.207,0.121,0.328,447.000,24.000,14.000,1.000,4.000,0.000,0.598,0.505,0.207,0.121,0.328,447.000,24.000,14.000,1.000,4.000,0.000:
00000000
00000000
00000000
00000000
,
00000000
00000000
00000000
00000000
,
00000000
00000000
00000000
00000000
00000000
00000000
00000000
00000000
00000100
00000000
00000000
00000100
00000000
00000010
00000100
00000000
,
00000001
00000000
00000000
00000001
00000000
00000010
00000100
00000000
00001000
00000000
00000000
00001000
00000000
00000010
00010000
00000000
,
00001000
00000000
00010000
00000000
00000000
00000000
00002000
00000000
00100000
00000000
00000000
00100000
00000000
00000000
00103000
00000000
,
00010000
00000000
00000000
00010000
00000000
01000000
00010000
00000000
10000000
00000000
00000000
10000000
00000000
00100000
01000000
00000000
,
00010000
00000000
00000000
00010000
00000000
00100000
01000000
00000000
00100000
00000000
00000000
00100000
00000000
00010000
01000000
00000000
,
00001000
00010000
00001000
00000100
00000010
00000100
00001000
00010000
,
00001000
00010000
00000000
00010000
00000100
00000000
00001000
00000000
00000010
00000000
00000100
00000000
00000010
00000000
00001000
00000000
,
00000001
00000010
00000100
00000010
00000001
00000100
00001000
00010000
,
01000000
10000000
01000000
00100000
00001000
00010000
01000000
10000000
,
01000000
00100000
01000000
10000000
00100000
01000000
00100000
00010000
,
00100000
10000000
01000000
00010000
00001000
00000100
00000001
00001000
,
00000010
00000100
00000001
00000010
00000100
00000010
00001000
00000010
,
00000001
00001000
00000010
00010000
00001000
00000100
00001000
00010000
,
01000000
00010000
00001000
00010000
00100000
10000000
01000000
00100000
,
20020000
00000000
00000000
00000000
00000000
00000000
30030000
00000000
00100000
01000000
00100000
00000000
10000000
00000000
01000000
00000000
,
00100000
00010000
10000000
00100000
01000000
00010000
00100000
00001000
,
00010000
00000010
00000000
00000010
00000000
00000000
00001001
00000000
00000000
00000100
00000000
00000100
00000010
00000000
00000001
00000000
,
00000100
00000010
00000100
00001000
00000100
00000010
00010000
00001000
,
00100000
00010000
00000000
01000000
00000000
00000000
00010000
00000000
00100000
00010000
00000000
00000000
01100000
00000000
00000000
00000000
,
10000000
01000000
00100000
00010000
10000000
00100000
00010000
00001000
,
00010000
00001000
00000000
00001000
00010000
00000000
00010000
00000010
00000000
00000100
00000000
00000010
00010000
00000000
00000010
00000000
,
00001000
00000100
00000001
00000100
00001000
00000001
00000010
00000100
,
00010000
00000100
00000000
00000100
00000000
00000000
00011000
00000000
00000000
00000010
00000000
00000010
00010000
00000000
00000001
00000000
,
00000010
00000100
00000010
00000001
00000100
00001000
00010000
01000000
,
10000000
01000000
00000000
01000000
00000000
00000000
10010000
00000000
00000000
00100000
00000000
00100000
00010000
00000000
00100000
00000000
,
01000000
10000000
00100000
00010000
00100000
10000000
01000000
00100000
,
00010000
01000000
00000000
00001000
00000000
00000000
00010000
00000000
00001000
00100000
00000000
00000000
00010010
00000000
00000000
00000000
,
00001000
00000100
00000001
00001000
00000010
00010000
00001000
00000010
,
00000100
00001000
00000000
00001000
00000010
00000000
00000010
00000100
00000000
00000010
00000000
00001000
00000001
00000000
00000010
00000000
,
00000100
00000010
00001000
00010000
00001000
00000100
00001000
00010000
,
10000000
01000000
00001000
02000000
00020000
00000000
00000000
00000000
,
03130000
00000000
00002200
00000000
,
00003310
00000000
00000000
00000000
00000110
00000000
00000000
00000100
,
00001000
00000000
00000000
00000000
00010010
00000000
00000000
00000000
00000100
00010000
00000000
00010000
00001000
00000000
00100000
00000000
,
00010000
00000000
00000000
00000000
01100000
00000000
00000000
00000000
10000000
00010000
00000000
00010000
01000000
00000000
00100000
00000000
,
10000000
00000000
00000000
00000000
00110000
00000000
00000000
00000000
00001000
00010000
00000000
00010000
00000010
00000000
00000100
00000000
,
00000001
00000000
00001001
00000000
00000010
00000100
00000010
00000001
,
00001000
00000000
00000010
00010000
00000000
00001000
00010000
00000000
00100000
00000000
01000000
00000000
00100000
00000000
10000000
00000000
,
00010000
00000000
00011000
00000000
00000001
00000010
00001000
00010000
,
00100000
00000000
01000000
00010000
00000000
10000000
00100000
00000000
10000000
00000000
01000000
00000000
00010000
00000000
00001000
00000000
,
00000100
00000000
00000001
00001000
00000000
00000100
00001000
00000000
00000010
00000000
00000100
00000000
00000010
00000000
00001000
00000000
,
00000100
00000000
00010000
00001000
00000000
01000000
00010000
00000000
01000000
00000000
00100000
00000000
01000000
00000000
00010000
00000000
,
00100000
00000000
01000000
00100000
00000000
00010000
10000000
00000000
00100000
00000000
00010000
00000000
00001000
00000000
00000100
00000000
,
00001000
00000000
00000100
00000010
00000000
00001000
00000001
00000000
00000010
00000000
00001000
00000000
00010000
00000000
00100000
00000000
,
00010000
00000000
00100000
00010000
00000000
00100000
10000000
00000000
00010000
00000000
00100000
00000000
01000000
00000000
10000000
00000000
,
00100000
01000000
00100000
10000000
01000000
00010000
00001000
00010000
,
00001000
00000100
00000001
00000010
00000100
00000000
00001001
00000000
,
00000010
00000100
00000010
00000000
00001000
00000000
00000100
00000000
00000001
00000000
00000000
00000000
00011000
00000000
00000000
00000000
,
01000000
00100000
01000000
00000000
00010000
00000000
00100000
00000000
10000000
00000000
00M00000
00000000
00000000
00000000
00100000
00000000
,
01000000
00000000
00000000
00000000
00110000
00000000
00000000
00000000
01000000
00001000
00000000
00001000
00010000
00000000
00000100
00000000
,
00000010
00000000
00000000
00000000
00001001
00000000
00000000
00000000
00000010
00000100
00000000
00000100
00001000
00000000
00010000
00000000
,
00001000
00000000
00000000
00000000
10010000
00000000
00000000
00000000
01000000
00100000
00000000
00100000
00010000
00000000
00001000
00000000
,
00010000
00000000
00000110
00000000
00000001
00000010
00000100
00010000
,
01000000
00000000
00011000
00000000
10000000
01000000
00100000
00001000
,
00000010
00000000
00011000
00000000
00100000
00010000
00001000
00000100
,
00000001
00001000
00000001
00000000
00000010
00000000
00000001
00000000
00000100
00000000
00001000
00000000
00010000
00000000
00100000
00000000
,
10000000
00010000
10000000
00000000
00100000
00000000
10000000
00000000
01000000
00000000
00000000
00000000
00000000
00000000
00010000
00000000
,
00001000
00000000
00000000
00000100
00000001
00000000
00000000
10000000
,
00010000
00100000
00220000
00000000
,
00331000
00000000
00002020
00000000
,
00013030
00000000
00000002
00000000
,
00000023
00000100
00000230
00001000
,
01000300
00000000
00001000
00010000
01000000
10000000
00100000
01000000
,
01010000
00000000
00000000
00000000
;

//---------------dance-single - M. Emirzian----------------
#NOTES:
     dance-single:
     M. Emirzian:
     Challenge:
     9:
     0.630,0.701,0.198,0.095,0.453,477.000,23.000,11.000,0.000,0.000,0.000,0.630,0.701,0.198,0.095,0.453,477.000,23.000,11.000,0.000,0.000,0.000: // measure 1
0000
0000
0000
0000
,  // measure 2
0000
0000
0000
0000
,  // measure 3
0000
0000
0000
0000
0000
0000
0000
0000
1000
0000
0000
0100
0000
0100
0010
0000
,  // measure 4
0001
0000
0000
0110
0000
0000
0010
0000
1000
0000
0000
0001
0000
0001
0100
0000
,  // measure 5
0010
0000
2000
0000
0000
0000
0100
0000
0100
0000
0000
0100
0000
0000
3100
0000
,  // measure 6
0010
0000
0000
1001
0000
0000
1000
0000
0010
0000
0000
0100
0000
0100
0001
0000
,  // measure 7
0010
0000
0000
0110
0000
0000
1000
0000
0001
0000
0000
0100
0000
0100
0010
0000
,  // measure 8
1000
0100
0010
0001
1000
0100
0010
0001
,  // measure 9
1000
0010
0000
0010
1000
0000
0001
0000
0100
0000
0010
0000
1000
0000
0001
0000
,  // measure 10
0100
0010
1000
0100
0010
0100
1000
0001
,  // measure 11
0100
0010
0100
0001
0010
0100
0010
0001
,  // measure 12
1000
0100
0010
0001
0100
0010
1000
0010
,  // measure 13
0100
0000
0000
0001
0000
0001
1000
0000
0100
0000
0010
0000
0100
0000
1000
0000
,  // measure 14
0001
0000
0000
0100
0000
0100
0010
0000
1000
0000
0010
0000
0100
0000
0001
0000
,  // measure 15
1000
0001
1000
0000
0100
0010
0100
0000
1000
0001
1000
0000
0001
0100
0001
0000
,  // measure 16
1000
0010
1000
0000
0001
0010
0001
0000
1000
0010
1000
0001
0100
0001
1000
0000
,  // measure 17
0220
0000
0000
0000
0000
0000
0330
0000
0100
0010
0100
0000
0001
0000
0001
0000
,  // measure 18
1000
0100
0010
0001
1000
0010
0010
0100
,  // measure 19
0001
1000
0000
1000
0000
0000
0011
0000
0000
1000
0000
1000
0010
0000
1000
0000
,  // measure 20
0001
0100
1000
0100
0001
0100
0010
0010
,  // measure 21
1000
0100
0000
0100
0000
0000
0010
0000
0000
0001
0000
1000
0100
0010
0001
0000
,  // measure 22
0010
0100
1000
0001
0100
0010
0010
1000
,  // measure 23
0100
0010
0000
0010
0000
0000
0001
0000
1000
0001
0000
1000
0001
0000
0010
0000
,  // measure 24
0100
1000
0010
0001
0010
0100
0100
0001
,  // measure 25
1000
0010
0000
0010
0000
0000
0011
0000
0000
0010
0000
0010
1000
0000
0100
0000
,  // measure 26
0010
0100
1000
0001
0100
0010
0010
1000
,  // measure 27
0100
0010
0000
0010
0000
0000
1001
0000
0000
0100
0000
0100
0010
0000
0001
0000
,  // measure 28
0100
0010
1000
0100
0010
0001
0001
0010
,  // measure 29
0100
1000
0000
1000
0000
0000
0010
0000
0000
0100
0000
0001
0100
0010
1000
0000
,  // measure 30
0100
0010
0001
0100
0100
0010
1000
1000
,  // measure 31
0100
0010
0000
0010
0000
0000
0001
0000
0100
0001
0000
0100
0001
0000
0100
0000
,  // measure 32
0010
1000
0001
1000
0100
0010
0001
1000
,  // measure 33
0100
0010
0001
2000
0200
0000
0000
0000
,  // measure 34
3300
0000
2002
0000
,  // measure 35
3003
0000
0000
0000
1000
0100
0010
0001
,  // measure 36
0100
0000
1001
0000
0001
0100
0010
1000
,  // measure 37
0100
0000
0000
0000
0011
0000
0000
0000
1000
0010
0000
0010
0100
0000
0001
0000
,  // measure 38
0010
0000
0000
0000
0011
0000
0000
0000
1000
0100
0000
0100
0010
0000
0001
0000
,  // measure 39
0100
0000
1001
0000
0010
1000
0100
0010
,  // measure 40
0001
0100
0000
0100
0001
0000
0010
0000
0100
0000
1000
0000
0010
0000
0100
0000
,  // measure 41
0001
0010
0000
0010
0001
0000
1000
0000
0010
0000
0100
0000
0010
0000
1000
0000
,  // measure 42
0100
0010
0000
0010
0100
0000
1000
0000
0010
0000
0100
0000
0001
0000
1000
0000
,  // measure 43
0010
0100
0000
0100
0010
0000
0000
0000
1000
0001
0000
0001
0100
0000
1000
0000
,  // measure 44
0100
0000
0000
0000
1001
0000
0000
0000
0001
1000
0000
1000
0100
0000
0001
0000
,  // measure 45
0100
0000
0000
0000
0110
0000
0000
0000
0100
0010
0000
0010
0100
0000
1000
0000
,  // measure 46
0010
0000
0000
0000
0110
0000
0000
0000
0010
0100
0000
0100
0010
0000
0001
0000
,  // measure 47
0100
0000
1001
0000
0100
0010
0001
1000
,  // measure 48
0010
1000
0000
1000
0010
0000
0001
0000
0010
0000
0100
0000
0001
0000
0010
0000
,  // measure 49
0100
1000
0000
1000
0100
0000
0010
0000
0001
0000
0000
0000
0101
0000
0000
0000
,  // measure 50
0100
0010
0100
0000
0001
0000
1000
0000
0100
0000
0000
0000
0101
0000
0000
0000
,  // measure 51
0010
0100
0010
0000
1000
0000
0001
0000
0100
0000
0000
0000
1010
0000
0000
0000
,  // measure 52
0100
0001
0000
0001
0100
0000
0010
0000
1000
0000
0100
0000
0010
0000
0100
0000
,  // measure 53
0010
0001
0000
0001
0010
0000
0100
0000
1000
0000
0010
0000
1000
0000
0100
0000
,  // measure 54
0010
0000
0000
0000
0110
0000
0000
0000
0010
0100
0000
0100
1000
0000
0010
0000
,  // measure 55
0100
0000
0000
0000
0110
0000
0000
0000
0100
0010
0000
0010
0001
0000
0100
0000
,  // measure 56
0010
0000
0000
0000
1001
0000
0000
0000
0100
0010
0000
0010
0001
0000
1000
0000
,  // measure 57
0010
1000
0100
0010
0001
0100
1000
0000
,  // measure 58
0100
0010
0100
0000
0001
0000
1000
0000
0100
0000
0010
0000
0001
0000
0100
0000
,  // measure 59
0010
0100
0010
0000
1000
0000
0100
0000
0001
0000
0000
0000
1100
0000
0000
0000
,  // measure 60
0001
0100
0000
0100
0001
0000
0010
0000
0100
0000
1000
0000
0100
0000
0010
0000
,  // measure 61
0001
0010
0000
0010
0001
0000
0100
0000
0010
0000
1000
0000
0100
0000
0010
0000
,  // measure 62
0002
0000
0203
0000
,  // measure 63
0320
0000
2030
0000
,  // measure 64
3100
0010
0100
0000
1000
0000
0001
0100
0000
0100
0010
0000
0100
0000
0001
0000
,  // measure 65
1000
0000
0100
0000
0001
0000
0100
0000
1000
0000
0100
0000
0010
0001
1000
0100
,  // measure 66
0010
0000
0000
0000
;

//---------------dance-single - J. Frederick----------------
#NOTES:
     dance-single:
     J. Frederick:
     Beginner:
     1:
     0.074,0.084,0.017,0.000,0.000,58.000,2.000,0.000,0.000,0.000,0.000,0.074,0.084,0.017,0.000,0.000,58.000,2.000,0.000,0.000,0.000,0.000:
0000
0000
0000
0000
,
0000
0000
0000
0000
,
0000
0000
0000
0000
,
0000
0000
0000
0000
,
1000
0000
0000
0000
,
0000
0000
0000
0000
,
0001
0000
0000
0000
,
0000
0000
0000
0000
,
0100
0000
0000
0000
,
0010
0000
0000
0000
,
1000
0000
0000
0000
,
0001
0000
0000
0000
,
0010
0000
0000
0000
,
0100
0000
0000
0000
,
1000
0000
0000
0000
,
0001
0000
0000
0000
,
1001
0000
0000
0000
,
0100
0000
0000
0000
,
0010
0000
0000
0000
,
1000
0000
0000
0000
,
0001
0000
0000
0000
,
0010
0000
0000
0000
,
0100
0000
0000
0000
,
1000
0000
0000
0000
,
0001
0000
0000
0000
,
0100
0000
0000
0000
,
0010
0000
0000
0000
,
1000
0000
0000
0000
,
0001
0000
0000
0000
,
0010
0000
0000
0000
,
0100
0000
0000
0000
,
1000
0000
0000
0000
,
0001
0000
0000
0000
,
1000
0000
0000
0000
,
0001
0000
0000
0000
,
0100
0000
0000
0000
,
0010
0000
0000
0000
,
1000
0000
0000
0000
,
0001
0000
0000
0000
,
0010
0000
0000
0000
,
0100
0000
0000
0000
,
1000
0000
0000
0000
,
0001
0000
0000
0000
,
1000
0000
0000
0000
,
0001
0000
0000
0000
,
0010
0000
0000
0000
,
0100
0000
0000
0000
,
1000
0000
0000
0000
,
0001
0000
0000
0000
,
0110
0000
0000
0000
,
1000
0000
0000
0000
,
0001
0000
0000
0000
,
0100
0000
0000
0000
,
0010
0000
0000
0000
,
1000
0000
0000
0000
,
0001
0000
0000
0000
,
0010
0000
0000
0000
,
0100
0000
0000
0000
,
1000
0000
0000
0000
,
0001
0000
0000
0000
,
0100
0000
0000
0000
,
0010
0000
0000
0000
,
0000
0000
0000
0000
,
1000
0000
0000
0000
,
0000
0000
0000
0000
,
0010
0000
0000
0000
;

//---------------dance-single - D. D'Amato----------------
#NOTES:
     dance-single:
     D. D'Amato:
     Hard:
     8:
     0.491,0.449,0.017,0.147,0.155,379.000,2.000,17.000,0.000,0.000,0.000:
0000
0000
0000
0000
,
0000
0000
0000
0000
,
0000
0000
0000
0000
,
0000
0000
0000
0000
,
0010
0000
0000
1000
0010
0000
0100
0000
0001
0000
0000
0000
1000
0000
0001
0000
,
0100
0000
0000
0001
0100
0000
0010
0000
0100
0000
0001
0000
1000
0000
0100
0000
,
0010
0000
0000
0001
0010
0000
0100
0000
1000
0000
0000
0000
0001
0000
1000
0000
,
0100
0000
0000
0010
0000
0000
0100
0000
1000
0000
0000
0001
0000
0000
0100
0000
,
0020
0000
0000
0000
0000
1030
0000
0001
,
0000
0010
0000
0100
0010
0001
0100
0001
,
0010
0100
0000
1000
0000
0001
0000
1000
,
0000
0010
0000
0100
0010
1000
0100
1000
,
0010
0100
0000
0001
0000
0010
0000
0100
,
0000
0010
0000
0001
0100
0010
1000
0001
,
0010
0100
0000
0010
0000
0001
0000
0100
,
0000
0010
0000
1000
0100
0010
0001
1000
,
1002
0000
0000
0000
1003
0100
1000
0001
,
0100
0010
0100
0010
1000
0010
1000
0010
,
0100
0010
0100
0010
2000
0000
0010
0000
,
3100
0010
0100
0010
0001
0010
0001
0010
,
0100
0010
0100
0010
0002
0000
0100
0000
,
1003
0010
1000
0010
0100
0010
0100
0010
,
1000
0010
1000
0010
0200
0000
0010
0000
,
0301
0010
0001
0010
0100
0010
0100
0010
,
0001
0010
0001
0010
0200
0000
1000
0000
,
0310
0100
0010
0100
1000
0100
1000
0100
,
0010
0100
0010
0100
2000
0000
0100
0000
,
3010
0100
0010
0100
0001
0100
0001
0100
,
0010
0100
0010
0100
0002
0000
0010
0000
,
1003
0100
1000
0100
0010
0100
0010
0100
,
1000
0100
1000
0100
0020
0000
0100
0000
,
0031
0100
0001
0100
0010
0100
0010
0100
,
0001
0100
0001
0100
0020
0000
1000
0000
,
0230
0000
0302
0000
,
2003
0000
0000
0000
0000
0000
0000
0000
3100
0000
0010
0000
0000
0001
0000
0000
,
0100
0000
0000
0100
0000
0000
0010
0000
0000
0010
0000
0000
0100
0000
0001
0000
,
0010
0000
0000
0010
0000
0000
0100
0000
0000
0100
0000
0000
1000
0000
0001
0000
,
0100
0000
0000
0100
0000
0000
0010
0000
0000
0010
0000
0000
1000
0000
0001
0000
,
0010
0000
0000
0010
0000
0000
0100
0000
0000
0100
0000
0000
0010
0000
0001
0000
,
1000
0000
0000
0010
0000
0000
0100
0000
0000
0010
0000
0000
1000
0000
0001
0000
,
0010
0000
0000
0100
0000
0000
0010
0000
0000
0001
0000
0000
1000
0000
0100
0000
,
0010
0000
0000
0100
0000
0000
1000
0000
0000
0001
0000
0000
0100
0000
0010
0000
,
1000
0000
0000
0001
0000
0000
0100
0000
0000
0010
0000
0000
0100
0000
0001
0000
,
1000
0000
0010
0000
0100
0000
0010
0000
0000
1000
0000
0000
0001
0000
0010
0000
,
0100
0000
0010
0000
0001
0000
1000
0000
0000
0010
0000
0000
0100
0000
0001
0000
,
1000
0000
0100
0000
0010
0000
0100
0000
0000
1000
0000
0000
0001
0000
0100
0000
,
0010
0000
0100
0000
0001
0000
1000
0000
0000
0100
0000
0000
0010
0000
0001
0000
,
1000
0000
0000
0010
0000
0000
0100
0000
0010
0000
1000
0000
0001
0000
0010
0000
,
0100
0000
0000
0010
0000
0000
0001
0000
1000
0000
0010
0000
0100
0000
0001
0000
,
1000
0000
0000
0100
0000
0000
0010
0000
0100
0000
1000
0000
0001
0000
0100
0000
,
0010
0000
0000
0100
0000
0000
0001
0000
1000
0000
0100
0000
0010
0000
0001
0000
,
1000
0000
0000
0010
0000
0000
0100
0000
0010
0000
1000
0000
0001
0000
0010
0000
,
0100
0000
0000
0010
0000
0000
0001
0000
1000
0000
0010
0000
0100
0000
0001
0000
,
0010
0000
0100
0000
1000
0000
0001
0000
0000
0100
0000
0000
0010
0000
1000
0000
,
0100
0000
0010
0000
0001
0000
1000
0000
0000
0010
0000
0000
1000
0000
0001
0000
,
0100
0000
0010
0000
1000
0000
0001
0000
0000
0010
0000
0000
0100
0000
1000
0000
,
0010
0000
0100
0000
0001
0000
1000
0000
0000
0100
0000
0000
0010
0000
0001
0000
,
1000
0010
1000
0010
1000
0100
1000
0100
,
0010
0001
0010
0001
0100
0010
1000
1000
,
0001
0010
0001
0010
0001
0100
0001
0100
,
0010
1000
0010
1000
0200
0000
0000
0000
,
0020
0000
0000
0000
,
0300
0000
0100
0000
,
0130
1000
0001
0100
0001
1000
0100
0000
,
0010
2002
0000
0000
,
3003
0000
0000
0000
;

//---------------dance-single - D. D'Amato----------------
#NOTES:
     dance-single:
     D. D'Amato:
     Medium:
     6:
     0.384,0.393,0.268,0.224,0.000,254.000,31.000,26.000,0.000,0.000,0.000:
0000
0000
0000
0000
,
0000
0000
0000
0000
,
0000
0000
0000
0000
,
0000
0000
0000
0000
,
0100
0000
0001
1000
0001
0000
0010
0001
,
0010
0000
0100
1000
0100
0000
1000
0001
,
1000
0000
0010
1000
0010
0000
0100
0001
,
0100
0001
1000
0001
,
0200
0000
0000
0000
,
0300
0000
0000
0000
0010
1000
0010
1000
,
0020
0000
0000
0000
,
0030
0000
0000
0000
1000
0001
1000
0001
,
2000
0000
0000
0000
,
3000
0000
0000
0000
0100
1000
0100
1000
,
0200
0000
0000
0000
,
0310
0001
0010
0001
1000
0100
1000
0100
,
0110
0000
0000
0000
0001
1000
0001
1000
,
0020
1000
0000
1000
0000
0100
0000
0100
,
0000
1000
0000
1030
0100
0010
0001
0000
,
0200
0001
0000
0001
0000
0010
0000
0010
,
0000
0001
0000
0301
0010
0100
1000
0001
,
0020
0001
0000
0001
0000
0100
0000
0100
,
0000
0001
0000
0031
0100
0010
1000
0000
,
0200
1000
0000
1000
0000
0010
0000
0010
,
0000
1000
0000
1300
0010
0100
0001
1000
,
0020
1000
0000
2030
0000
0100
0000
3200
,
0000
1000
0000
1300
0100
0010
0001
0000
,
0200
0001
0000
0302
0000
0010
0000
0023
,
0000
0001
0000
0031
0010
0100
1000
0001
,
0020
0001
0000
0032
0000
0100
0000
0203
,
0000
0001
0000
0301
0100
0010
1000
0000
,
0200
1000
0000
2300
0000
0010
0000
3020
,
0000
1000
0000
1030
0010
0100
0001
0000
,
2002
0000
0000
0000
,
0000
0000
0000
3003
,
0110
0001
1000
0100
,
0011
1000
0010
0100
,
1001
0010
1000
0001
,
1010
0100
0001
1000
,
0101
0010
1000
0001
,
0110
1000
0001
0010
,
1100
0001
0100
0010
,
1001
0100
0010
1000
,
0011
0100
0001
0010
,
1100
0001
0010
0100
,
1010
0001
0100
0010
,
1001
0100
0010
0001
,
0110
1000
0001
0010
,
0101
1000
0010
0100
,
1001
0000
0010
0000
1000
0001
0100
0000
,
0011
0000
1000
0000
0010
1000
0100
0000
,
1001
0000
0010
0000
1000
0010
0001
0000
,
1010
0000
0100
0000
0001
0100
1000
0000
,
0101
0000
0010
0000
1000
0100
0001
0000
,
0110
0000
1000
0000
0001
0100
0010
0000
,
1100
0000
0001
0000
0100
0001
0010
0000
,
1001
0000
0100
0000
0010
0100
1000
0000
,
0011
0000
0100
0000
0001
1000
0010
0000
,
1100
0000
0001
0000
0010
0001
0100
0000
,
1010
0000
0001
0000
0100
1000
0010
0000
,
1001
0000
0100
0000
0010
1000
0001
0000
,
0220
0000
0000
0000
,
0000
0000
0000
0330
,
2002
0000
0000
0000
,
0000
0000
0000
3003
,
0110
0000
0000
0000
;

//---------------dance-single - D. D'Amato----------------
#NOTES:
     dance-single:
     D. D'Amato:
     Easy:
     2:
     0.181,0.168,0.026,0.199,0.000,121.000,3.000,23.000,0.000,0.000,0.000:
0000
0000
0000
0000
,
0000
0000
0000
0000
,
0000
0000
0000
0000
,
0000
0000
0000
0000
,
0100
0000
0000
0000
,
0010
0000
0000
0000
,
1000
0000
0000
0000
,
0001
0000
0100
0000
,
2002
0000
0000
3003
,
0000
0000
0010
0000
,
0000
0000
0100
0000
,
0000
0000
0001
0000
,
0010
0000
0100
0000
,
0000
0000
0010
0000
,
0001
0000
1000
0000
,
0010
0000
0100
0100
,
0200
0000
0000
0000
,
0320
0000
2030
0000
,
0000
0000
3100
0100
,
0200
0000
0320
0000
,
0000
0000
0031
0001
,
0002
0000
2003
0000
,
0000
0000
3010
0010
,
0020
0000
0230
0000
,
0000
0000
0310
0010
,
0020
0000
0032
0000
,
0000
0000
0103
0100
,
0200
0000
0320
0000
,
0000
0000
1030
1000
,
2000
0000
3002
0000
,
0000
0000
0013
0010
,
0020
0000
0230
0000
,
0000
0000
0310
0001
,
0200
0000
0000
0000
,
0000
0000
0000
0300
,
1001
0000
0010
0000
,
0100
0000
0010
1000
,
0001
0000
0010
0000
,
0100
0000
0010
0001
,
0100
0000
0010
0000
,
1000
0000
0001
0010
,
0100
0000
0010
0000
,
0001
0000
0100
0010
,
1000
0000
0100
0000
,
0010
0000
0001
1000
,
0010
0000
0100
0000
,
0010
0000
1000
0100
,
0010
0000
0100
0000
,
1000
0010
0100
0001
,
0010
0000
0100
0000
,
0010
0000
0100
1000
,
0001
0000
0100
0000
,
0010
0000
0100
0001
,
0010
0000
0100
0000
,
1000
0000
0001
0100
,
0010
0000
0100
0000
,
0001
0000
0010
0100
,
1000
0000
0010
0000
,
0100
0000
0001
1000
,
0100
0000
0010
0000
,
0100
0000
1000
0010
,
0200
0000
0000
0000
,
0000
0000
0302
0000
,
2000
0000
0000
0000
,
3003
0000
0000
0000
,
1001
0000
0000
0000
;

//---------------dance-single - D. D'Amato----------------
#NOTES:
     dance-single:
     D. D'Amato:
     Edit:
     9:
     0.615,0.617,0.043,0.043,0.505,489.000,5.000,5.000,32.000,0.000,0.000: // measure 1
0000
0000
0000
0000
,  // measure 2
0000
0000
0000
0000
,  // measure 3
0000
0000
0000
0000
,  // measure 4
0000
0000
0000
0000
,  // measure 5
1000
0000
0000
0001
0100
0000
0010
0000
0100
0000
0000
0010
1000
0001
1000
0000
,  // measure 6
0001
0000
0000
1000
0010
0000
0100
0000
0010
0000
0000
0100
0001
1000
0001
0000
,  // measure 7
1000
0000
0000
0001
0010
0000
0100
0000
0010
0000
0000
0100
1000
0001
1000
0000
,  // measure 8
0001
0000
0000
1000
0000
0000
0100
0000
0010
0000
0000
0001
0000
0000
0100
0000
,  // measure 9
1001
0000
0000
0001
0000
1000
0000
0100
,  // measure 10
0010
0010
0001
0100
0010
0010
1000
0100
,  // measure 11
0010
0010
0001
0010
0100
0100
1000
0010
,  // measure 12
0100
0100
0001
0001
0010
0100
0010
0001
,  // measure 13
1000
1000
0001
0001
1000
1000
0001
0100
,  // measure 14
0010
0010
1000
1000
0010
0100
0010
1000
,  // measure 15
0100
0100
0010
0010
0100
0100
0010
0010
,  // measure 16
0001
0010
0100
0100
1000
0100
0010
0001
,  // measure 17
2001
0000
0000
0000
0000
0000
0000
0000
3001
0100
0001
0000
1000
0000
1000
0000
,  // measure 18
0001
0001
0100
0100
M010
M010
0100
0100
,  // measure 19
0001
0000
0001
0000
0010
0000
0010
0000
M100
0010
M100
0000
0010
0000
0001
0000
,  // measure 20
1000
1000
0100
0100
001M
001M
0100
0100
,  // measure 21
1000
0000
1000
0000
0010
0000
0010
0000
010M
0010
010M
0000
0010
0000
1000
0000
,  // measure 22
0001
0001
0010
0010
M100
M100
0010
0010
,  // measure 23
0001
0000
0001
0000
0100
0000
0100
0000
M010
0100
M010
0000
0100
0000
0001
0000
,  // measure 24
1000
1000
0010
0010
010M
010M
0010
0010
,  // measure 25
1000
0000
1000
0000
0100
0000
0100
0000
001M
0100
001M
0000
0100
0000
1000
0000
,  // measure 26
0001
0001
0100
0100
10M0
10M0
0100
0100
,  // measure 27
0001
0000
0001
0000
0010
0000
0010
0000
1M00
0010
1M00
0000
0010
0000
0001
0000
,  // measure 28
1000
1000
0100
0100
00M1
00M1
0100
0100
,  // measure 29
1000
0000
1000
0000
0010
0000
0010
0000
0M01
0010
0M01
0000
0010
0000
1000
0000
,  // measure 30
0001
0001
0010
0010
1M00
1M00
0010
0010
,  // measure 31
0001
0000
0001
0000
0100
0000
0100
0000
10M0
0100
10M0
0000
0100
0000
0001
0000
,  // measure 32
1000
1000
0010
0010
0M01
0M01
0010
0010
,  // measure 33
1000
0000
1000
0000
0100
0000
0100
0000
00M1
0100
00M1
0000
0100
0000
1000
0000
,  // measure 34
2002
0000
0000
0000
,  // measure 35
0000
0000
0000
3003
,  // measure 36
0010
0000
0000
0100
0000
0000
0010
0000
0000
1000
0000
0010
0100
0000
0001
0000
,  // measure 37
0010
0000
0000
0100
0000
0000
0010
0000
0000
0001
0000
0100
0010
0000
1000
0000
,  // measure 38
0100
0000
0000
0010
0000
0000
0001
0000
0000
1000
0000
0010
0100
0000
0001
0000
,  // measure 39
0010
0000
0000
0100
0000
0000
1000
0000
0000
0001
0000
0100
0010
0000
1000
0000
,  // measure 40
0100
0000
0000
0010
0000
0000
0100
0000
0000
1000
0000
0100
0010
0000
0001
0000
,  // measure 41
0100
0000
0000
0010
0000
0000
0100
0000
0000
0001
0000
0010
0100
0000
1000
0000
,  // measure 42
0010
0000
0000
0100
0000
0000
0001
0000
0000
1000
0000
0100
0010
0000
0001
0000
,  // measure 43
0100
0000
0000
0010
0000
0000
1000
0000
0000
0001
0000
0010
0100
0000
1000
0000
,  // measure 44
0010
0000
0100
0001
0000
0000
0010
0000
0100
1000
0000
0000
0001
0100
0010
0000
,  // measure 45
1000
0000
0100
0010
0000
0000
0001
0000
0100
0010
0000
0000
1000
0100
0010
0000
,  // measure 46
0001
0000
1000
0010
0000
0000
0100
0000
0010
1000
0000
0000
0001
0010
0100
0000
,  // measure 47
1000
0000
0010
0100
0000
0000
0001
0000
0010
0100
0000
0000
1000
0010
0100
0000
,  // measure 48
0001
0000
1000
0100
0000
0000
0010
0000
0001
1000
0000
0000
0100
0010
0001
0000
,  // measure 49
1000
0000
0100
0010
0000
0000
0001
0000
1000
0010
0000
0000
0100
0000
0001
0000
,  // measure 50
0010
0000
0010
0100
0000
0100
0010
0000
0010
0001
0000
0010
0100
0000
1000
0000
,  // measure 51
0010
0000
0010
0100
0000
0100
0010
0000
0010
1000
0000
0100
0010
0000
0001
0000
,  // measure 52
0100
0000
0100
0010
0000
0010
1000
0000
1000
0001
0000
0010
0100
0000
1000
0000
,  // measure 53
0010
0000
0010
0100
0000
0100
0001
0000
0001
1000
0000
0100
0010
0000
0001
0000
,  // measure 54
0100
0000
0100
0010
0000
0010
0100
0000
0100
0001
0000
0100
0010
0000
1000
0000
,  // measure 55
0100
0000
0100
0010
0000
0010
0100
0000
0100
1000
0000
0010
0100
0000
0001
0000
,  // measure 56
0010
0000
0010
0100
0000
0100
1000
0000
1000
0001
0000
0100
0010
0000
1000
0000
,  // measure 57
0100
0000
0100
0010
0000
0010
0001
0000
0001
1000
0000
0010
0100
0000
0001
0000
,  // measure 58
0010
0000
0100
1000
0000
1000
0010
0000
0100
0001
0000
0001
1000
0100
0010
0000
,  // measure 59
0001
0000
0100
0010
0000
0010
1000
0000
0100
0010
0000
0010
0001
0100
0010
0000
,  // measure 60
1000
0000
0001
0010
0000
0010
0100
0000
0010
0001
0000
0001
1000
0010
0100
0000
,  // measure 61
0001
0000
0010
0100
0000
0100
1000
0000
0010
0100
0000
0100
0001
0010
0100
0000
,  // measure 62
2002
0000
0000
0000
,  // measure 63
0000
0000
0000
3003
,  // measure 64
1000
0001
1000
0000
0010
0000
1000
0100
0000
0100
0010
0000
0001
1000
0001
0000
,  // measure 65
0100
0000
0010
1000
0001
0010
0100
0010
,  // measure 66
1001
0000
0000
0000
;
