#TITLE:Hyper Hyper;
#SUBTITLE:;
#ARTIST:?;
#TITLETRANSLIT:;
#SUBTITLETRANSLIT:;
#ARTISTTRANSLIT:;
#GENRE:Happy Hardcore;
#CREDIT:;
#BANNER:Hyper Hyper-bn.png;
#BACKGROUND:Hyper Hyper-bg.png;
#LYRICSPATH:;
#CDTITLE:;
#MUSIC:Hyper Hyper.ogg;
#OFFSET:-0.026;
#SAMPLESTART:22.820;
#SAMPLELENGTH:13.420;
#SELECTABLE:YES;
#BPMS:0.000=157.274;
#STOPS:;
#BGCHANGES:0.074=Hyper Hyper.mpg=1.000=1=0=0=StretchNoLoop==CrossFade==,
99999=-nosongbg-=1.000=0=0=0 // don't automatically add -songbackground-;
#KEYSOUNDS:;

//---------------dance-single - D. Runberg & D. Renzetti----------------
#NOTES:
     dance-single:
     D. Runberg & D. Renzetti:
     Challenge:
     12:
     1.000,0.000,0.482,0.287,1.000:
0000
0000
0000
0000
,
0000
0000
0000
0000
,
1000
0001
0100
0000
0120
0000
0000
1000
0030
0001
0100
0000
0210
0000
0000
0000
,
0301
1000
0100
0000
1200
0000
1300
0001
0000
0100
0010
0000
1100
0000
0011
0000
,
0004
4000
0000
0000
0000
0000
0000
0000
0000
0000
0000
0000
3003
0000
0000
0000
,
1000
0001
0010
0200
M000
1000
1000
1300
,
0010
0100
0001
2000
0000
0100
3100
0M0M
,
1000
0010
0100
0002
M000
1000
1000
1003
,
0100
0010
0001
0200
0000
0010
0310
M0M0
,
1000
0000
0100
0000
0010
0M00
0000
0001
0000
1000
0010
0000
0100
0000
0000
00M0
,
0001
0000
0100
0000
0010
0M00
0000
0100
0000
0001
1000
0000
0100
0000
00M0
0000
,
1100
2000
0010
3010
M110
0200
0001
0301
,
0M11
0020
0100
0130
1000
0001
0100
00M0
,
0001
0010
0001
00M0
0001
0010
0100
1000
0M00
1000
0100
1000
0M00
1000
0100
0010
,
2002
0000
0000
0000
0000
0000
0000
0000
0000
0000
0000
0000
0010
0000
0000
0000
0000
0000
0000
0000
0000
0000
0000
0000
3003
0000
0000
0000
1000
0001
1000
0001
,
1000
0000
0100
0000
0010
0000
0001
0100
0000
0010
0M00
1000
0100
0000
0010
0000
,
0001
0000
0100
0000
0100
0000
0010
1000
0000
10M0
0000
1000
0100
0000
1000
0000
,
0010
0000
0010
0000
0100
0000
0001
1000
0000
M010
0000
1000
0100
0000
0010
0000
,
0001
0000
1000
0010
0100
0000
0001
0000
0010
0000
0100
1000
0001
0000
0100
0000
,
0101
0000
00M1
0000
0110
0000
0100
0010
0000
0M10
1000
0000
0001
0000
1000
0000
,
1100
0000
10M0
0000
1001
0000
0001
0100
0000
0001
0100
0000
0010
1000
0001
0000
,
1001
0000
1000
0000
0100
0000
0010
0001
0000
10M0
0000
0010
0100
0000
0001
0000
,
1000
0000
0100
0000
0010
0001
0010
0000
0001
0000
0100
0010
0100
0000
0010
0000
,
1000
0000
0001
0000
0010
0000
0100
1000
0000
1M00
0000
1000
0010
0100
0001
0000
,
1000
0000
0100
0000
0010
0000
0001
0100
0000
010M
0000
0100
0010
1000
0001
0000
,
0010
0000
0100
0000
0010
0000
0001
0100
0000
001M
0000
1000
0100
0010
0001
0000
,
1000
0020
0100
0130
0001
0010
0100
1000
,
0001
0100
0101
00MM
0001
1000
1001
0M0M
,
4000
0040
0000
0000
0000
0000
0000
0000
0000
0000
0000
3030
0000
0000
0000
0000
,
1000
0000
0100
0000
0010
0000
0002
0000
0200
0000
0000
0010
0000
0000
0010
0303
,
0000
0000
0001
0000
0010
0000
0200
0000
2000
0000
0000
0001
0000
0000
0001
3300
,
0000
0000
1000
0000
0100
0000
2000
0000
0002
0000
0000
0010
0000
0000
0010
3003
,
0000
0000
1000
0000
0010
0000
0200
0000
0002
0000
0303
0101
0000
0000
1001
0000
,
1000
0001
0100
0000
001M
0000
0100
0000
M001
0010
0100
0000
1000
00M0
0000
0000
,
M001
0100
0010
0000
100M
0000
0100
0010
0001
0000
1M00
0000
0010
0000
010M
0000
,
0001
0010
M100
0000
0010
0000
00M1
0100
0010
0000
1M00
0000
0010
0000
0100
0000
,
M001
0010
0100
0000
0010
0000
0100
0000
1000
0000
0010
0000
0100
0001
0100
0001
,
0100
0000
0001
0000
1000
0100
0010
0001
0100
0000
0010
0000
1000
0010
0100
0001
,
0010
0100
1000
0100
0010
0001
1000
0000
0001
0100
0001
0000
0100
0010
0100
0000
,
0010
1000
0001
1000
0100
0000
0010
0001
0010
0000
0001
1000
0010
0100
0001
0010
,
0011
0000
0220
0000
0330
0000
1100
0000
MM00
0000
1001
0MM0
2002
0000
3003
0000
,
1000
0010
1000
0010
0100
0001
0100
0001
1000
0100
1000
0100
0010
0001
0010
0001
,
0100
0010
1000
0010
0100
0001
0010
0100
1000
0100
0010
0000
0M01
1000
0001
1000
,
0001
0100
0010
1000
0010
0100
0001
0010
0100
1000
0100
0010
0001
0100
0010
1000
,
0100
0010
0001
1000
0010
0100
0001
0100
0010
1000
0100
0000
10M0
0100
1000
0100
,
1000
0001
0100
0010
0100
0001
1000
0100
0010
0100
1000
0010
0100
0001
0100
0010
,
0100
0001
1000
0100
0010
0001
1000
0010
0100
0001
0010
0000
010M
0010
0100
0010
,
0100
1000
0001
1000
0010
0100
0001
0100
0010
1000
0100
1000
0010
0100
0001
0010
,
0001
1000
0010
1000
0001
0100
0010
1000
0100
0010
0001
0000
1M00
0001
1000
0001
,
1000
0010
1000
0010
0100
0010
0100
0001
0010
0100
0010
0001
0100
0010
1000
0010
,
0100
0001
0100
0010
1000
0010
1000
0100
1000
0010
0100
0001
0100
0010
0100
0010
,
0100
0010
1000
0010
0100
0001
0010
0100
1000
0100
1000
0010
0100
0010
0100
0001
,
0100
0010
1000
0100
0010
0001
0010
0001
1000
0001
0100
0001
0010
0001
0010
0001
,
0010
0100
0010
0100
1000
0100
1000
0010
1000
0100
0010
0100
1000
0001
0100
0001
,
0010
0001
0010
0100
1000
0010
1000
0100
1000
0100
0010
0001
1000
0010
1000
0010
,
0100
0010
1000
0010
0100
0001
0010
0001
0100
0010
1000
0100
0010
0001
0100
0001
,
1000
0010
0100
0001
0101
0000
0M0M
0000
0110
0000
M0M0
0000
1010
0000
0000
2000
,
0001
0000
3001
0000
0100
000M
0020
1000
0000
0100
0000
1030
0100
0000
0010
M000
,
0002
0000
1000
00M0
1003
0000
0020
0100
0000
0001
0000
0130
0001
0M00
1000
0000
,
0100
0000
0001
0000
0100
0000
2000
0100
0000
0001
0000
3010
0100
0000
0001
0000
,
0010
0100
0010
0000
0100
0000
1000
0100
1000
0000
0001
0000
0100
0010
0100
0000
,
0101
0000
0010
0000
1001
0000
1000
0100
0000
M11M
0000
0010
0001
0000
1000
0000
,
1010
0000
0100
0000
0101
0000
0001
0100
0000
M11M
0000
0010
1000
0000
0001
0000
,
0011
0000
0100
0000
1100
0000
1000
0001
0000
M1M1
0000
0100
0010
0000
1000
0000
,
1001
0000
0010
0000
0101
0000
0001
0010
0000
MM11
0000
0001
1000
0000
0010
0000
,
0110
0000
0100
0000
1001
0000
0001
0100
0000
1M1M
0000
1000
0100
0010
0001
0000
,
0011
0000
0001
0000
0110
0000
0100
1000
0000
1M1M
0000
0010
0100
0001
1000
0000
,
1010
0000
0100
0000
0101
0000
0001
1000
0000
1M1M
0000
0100
0001
0010
0100
0000
,
2100
0000
0100
0000
3100
0000
0010
M000
0001
0000
0100
0000
0001
0000
0100
0000
,
0101
0000
0M0M
0000
0110
0000
M0M0
0000
1010
0000
1000
0000
0001
0010
0100
1000
,
1001
0000
0000
M00M
0000
0000
0000
0000
0000
0000
0000
0000
0000
0000
0000
0000
;

//---------------dance-single - K. Ward----------------
#NOTES:
     dance-single:
     K. Ward:
     Hard:
     9:
     0.513,0.519,0.241,0.046,0.148,356.000,26.000,5.000,2.000,0.000,0.000,0.513,0.519,0.241,0.046,0.148,356.000,26.000,5.000,2.000,0.000,0.000:
0000
0000
0000
0000
,
0000
0000
0000
0000
,
0001
0000
1000
0000
0100
0000
0000
1000
0000
0000
0010
0000
0100
0000
0000
0000
,
1001
0000
0000
0000
,
0200
0000
0000
0300
,
0010
0001
0010
0100
0000
0100
0001
0000
,
0010
0100
1000
0100
0000
0100
1000
0000
,
1000
0100
0010
0001
0000
0001
0010
0000
,
0100
0001
0010
0000
0100
0000
1001
0000
,
0100
0100
0000
0000
,
0001
0001
0000
0000
,
1000
1000
0000
0000
,
0100
0010
0001
0000
0010
0100
0010
0000
,
1001
0000
0000
0000
0000
0000
0000
0000
0000
0000
0000
0000
0000
0000
0001
1000
,
0001
0000
0000
0000
,
1000
0000
0100
0000
0010
0000
0100
1000
0000
0000
0100
0000
1000
0000
0000
0000
,
0010
0000
0100
0000
1000
0000
0100
0010
0000
0000
0100
0000
0010
0000
0000
0000
,
1000
0000
0001
0000
0001
0000
0100
0010
0000
0000
0100
0000
0001
0000
0000
0000
,
1000
0100
0001
0000
0001
0100
1000
0000
,
0001
0000
0010
0000
0100
0000
0010
0001
0000
0000
0010
0000
0001
0000
0000
0000
,
0100
0000
0010
0000
0001
0000
0010
0100
0000
0000
0010
0000
0100
0000
0000
0000
,
0001
0000
0001
0000
1000
0000
0100
0010
0000
0000
0100
0000
0010
0000
0000
0000
,
0001
0100
1000
0000
1000
0100
0001
0000
,
1000
0000
0100
0000
0100
0000
1000
0100
0000
0000
1000
0000
0010
0000
0000
0000
,
0100
0000
0001
0000
0010
0000
0100
0010
0000
0000
0100
0000
0010
0000
0000
0000
,
0001
0000
1000
0000
0001
0000
1000
0001
0000
0000
1000
0000
0100
0000
0000
0000
,
0010
0100
0100
0010
,
0011
1100
0110
1001
,
2002
0000
0000
3003
,
0100
0000
0000
0000
0100
0000
0000
0000
0010
0000
0000
1000
0000
0000
0000
0000
,
0001
0000
0000
0000
0001
0000
0000
0000
1000
0000
0000
0100
0000
0000
0000
0000
,
0010
0000
0000
0000
0010
0000
0000
0000
0100
0000
0000
0010
0000
0000
0000
0000
,
0001
0000
0000
0000
1000
0000
0000
0000
0001
0000
0000
1000
0000
0000
0000
0000
,
0100
0000
0000
0100
0010
0000
0100
0000
1000
0000
0000
0000
0001
0000
0000
0000
,
0100
0000
0000
0100
0010
0000
1000
0000
0001
0000
0000
0000
1000
0000
0000
0000
,
0100
0000
0000
0100
0010
0000
0100
0000
0010
0000
0000
0000
0001
0000
0000
0000
,
0100
1000
0010
0001
,
1001
0000
0010
0100
0000
0100
0001
0000
,
0010
0000
0100
1000
0000
1000
0100
0000
,
0010
0000
0100
0001
0000
0001
0010
0000
,
0100
0010
0000
2002
0000
3003
M00M
0000
,
0001
0100
1000
0100
0010
0100
0001
0010
,
0100
0000
1000
0000
0100
0000
0000
0000
0010
0000
0000
0000
0100
0000
0000
1000
,
0001
0010
0001
0000
0100
0010
1000
0000
,
0100
0010
0100
1000
0100
0000
0110
0000
,
0001
0100
0010
0100
0001
0010
0100
1000
,
0000
0000
0100
0000
0001
0000
0000
0000
0010
0000
0000
0000
0100
0000
0000
0001
,
0010
0000
0100
0000
0010
0001
1000
0000
,
0100
0010
0100
0010
0001
0000
1000
0000
,
0001
0001
0001
0000
0100
0000
0010
0100
,
0000
1000
0100
0000
0010
0000
1001
0000
,
0100
0100
0100
0000
0010
0000
0100
1000
,
0000
0100
0001
0010
0100
0000
0011
0000
,
0100
1000
0100
0000
0010
0000
0100
1000
,
0000
1000
0100
0000
0010
0000
1100
0000
,
0001
0001
0001
0000
1000
1000
1000
0000
,
0100
0010
0100
0000
0110
0000
1001
0000
,
0010
0000
0100
0000
0010
0000
0100
0010
0000
0010
0100
0000
1000
0000
0000
0000
,
0100
0000
0010
0000
0001
0000
0010
0100
0000
0100
0001
0000
0010
0000
0000
0000
,
0100
0000
1000
0000
0100
0000
0010
0100
0000
0100
1000
0000
0100
0000
0000
0000
,
0010
0100
1000
0000
0010
0100
0001
0010
,
0100
0000
0000
0000
1001
0000
0000
0000
0010
0100
0010
0000
0100
0000
0000
0000
,
0001
0000
0000
0000
1000
0000
0000
0000
0100
0010
0100
0000
0010
0000
0000
0000
,
0001
0000
0000
0000
1001
0000
0000
0000
1000
0100
1000
0000
0100
0000
0000
0000
,
0010
0100
0010
0100
,
1001
0000
0000
0000
0011
0000
0000
0100
0000
0000
1000
0000
0100
0000
0000
0000
,
0010
0000
0000
0000
0100
0000
0000
0001
0000
0000
1000
0000
0001
0000
0000
0000
,
0101
0000
0000
0000
1100
0000
0000
0010
0000
0000
0100
0000
0010
0000
0000
0000
,
0100
1000
0010
0001
,
1001
0100
0011
0110
,
1001
0000
0000
0000
;

//---------------dance-double - M.Emirzian----------------
#NOTES:
     dance-double:
     M.Emirzian:
     Easy:
     3:
     0.224,0.227,0.065,0.111,0.000,150.000,7.000,12.000,0.000,0.000,0.000,0.224,0.227,0.065,0.111,0.000,150.000,7.000,12.000,0.000,0.000,0.000:
00000000
00000000
00000000
00000000
,
00000000
00000000
00000000
00000000
,
00000000
00000000
00000000
00000000
,
20020000
00000000
00000000
00000000
,
30030000
00000000
00000000
00000000
,
10000000
00000000
01000000
00000000
,
10000000
00000000
00010000
00010000
,
00010000
00000000
01000000
00000000
,
00001000
00000000
00010000
00010000
,
00010000
00000000
00000100
00000000
,
00000010
00000000
00000001
00000001
,
00000001
00000000
00001000
00000000
,
00000010
00000000
00000100
00000010
,
00002002
00000000
00000000
00003003
,
00002002
00000000
00000000
00003003
,
00000010
00001000
00000010
00000000
,
00010000
00000000
00001000
01000000
,
00001000
00000000
00010000
00000000
,
00000100
00010000
00000100
00000000
,
00010000
00001000
00010000
00000000
,
01000000
00000000
10000000
00100000
,
10000000
00000000
00010000
00000000
,
01000000
00001000
01000000
00000000
,
00010000
00100000
00010000
00000000
,
01000000
00000000
00001000
00010000
,
00001000
00000000
00010000
00000000
,
00000010
00010000
00000010
00000000
,
00002200
00000000
00000000
00003300
,
00002200
00000000
00000000
00003300
,
00000001
00000000
00000000
00000000
,
00000000
00000000
00000000
00000000
,
00000100
00000000
00000000
00000000
,
00000000
00000000
00000000
00000000
,
00010000
00000000
00000000
00000000
,
00001000
00000000
00000000
00000000
,
00010000
00000000
00000000
00000000
,
00001000
00000000
00000000
00000000
,
00010000
00000000
00000000
00000000
,
00001000
00000000
00000000
00000000
,
01000000
00000000
01000000
00000000
,
01000000
00000000
00100000
00000000
,
10000000
00010000
10000000
00000000
,
01000000
00000000
00100000
00010000
,
01000000
00000000
00001000
00000000
,
00010000
00001000
00010000
00000000
,
00000100
00001000
00000100
00000000
,
00010000
00000000
00000100
00001000
,
00000100
00000000
00000001
00000000
,
00000100
00001000
00000100
00000000
,
00010000
00001000
00010000
00000000
,
00100000
00000000
00010000
00001000
,
00010000
00000000
01000000
00000000
,
10000000
00010000
10000000
00000000
,
00100000
01000000
00100000
00000000
,
01000000
00000000
00001000
00010000
,
00001000
00000000
00010000
00000000
,
00000100
00000100
00000100
00001000
,
00000100
00000000
00001000
00001000
,
00001000
00000000
00000001
00000100
,
00000001
00000000
00001000
00000000
,
00000100
00000000
00010000
00010000
,
00010000
00000000
00001000
01000000
,
00001000
00000000
01000000
01000000
,
01000000
00000000
00100000
00000000
,
10000000
00000000
01000000
01000000
,
01000000
00000000
00100000
00010000
,
00100000
00000000
00001000
01000000
,
00001000
00000000
00010000
00000000
,
00000100
00000000
00001000
00000100
,
00002002
00000000
00000000
00003003
,
00001001
00000000
00000000
00000000
;

//---------------dance-double - M.Emirzian----------------
#NOTES:
     dance-double:
     M.Emirzian:
     Medium:
     6:
     0.379,0.357,0.083,0.130,0.000,263.000,9.000,14.000,0.000,0.000,0.000,0.379,0.357,0.083,0.130,0.000,263.000,9.000,14.000,0.000,0.000,0.000:
00000000
00000000
00000000
00000000
,
00000000
00000000
00000000
00000000
,
00000000
00000000
00000000
00000000
,
02020000
00000000
00000000
03030000
,
02002000
00000000
00000000
03003000
,
00000000
00001000
00000000
00010000
00000000
00000100
00010000
00001000
,
00000000
00010000
00000000
00001000
00000000
01000000
00001000
00000000
,
00000000
00010000
00000000
00000100
00000000
00000010
00000100
00000010
,
00000000
00000100
00000000
00001000
00000000
00000100
00001000
00000000
,
00000000
00000001
00000000
00000100
00000000
00000001
00000100
00000001
,
00000000
00000100
00000000
00001000
00000000
00010000
00001000
00000000
,
00000000
00010000
00000000
00001000
00000000
00010000
00001000
00010000
,
00000000
01000000
00000000
10000000
00000000
01000000
10000000
00000000
,
20020000
00000000
00000000
30030000
,
02020000
00000000
00000000
03030000
,
10000000
00000000
01000000
00000000
00100000
00000000
00010000
00100000
,
00010000
00000000
00100000
00000000
00001000
00010000
00001000
00000000
,
00000100
00000000
00001000
00000000
00010000
00000000
00001000
00010000
,
00001000
00000000
00000100
00000000
00000010
00001000
00000010
00000000
,
00001000
00000000
00000010
00000000
00000100
00000000
00000001
00000100
,
00000001
00000000
00001000
00000000
00000100
00010000
00000100
00000000
,
00010000
00000000
00001000
00000000
00011000
00000000
00010000
00001000
,
00010000
00000000
01000000
00000000
10000000
00100000
10000000
00000000
,
00010000
00000000
01000000
00000000
00010000
00000000
10000000
00100000
,
10000000
00000000
01000000
00000000
00100000
00010000
00100000
00000000
,
00001000
00000000
00010000
00000000
00000100
00000000
00010000
00000010
,
00010000
00000000
00001000
00000000
00000010
00000100
00000010
00000000
,
00000202
00000000
00000000
00000303
,
00002002
00000000
00000000
00003003
,
00000010
00000000
00000000
00000000
,
00100000
00000000
00000000
00000000
,
00000100
00000000
00000000
00000000
,
01000000
00000000
00000000
00000000
,
00001000
00000000
01000000
00000000
,
00001000
00000000
00100000
00000000
,
10000000
00000000
00100000
00000000
,
00001000
00000000
00010000
00000000
,
00001000
00010000
00010000
00000000
,
00000100
00001000
00001000
00000000
,
00000100
00000001
00000001
00000000
,
00000010
00001000
00000000
00000010
00000000
00001000
00000010
00000000
,
00001000
00000010
00001000
00000000
00000100
00000000
00010000
00001000
,
00000000
00010000
00001000
00000000
00010000
00000000
00001000
00000000
,
01000000
00000000
00001000
00000000
00010000
00000000
00001000
00010000
,
00000000
00001000
00010000
00000000
00000100
00000000
00010000
00000000
,
00001000
00000000
01000000
00000000
00010000
00000000
00100000
10000000
,
00000000
00100000
00010000
00000000
00100000
00000000
00001000
00000000
,
01000000
00000000
00001000
00000000
00100000
00000000
00001000
00010000
,
00000000
00001000
00010000
00000000
00001000
00000000
00010000
00000000
,
00000100
00000000
00010000
00000000
00000010
00000000
00001000
00000010
,
00000000
00001000
00000010
00000000
00000100
00000000
00000001
00000000
,
00001000
00000000
00000010
00000000
00000100
00000000
00001000
00000001
,
00000000
00000100
00001000
00000000
00010000
00000000
00000100
00000000
,
00010000
00000000
00001000
00000000
00100000
00000000
00010000
00100000
,
00000000
00010000
00100000
00000000
01000000
00000000
10000000
00000000
,
00100000
00000000
10000000
00000000
01000000
00000000
00100000
00010000
,
00000000
00100000
00010000
00000000
00100000
00000000
00001000
00000000
,
01000000
00000000
00001000
00000000
00010000
00000000
00001000
00010000
,
00001000
00000000
00000100
00000000
00001000
00000100
00001000
00000000
,
00000100
00000000
00000001
00000000
00001000
00000000
00000100
00001000
,
00000100
00000000
00001000
00000000
00000010
00001000
00000010
00000000
,
00010000
00000000
00001000
00000000
00010000
00000000
00001000
01000000
,
00001000
00000000
01000000
00000000
00100000
01000000
00100000
00000000
,
10000000
00000000
00010000
00000000
01000000
00000000
00010000
01000000
,
00010000
00000000
01000000
00000000
00001000
00010000
00001000
00000000
,
00010000
00000000
00001000
00000000
00010000
00000000
00000010
00001000
,
00000010
00000000
00010000
00000000
00001000
00100000
00001000
00000000
,
01000000
00000000
00001000
00000000
00010000
00000000
00001000
00000100
,
00001000
00000000
00000001
00000000
00001000
00000010
00001000
00000000
,
00000202
00000000
00000000
00000303
,
00001001
00000000
00000000
00000000
;

//---------------dance-double - MJ & J.Casarino----------------
#NOTES:
     dance-double:
     MJ & J.Casarino:
     Hard:
     9:
     0.677,0.746,0.417,0.222,0.269,442.000,45.000,24.000,22.000,0.000,8.000,0.677,0.746,0.417,0.222,0.269,442.000,45.000,24.000,22.000,0.000,8.000:
00000000
00000000
00000000
00000000
,
00000000
00000000
00000000
00000000
,
00000010
00000000
00001000
00000000
00010010
00000000
00000000
00010000
00000000
00010000
00001000
00000000
01000000
00000000
00010000
00000000
,
02002000
00000000
00000000
00000000
00000000
00000000
03003000
0M00M000
,
00400000
00040000
00000000
00000000
00000000
00000000
00000000
00000000
00000000
00000000
00330000
00000000
00000000
00000000
00MM0000
00000000
,
00100000
00010000
00000000
01001000
00000000
00100000
00100000
00100000
,
00000000
00010000
00000000
00010100
00000000
00000010
00001000
00000000
,
00000001
00000100
00000000
00010010
00000000
000M10M0
00001000
00001000
,
00000000
01001000
00000000
01010000
00000000
00100000
01000000
00000000
,
10000000
00010000
00000000
01100000
00000000
0M001000
00001000
00001000
,
00000000
00011000
00000000
00010100
00000000
00010000
00001000
00000000
,
00000100
00000001
00000000
00000110
00000000
000010M0
00001000
00001000
,
00000000
00010100
00000000
00011000
00000000
00100000
00100000
00001000
,
00040000
00004000
00000000
00000000
00000000
00000000
00000000
00000000
00000000
00000000
00033000
00000000
000MM000
00000000
01000000
00000000
,
02002000
00000000
00000000
03003000
,
01000000
00000000
01000000
00000000
00010000
00000000
01000000
00100000
00000000
00000000
10000000
00000000
10100000
00000000
00000000
00000000
,
01000000
00000000
01000000
00000000
00100000
00000000
00001000
00010000
00000000
00000100
00000000
00010000
00001000
00000000
00001000
00000000
,
00010000
00000000
00000010
00000000
00000100
00000000
00000001
00001000
00000000
00000000
00000100
00000000
00001100
00000000
00000000
00000000
,
00000010
00000000
00000010
00001000
00000000
00000000
00000100
00000000
00000100
00000000
00010000
00000000
00001000
00000000
01000000
00000000
,
00100000
10000000
01000000
00100000
10010000
00000000
00100000
00010000
,
00101000
00000000
00000000
00001000
00010000
00000000
00000000
00010000
00000100
00000000
00000000
00000100
00000010
00000000
00000001
00000000
,
00000010
00000100
00001000
00000001
00001001
00000000
00000010
00010000
,
00001000
00000000
00001000
00010000
00000000
00000000
00001000
00000000
01000000
00000000
01000000
00000000
00100000
00000000
10000000
00000000
,
01000000
00000000
00100000
00000000
00010000
00000000
10000000
00010000
00000000
00000000
01000000
00000000
01010000
00000000
00000000
00000000
,
00100000
00000000
01000000
00000000
00001000
00000000
00010000
00000010
00000000
00010000
00000000
00001000
00010000
00000000
00001000
00000000
,
00000100
00000000
00000001
00000000
00001000
00000000
00000010
00000100
00000000
00000000
00000001
00000000
00000011
00000000
00000000
00000000
,
00000100
00000000
00000100
00001000
00000000
00000000
00000010
00000000
00010000
00000000
00001000
00000000
00100000
00000000
01000000
00000000
,
20020000
00000000
00000000
00000000
00000000
00000000
30030000
01000000
,
04004000
00000000
00000000
00000000
00000000
03003000
00000000
00000000
,
10000000
01000000
10000000
00000000
01000000
00010000
01000000
00000000
,
00100000
00001000
00100000
00000000
00001000
00000100
00001000
00000000
,
00000100
00010000
00000100
00000000
00000001
00001000
00000001
00000000
,
00010000
00000010
00010000
00000000
00001000
01000000
00001000
00000000
,
00200000
00000000
00002000
00300000
00020000
00003000
00000200
00030000
00000010
00000000
00000000
00000010
00000000
00000000
00000320
00000000
,
00000200
00000030
00000020
00000300
00000002
00000030
00002000
00000003
00000100
00000000
00000000
00000100
00000000
00000000
00003200
00000000
,
00000002
00000300
00000200
00000003
00000020
00000300
00000200
00000030
00010000
00000000
00000000
00010000
00000000
00000000
00010300
00000000
,
00002000
00000000
02000000
00003000
00200000
03000000
20000000
00300000
01000000
00000000
00000000
01000000
00000000
00000000
31000000
00000000
,
00100000
00010000
00100000
01000000
00100000
00010000
00100000
01000000
,
00100000
00001000
00010000
00000100
00000010
00000001
00001000
00000010
,
00010000
00001000
01000000
00100000
10000000
01000000
00100000
00010000
,
01000000
01001000
00000000
00011000
00000000
00010000
00010010
00000000
,
00010000
00000000
00001000
00000000
00001000
00000000
00000000
00000000
00000110
00000000
00000001
00001000
00000001
00000000
00001000
00000000
,
0000M000
00000000
00010000
00000000
00100000
00000000
00000000
00000000
01010000
00000000
00000000
00000000
00100000
00000000
10000000
00010000
,
10000000
00000000
01000000
00000000
01000000
00000000
00000000
00000000
00110000
00000000
00000000
00010000
10000000
00000000
00010000
00000000
,
000M0000
00000000
00010000
00000000
00000010
00000000
00000100
00000000
00000001
00000000
00000000
00000000
00001000
00000001
00001000
00000000
,
00000010
00000000
00001000
00000000
00000100
00000000
00010000
00000000
00001000
00000000
00001000
00000000
01000000
0000M000
01000000
00000000
,
00001000
0M000000
00001000
00000000
01000000
0000M000
01000000
00000000
00100000
00000000
10000000
00000000
01000000
00000000
00100000
01000000
,
00100000
00001000
00010000
00000100
00000010
00000001
00001000
00001000
,
00000010
0000M000
00000010
00000000
00001000
000000M0
00001000
00000000
00000010
0000M000
00000010
00000000
00001000
00000000
00000000
00000000
,
00000100
00000000
00000100
00000000
00001000
00000000
00000000
00000000
00010010
00000000
00000010
00010000
00000010
00000000
00000100
00000000
,
00000M00
00000000
00010000
00000000
01000000
00000000
00000000
00000000
10010000
00000000
00000000
00000000
01000000
00000000
10000000
00010000
,
10000000
00000000
00100000
00000000
00100000
00000000
00000000
00000000
01001000
00000000
00000000
00010000
10000000
00000000
00010000
00000000
,
000M0000
00000000
00010000
00000000
00000100
00000000
00000010
00000000
00000001
00000000
00000000
00000000
00001000
00000010
00001000
00000000
,
00000001
00000000
00000001
00000000
00000100
00000000
00000000
00000000
00010010
00000000
00010000
00000010
00010000
00000000
00001000
00000000
,
00000000
00000000
00010000
00000000
00100000
00000000
00000000
00000000
10010000
00000000
00000000
00000000
00100000
00000000
00010000
01000000
,
00010000
10000000
10000000
00000000
01001000
00000000
00010000
00010000
,
000M0100
00000100
00010M00
00010000
00010100
00000000
00000110
00000000
,
00000010
00000000
00001000
00000000
00000010
00000000
00000100
00000001
00000000
00000000
00000100
00000000
00001010
00000000
00000000
00000000
,
00001000
00000000
00000100
00000000
00010000
00000000
00001000
01000000
00000000
00010000
00000000
01000000
00100000
00000000
00100000
00000000
,
10000000
00000000
01000000
00000000
00100000
00000000
00010000
10000000
00000000
00000000
00100000
00000000
01001000
00000000
00000000
00000000
,
00100000
00000000
00100000
00010000
00000000
00000000
00100000
00000000
00001000
00000000
00010000
00000000
00000100
00000000
00000010
00000000
,
00000001
00001000
00000010
00000100
00001001
00000000
00001000
00000100
,
00010100
00000000
00000000
00010000
00001000
00000000
00000000
00001000
01000000
00000000
00000000
01000000
00100000
00000000
10000000
00000000
,
00010000
00100000
01000000
10000000
10010000
00000000
00100000
00010000
,
00100000
00000000
00100000
00001000
00000000
00000000
00010000
00000000
00010000
00000000
00000100
00000000
00010000
00000000
00000010
00000000
,
00000100
00000000
00000001
00000000
00001000
00000000
00000010
00000100
00000000
00000000
00000001
00000000
00001001
00000000
00000000
00000000
,
00000100
00000000
00000100
00000000
00001000
00000000
00000010
00010000
00000000
00001000
00000000
00100000
00001000
00000000
00001000
00000000
,
01000000
00000000
00010000
00000000
01000000
00000000
00100000
10000000
00000000
00000000
01000000
00000000
00110000
00000000
00000000
00000000
,
01000000
00000000
01000000
00010000
00000000
00000000
00100000
00000000
00001000
00000000
00010000
00000000
00000100
00000000
00000010
00000000
,
00000004
00004000
00000000
00000000
00000000
00000000
00000000
00000000
00000000
00000000
00003003
00000000
00000000
00000000
00000010
00000000
,
00010010
00000000
00000000
00000000
;

//---------------dance-double - M.Emirzian----------------
#NOTES:
     dance-double:
     M.Emirzian:
     Challenge:
     10:
     0.825,0.844,0.334,0.195,0.566,566.000,36.000,21.000,6.000,0.000,4.000,0.825,0.844,0.334,0.195,0.566,566.000,36.000,21.000,6.000,0.000,4.000:
00000000
00000000
00000000
00000000
,
00000000
00000000
00000000
00000000
,
00000010
00000000
00000001
00000000
00001000
00000000
00000000
00000100
00000000
00000010
00000001
00000000
00001000
00000000
00000000
00000000
,
00100000
00000000
10000000
00000000
00010000
00000000
00000000
01000000
00000000
00100000
01000000
00000000
00010000
10000000
01000000
00000000
,
40040000
00000000
00000000
00000000
00000000
30030000
00000000
00000000
,
10000000
01000000
10000000
00010000
01000000
00001000
00001000
00001000
,
00010000
00000100
00000010
00000001
00000100
00000010
00001000
00000000
,
00000010
00010000
00001000
01000000
00100000
10000000
10000000
10000000
,
01000000
00100000
00010000
10010000
00000000
01001000
00011000
00000000
,
00000010
00000100
00000001
00001000
00000001
00000100
00000100
00000100
,
00000010
00010000
00001000
01000000
00100000
10000000
01000000
0M000000
,
01000000
00100000
00001000
00010000
00000100
00000010
00000010
00000010
,
00000001
00001000
00000010
00000100
00000M00
00000100
00000010
00010000
,
00001000
00010000
00001000
00000000
01000000
00000000
00000000
00001000
00000000
00010000
00001000
00000000
00100000
00000000
00010000
10000000
,
22000000
00000000
00000000
00000000
00000000
00000000
00000000
00000000
00000000
00000000
00000000
00000000
33000000
00000000
10000000
01000000
,
00100000
00000000
00010000
00000000
00100000
00000000
00001000
00010000
00000000
00001000
00010000
00000010
00001000
00000000
00000100
00000000
,
00000010
00000000
00000100
00000000
00010000
00000000
00000100
00001000
00000000
00000001
00000000
00000100
00000010
00000000
00001000
00000000
,
00000100
00000000
00010000
00000000
00001000
00000000
01000000
00010000
00000000
01000000
00100000
10000000
01000000
00000000
00100000
00000000
,
00010000
00000000
01000000
00001000
00000000
00000000
00010000
00000000
00000100
00000000
00000010
00000000
00000001
00000000
00001001
00000000
,
00000100
00000000
00000010
00001000
00000001
00000000
00001000
00000200
00000000
00000000
00010000
00000000
00010000
00000000
00010300
00000000
,
00000010
00000000
00010000
00001000
00010000
00000000
00000100
00020000
00000000
00000000
00001000
00000000
00001000
00000000
00031000
00000000
,
00100000
00000000
00010000
01000000
00010000
00000000
10000000
00200000
00000000
00000000
01000000
00000000
01000000
00000000
01300000
00000000
,
00010000
00000000
10000000
01000000
00000000
00000000
01000000
00000000
00100000
00000000
00001000
00000000
00100000
00000000
00010000
00000000
,
01000000
00000000
00001000
00000000
00010000
00000000
00000010
00001000
00000000
00000100
00000010
00000001
00001000
00000000
00000010
00000000
,
00001000
00000000
00000100
00000000
00010000
00000000
00001000
01000000
00000000
00100000
00000000
01000000
00010000
00000000
00100000
00000000
,
01000000
00000000
10000000
00000000
00010000
00000000
01000000
00001000
00000000
00010000
00000000
00000010
00000100
00000000
00000010
00000000
,
00001000
00000000
00000001
00000100
00000000
00000000
00000010
00000000
00010000
00000000
00001000
00000000
01000000
00000000
00100000
00000000
,
10010000
00000000
00000000
00000000
00110000
00000000
00000000
00000000
00100010
00000000
00000000
00000000
00011000
00000000
00001000
00000100
,
00040400
00000000
00000000
00000000
00000000
00030300
00000000
00000000
,
00020000
00000000
00000200
00030000
00002000
00000300
00000020
00003000
00000001
00000000
00000000
00001000
00000000
00000000
00001030
00000000
,
00000200
00000000
00020000
00000300
00002000
00030000
02000000
00003000
00010000
00000000
00000000
00010000
00000000
00000000
03100000
00000000
,
20000000
00000000
02000000
30000000
00200000
03000000
00002000
00300000
00010000
00000000
00000000
00010000
00000000
00000000
00003100
00000000
,
00000010
00000000
00001000
00000000
00000100
00000000
00000020
00000000
00000001
00000000
00000000
00000001
00000000
00000000
00000130
00000000
,
00001000
00000001
00001000
00000000
00000010
00000000
00001000
00000010
00010000
00000010
00001000
00000000
00010010
00000000
00000000
00000000
,
00001000
00010000
00000100
00000000
00010000
00000000
00001000
00010000
00000100
00010000
00001000
00000000
01001000
00000000
00000000
00000000
,
00010000
01000000
00010000
00000000
10000000
00000000
01000000
00100000
10000000
00100000
01000000
00000000
10010000
00000000
00000000
00000000
,
01000000
00010000
01000000
00000000
00001000
00000000
00100000
00001000
00010000
00001000
00100000
00000000
00011000
00000000
00000000
00000000
,
00010000
00000100
00001000
00000100
00010000
00000000
00000010
00001000
00000001
00001000
00000010
00000000
00000100
00000001
00001000
00000001
,
00000100
00000000
00000010
00010000
00001000
00010000
00000010
00000000
00010000
00001000
01000000
00001000
00010000
00000000
00001000
01000000
,
00010000
01000000
00001000
00000000
00100000
00010000
10000000
00010000
00100000
00000000
01000000
10000000
00010000
10000000
01000000
00000000
,
00100000
10010000
00000000
10001000
00000000
00011000
00000100
00000000
,
00000010
00000000
00001000
00000000
00010010
00000000
00000000
00000000
00001100
00000000
00000000
00000010
00001000
00000000
00001000
00000000
,
0000M000
00000000
00000100
00000000
00000100
00000000
00000000
00000000
00000110
00000000
00000000
00000000
00001000
00000000
00000001
00000100
,
00000001
00000000
00001000
00000000
00001100
00000000
00000000
00000000
01000100
00000000
00000000
00010000
00001000
00000000
00001000
00000000
,
0000M000
00000000
00010000
00000000
00001000
00000000
01000000
00000000
10010000
00000000
00000000
00000000
10000000
01000000
00100000
00000000
,
00010000
00000000
10000000
01000000
10000000
00000000
00100000
10000000
00100000
00000000
01000000
00010000
01000000
00000000
00001000
00010000
,
00001000
00000000
00000100
00000000
00000100
00000000
00000001
00001000
00000001
00000000
00000010
00000000
00000010
00000000
00000100
00010000
,
00000100
00001000
00000010
00010000
00001000
01000000
00100000
10000000
,
00010000
00000000
00100000
00000000
00010000
00000000
01000000
00000000
00001000
00000000
00010000
00000000
00000100
00001000
00000100
00000000
,
00000010
00000000
00000100
00000000
00001010
00000000
00000000
00000000
00010001
00000000
00000000
00001000
00000010
00000000
00000010
00000000
,
000000M0
00000000
00010000
00000000
00010000
00000000
00000000
00000000
00010100
00000000
00000000
00000000
00001000
00000000
00010000
00001000
,
00010000
00000000
00100000
00000000
00110000
00000000
00000000
00000000
10100000
00000000
00000000
01000000
00100000
00000000
00100000
00000000
,
00M00000
00000000
00010000
00000000
01000000
00000000
00001000
00000000
00011000
00000000
00000000
00000000
00010000
00000100
00010000
00000000
,
00001000
00000000
00010000
00000010
00010000
00000000
00000010
00001000
00000010
00000000
00000100
00000001
00000100
00000000
00001000
00000100
,
00001000
00000000
00010000
00001000
00010000
00000000
00001000
01000000
00010000
01000000
00001000
00000000
00010000
00000000
00001000
00000000
,
01000000
00100000
10000000
01000000
00100000
00000100
00001000
00000010
,
00000100
00000000
00000001
00000000
00001100
00000000
00000000
00000000
01000100
00000000
01000000
00000000
00001000
00000000
01000000
00100000
,
01000000
00000000
00100000
00000000
10000000
00000000
00010000
01000000
00000000
00100000
10000000
00010000
00100000
00000000
01000000
00000000
,
00100000
00000000
00001000
00000000
00010000
00000000
00001000
01000000
00000000
00001000
00000000
00010000
00000010
00000000
00001000
00000000
,
00000100
00000000
00000010
00000000
00000100
00000000
00010000
00001000
00000000
00010000
00000010
00001000
00000010
00000000
00000100
00000000
,
00000010
00000000
00010000
00001000
00000000
00000000
01000000
00000000
00100000
00000000
10000000
00000000
01000000
00000000
10010000
00000000
,
00100000
00000000
00010000
10000000
00100000
00000000
01000000
00002000
00000000
00000000
00010000
00000000
00010000
00000000
00013000
00000000
,
00000100
00000000
00010000
00000100
00001000
00000000
00000010
00020000
00000000
00000000
00001000
00000000
00001000
00000000
00031000
00000000
,
00000010
00000000
00000001
00001000
00000010
00000000
00000100
00000002
00000000
00000000
00001000
00000000
00001000
00000000
00001003
00000000
,
00000100
00000000
00010000
00001000
00000000
00000000
01000000
00000000
00100000
00000000
10000000
00000000
01000000
00000000
00100000
00000000
,
00010000
00000000
10000000
00000000
00100000
00000000
01000000
00010000
00000000
01000000
00001000
00010000
00000010
00000000
00001000
00000000
,
00000001
00000000
00000010
00000000
00000100
00000000
00010000
00000010
00000000
00000100
00000000
00000010
00001000
00000000
00000100
00000000
,
01000000
00000000
00100000
00000000
10000000
00000000
00010000
10000000
00000000
01000000
00100000
00001000
00010000
00000000
00000100
00000000
,
00000010
00000000
00000100
00001000
00000000
00000000
00000010
00000000
00000100
00000000
00000001
00000000
00001000
00000000
00000110
00000000
,
00000001
00000000
00000000
00000000
00001100
00000000
00000000
00000000
01000100
00000000
00000000
00000000
00010000
01000000
00001000
00010000
,
00000010
00000000
00000000
00000000
;

//---------------dance-single - J. Frederick----------------
#NOTES:
     dance-single:
     J. Frederick:
     Beginner:
     1:
     0.087,0.097,0.046,0.000,0.000,61.000,5.000,0.000,0.000,0.000,0.000,0.087,0.097,0.046,0.000,0.000,61.000,5.000,0.000,0.000,0.000,0.000:
0000
0000
0000
0000
,
0000
0000
0000
0000
,
0000
0000
0000
0000
,
0000
0000
0000
0000
,
0000
0000
0000
0000
,
1000
0000
0000
0000
,
0000
0000
0000
0000
,
0001
0000
0000
0000
,
0000
0000
0000
0000
,
0100
0000
0000
0000
,
0010
0000
0000
0000
,
1000
0000
0000
0000
,
0001
0000
0000
0000
,
0110
0000
0000
0000
,
1001
0000
0000
0000
,
1000
0000
0000
0000
,
0001
0000
0000
0000
,
0100
0000
0000
0000
,
0010
0000
0000
0000
,
1000
0000
0000
0000
,
0001
0000
0000
0000
,
0010
0000
0000
0000
,
0100
0000
0000
0000
,
1000
0000
0000
0000
,
0001
0000
0000
0000
,
0100
0000
0000
0000
,
0010
0000
0000
0000
,
1000
0000
0000
0000
,
1001
0000
0000
0000
,
0001
0000
0000
0000
,
0100
0000
0000
0000
,
0010
0000
0000
0000
,
1000
0000
0000
0000
,
0001
0000
0000
0000
,
0100
0000
0000
0000
,
0010
0000
0000
0000
,
1000
0000
0000
0000
,
0001
0000
0000
0000
,
0000
0000
0000
0000
,
1000
0000
0000
0000
,
0010
0000
0000
0000
,
0110
0000
0000
0000
,
0100
0000
0000
0000
,
1000
0000
0000
0000
,
0001
0000
0000
0000
,
0100
0000
0000
0000
,
0010
0000
0000
0000
,
1000
0000
0000
0000
,
0001
0000
0000
0000
,
0100
0000
0000
0000
,
0010
0000
0000
0000
,
1000
0000
0000
0000
,
0001
0000
0000
0000
,
0100
0000
0000
0000
,
0010
0000
0000
0000
,
0100
0000
0000
0000
,
1000
0000
0000
0000
,
0001
0000
0000
0000
,
0000
0000
0000
0000
,
1000
0000
0000
0000
,
0000
0000
0000
0000
,
0010
0000
0000
0000
,
0100
0000
0000
0000
,
1000
0000
0000
0000
,
0001
0000
0000
0000
,
0100
0000
0000
0000
,
0010
0000
0000
0000
,
1000
0000
0000
0000
,
0001
0000
0000
0000
,
0100
0000
0000
0000
,
1001
0000
0000
0000
;

//---------------dance-single - J. Frederick----------------
#NOTES:
     dance-single:
     J. Frederick:
     Easy:
     4:
     0.298,0.292,0.046,0.260,0.000,192.000,5.000,28.000,0.000,0.000,0.000,0.298,0.292,0.046,0.260,0.000,192.000,5.000,28.000,0.000,0.000,0.000:
0000
0000
0000
0000
,
0000
0000
0000
0000
,
0000
0000
0000
0000
,
2002
0000
0000
0000
,
0000
0000
0000
3003
,
1000
0001
0100
0000
,
0010
0000
1000
0000
,
0001
0010
0100
0000
,
1000
0000
0010
0000
,
0100
0010
0100
0010
,
1000
0001
1000
0001
,
0010
0001
0010
0001
,
1000
0100
1000
0100
,
0220
0000
0000
0330
,
2002
0000
0000
3003
,
1000
0001
1000
0000
,
0010
0100
0010
0000
,
1000
0010
1000
0000
,
0002
0003
2000
3000
,
0010
0100
0001
0000
,
0010
0100
1000
0000
,
0010
0100
0001
0000
,
0020
0030
0200
0300
,
1000
0001
1000
0001
,
1000
0010
1000
0010
,
0100
0001
0100
0001
,
0010
0001
0010
0001
,
1000
0001
0100
0010
,
0220
0000
0000
0330
,
2000
0000
0000
3000
,
0002
0000
0000
0003
,
0020
0000
0000
0030
,
0200
0000
0000
0300
,
1000
0010
0000
0100
,
0001
0010
0000
0100
,
1000
0010
0000
0100
,
0001
1000
0000
0001
,
0200
0300
0020
0030
,
1000
0001
0010
0000
,
0002
0003
0200
0300
,
0010
1000
0000
0001
0000
0010
0100
0000
,
1000
0010
0100
0001
,
0010
0001
2000
3000
,
0001
0100
0010
1000
,
0010
0100
0002
0003
,
0010
0100
1000
0100
,
0010
0100
2000
3000
,
0010
0100
0001
0010
,
0001
1000
0020
0030
,
0100
0010
1000
0010
,
0100
0001
0020
0030
,
0001
0100
0001
1000
,
0010
0100
0002
0003
,
0010
0100
1000
0100
,
0010
0100
2000
3000
,
0010
0100
0010
1000
,
0001
0010
0002
0003
,
0100
0010
1000
0000
,
0001
0100
0001
0000
,
0010
0100
1000
0000
,
0010
0000
0100
0000
,
0001
0010
0100
0000
,
1000
0010
0000
0000
,
0001
0010
0100
0000
,
1000
0000
0010
0000
,
0100
0010
1000
0000
,
0001
0010
0100
0000
,
1000
0100
0010
0000
,
0001
0000
1000
0000
,
0001
1000
0010
0000
,
0110
0000
0000
0000
;

//---------------dance-single - J. Frederick----------------
#NOTES:
     dance-single:
     J. Frederick:
     Medium:
     6:
     0.456,0.519,0.232,0.083,0.000,310.000,25.000,9.000,0.000,0.000,0.000,0.456,0.519,0.232,0.083,0.000,310.000,25.000,9.000,0.000,0.000,0.000:
0000
0000
0000
0000
,
0000
0000
0000
0000
,
0000
0000
0000
0000
,
2002
0000
0000
0000
0000
0000
0000
3003
,
0220
0000
0000
0000
0000
0000
0000
0330
,
0010
1000
0010
0000
0010
0000
0100
0000
,
0001
0000
0010
0000
0100
1000
0100
0000
,
0010
0001
0100
0010
,
1000
0000
0010
0000
0100
0001
0100
0000
,
0001
0110
1000
1100
,
0010
0000
0011
0000
0100
0001
0100
0000
,
0001
0101
1000
1010
,
0100
0000
0110
0000
1000
0010
0100
0001
,
0010
0100
1000
0100
,
0220
0000
0000
0330
,
1000
0010
1000
0000
0010
0000
0100
0000
,
0001
0010
0001
0000
1000
0000
0001
0000
,
0100
0010
0100
0000
0010
0000
1000
0000
,
0100
0010
0001
0100
,
0001
1000
0001
0000
0100
0000
0010
0000
,
1000
0010
1000
0000
0010
0000
0100
0000
,
0001
0010
0100
0000
1000
0000
0100
0000
,
0010
0001
0100
0001
,
1000
1010
0101
0010
,
0100
1100
0011
0100
,
0001
1001
0110
1000
,
0010
0100
0001
0000
0010
0000
0100
0000
,
1000
0010
0010
0010
,
0220
0000
0000
0330
,
1000
0010
0100
0010
,
1000
0100
0010
0001
,
0100
0001
1000
0010
,
0100
0010
1000
0001
,
0010
0001
0011
0000
1000
0100
1100
0000
,
0010
0100
0110
0000
1000
0001
1001
0000
,
0100
0010
0110
0000
1000
0010
1010
0000
,
0100
0001
0101
0000
0010
0100
0110
0000
,
1000
0100
0010
0001
0010
0000
0100
0000
,
1000
0010
0100
0001
0010
0000
0001
0000
,
1000
0001
0010
0100
1000
0000
0100
0000
,
0010
0100
0000
1000
0000
0010
0100
0000
,
0001
0010
0100
0000
1000
0000
0100
0010
,
0000
0010
0001
0000
0100
0000
0001
0000
,
1000
0010
0100
0000
0001
0000
0010
0100
,
0000
0100
1000
0000
0010
0000
0100
0000
,
0001
0010
0001
0000
1000
0000
0010
0100
,
0000
0100
0001
0000
0010
0000
0100
0000
,
1000
0100
0010
0000
0001
0000
0100
0001
,
0000
0001
1000
0000
0010
0000
0100
0000
,
0010
1000
0010
0000
0100
0000
0001
0010
,
0000
0010
0100
0000
1000
0000
0100
0000
,
0010
0001
0100
0000
0001
0000
1000
0010
,
0000
0010
0100
0000
0001
0000
0010
0000
,
0100
1000
0100
0000
0010
0000
0001
0100
,
0000
0100
0001
0000
0010
0000
0100
0000
,
1000
0010
0100
0000
0001
0000
0010
0001
,
0000
0001
1000
0000
0010
0000
0100
0000
,
0010
1000
0010
0000
0100
0000
0001
0000
,
0010
0100
0010
0000
0100
0000
1000
0000
,
0010
0100
0001
0000
0010
0000
0001
0000
,
1000
0001
1000
0001
,
0100
0001
0100
0000
0010
0000
1000
0000
,
0010
0100
0001
0000
0010
0000
0100
0000
,
1000
0100
1000
0000
0100
0000
0010
0000
,
0001
0100
0010
1000
,
0010
0100
0001
0000
0010
0000
0001
0000
,
1000
0010
0100
0000
0001
0000
0010
0000
,
0001
0010
0100
0000
1000
0000
0100
0000
,
0010
0001
0100
0010
,
2000
0000
0010
0000
0001
0000
0010
3000
,
1001
0000
0000
0000
;
