#TITLE:Heel and Toe;
#SUBTITLE:;
#ARTIST:KURi-ZiLL;
#TITLETRANSLIT:;
#SUBTITLETRANSLIT:;
#ARTISTTRANSLIT:;
#GENRE:Synthtrance;
#CREDIT:;
#BANNER:Heel and Toe-bn.png;
#BACKGROUND:Heel and Toe-bg.png;
#LYRICSPATH:;
#CDTITLE:;
#MUSIC:Heel and Toe.ogg;
#OFFSET:-0.676;
#SAMPLESTART:33.079;
#SAMPLELENGTH:11.920;
#SELECTABLE:YES;
#BPMS:0.000=185.010;
#STOPS:;
#BGCHANGES:-1.530=Heel and Toe.mpg=1.000=1=0=0=StretchNoLoop==CrossFade==,
99999=-nosongbg-=1.000=0=0=0 // don't automatically add -songbackground-;
#KEYSOUNDS:;

//---------------dance-double - M. Emirzian----------------
#NOTES:
     dance-double:
     M. Emirzian:
     Easy:
     4:
     0.307,0.399,0.135,0.000,0.926,224.000,15.000,0.000,0.000,0.000,0.000,0.307,0.399,0.135,0.000,0.926,224.000,15.000,0.000,0.000,0.000,0.000:
00000000
00000000
00000000
00000000
,
00000000
00000000
00000000
00000000
,
00000000
00000000
00000000
00000000
,
00000000
00000000
00000000
00000000
,
10000000
10000000
10000000
00000000
,
01010000
00000000
00100000
00000000
,
01000000
00001000
00010000
00000100
,
00001000
00000000
00000110
00000000
,
00000001
00000001
00000001
00000000
00000110
00000000
00000001
00000000
,
00000100
00000000
00000010
00000000
00000000
00010000
00000000
00000000
00000000
00001000
00000000
00000000
00000000
01000000
00000000
00000000
,
00000000
00000000
00000000
00000000
00000000
01010000
00000000
00000000
00000000
00000000
00000000
00000000
00000000
00100000
00000000
00000000
,
00000000
00100000
00000000
00000000
00000000
00100000
00000000
00000000
00000000
00000000
00000000
00000000
00000000
11000000
00000000
00000000
,
00000000
00000000
00000000
00000000
00000000
00100000
00000000
00000000
00000000
00000000
00000000
00000000
00000000
01000000
00000000
00000000
,
00000000
00001000
00000000
00000000
00000000
00010000
00000000
00000000
00000000
00000100
00000000
00000000
00000000
00001000
00000000
00000000
,
00000000
00000000
00000000
00000000
00000000
00000010
00000000
00000000
00000000
00000010
00000000
00000000
00000000
00000010
00000000
00000000
,
00000000
00000100
00000000
00000000
00000000
00000001
00000000
00000000
00000000
00000100
00000000
00000000
00000000
00000010
00000000
00000000
,
00000000
00000000
00000000
00000000
00000000
00001000
00000000
00000000
00000000
00000100
00000000
00000000
00000000
00001000
00000000
00000000
,
00000000
00000010
00000000
00000000
00000000
00001000
00000000
00000000
00000000
00000100
00000000
00000000
00000000
00010000
00000000
00000000
,
00000000
00000000
00000000
00000000
00000000
00001000
00000000
00000000
00000000
00010000
00000000
00000000
00000000
00000100
00000000
00000000
,
00000000
00000000
00000000
00000000
00000000
00010000
00000000
00000000
00000000
00000000
00000000
00000000
00000000
00011000
00000000
00000000
,
00000000
00000000
00000000
00000000
00000000
01000000
00000000
00000000
00000000
00000000
00000000
00000000
00000000
00100000
00000000
00000000
,
00000000
00010000
00000000
00000000
00000000
01000000
00000000
00000000
00000000
00000000
00000000
00000000
00000000
00100000
00000000
00000000
,
00000000
10000000
00000000
00000000
00000000
01000000
00000000
00000000
00000000
00000000
00000000
00000000
00000000
00100000
00000000
00000000
,
00000000
00010000
00000000
00000000
00000000
01000000
00000000
00000000
00000000
00001000
00000000
00000000
00000000
00010000
00000000
00000000
,
00000000
00000000
00000000
00000000
00000000
00000100
00000000
00000000
00000000
00001000
00000000
00000000
00000000
00000100
00000000
00000000
,
00000000
00000010
00000000
00000000
00000000
00000001
00000000
00000000
00000000
00000100
00000000
00000000
00000000
00000001
00000000
00000000
,
00000000
00000000
00000000
00000000
00000000
00000100
00000000
00000000
00000000
00001000
00000000
00000000
00000000
00000010
00000000
00000000
,
00000000
00000000
00000000
00000000
00000000
00010000
00000000
00000000
00000000
00000000
00000000
00000000
00000000
00011000
00000000
00000000
,
00000000
00000000
00000000
00000000
00000000
01000000
00000000
00000000
00000000
00000000
00000000
00000000
00000000
00001000
00000000
00000000
,
00000000
00010000
00000000
00000000
00000000
00000010
00000000
00000000
00000000
00000000
00000000
00000000
00000000
00010000
00000000
00000000
,
00000000
00000000
00000000
00000000
00000000
00001000
00000000
00000000
00000000
00000000
00000000
00000000
00000000
01000000
00000000
00000000
,
00000000
00100000
00000000
00000000
00000000
10000000
00000000
00000000
00000000
00000000
00000000
00000000
00000000
01000000
00000000
00000000
,
00000000
00100000
00000000
00000000
00000000
00010000
00000000
00000000
00000000
01000000
00000000
00000000
00000000
00001000
00000000
00000000
,
00000000
00000000
00000000
00000000
00000000
00010000
00000000
00000000
00000000
00000000
00000000
00000000
00000000
00001000
00000000
00000000
,
00000000
00010000
00000000
00000000
00000000
00000100
00000000
00000000
00000000
00001000
00000000
00000000
00000000
00000010
00000000
00000000
,
00000000
00000000
00000000
00000000
00000000
00001000
00000000
00000000
00000000
00000000
00000000
00000000
00000000
00000100
00000000
00000000
,
00000000
00000010
00000000
00000000
00000000
00000001
00000000
00000000
00000000
00000000
00000000
00000000
00000000
00000100
00000000
00000000
,
00000000
00000010
00000000
00000000
00000000
00001000
00000000
00000000
00000000
00000000
00000000
00000000
00000000
00000100
00000000
00000000
,
00000000
00010000
00000000
00000000
00000000
00001000
00000000
00000000
00000000
00000000
00000000
00000000
00000000
00010000
00000000
00000000
,
00000000
00001000
00000000
00000000
00000000
00000000
00000000
00000000
00000000
00001000
00000000
00000000
00000000
01000000
00000000
00000000
,
00000000
00010000
00000000
00000000
00000000
00100000
00000000
00000000
00000000
00000000
00000000
00000000
00000000
01000000
00000000
00000000
,
00000000
10000000
00000000
00000000
00000000
00000000
00000000
00000000
00000000
10000000
00000000
00000000
00000000
00010000
00000000
00000000
,
00000000
01000000
00000000
00000000
00000000
00100000
00000000
00000000
00000000
00000000
00000000
00000000
00000000
01000000
00000000
00000000
,
00000000
00000000
00000000
00000000
00000000
00001000
00000000
00000000
00000000
00000000
00000000
00000000
00000000
00010000
00000000
00000000
,
00000000
00000100
00000000
00000000
00000000
00001000
00000000
00000000
00000000
00000000
00000000
00000000
00000000
00000010
00000000
00000000
,
00000000
00000000
00000000
00000000
00000000
00001000
00000000
00000000
00000000
00000000
00000000
00000000
00000000
00000100
00000000
00000000
,
00000000
00000010
00000000
00000000
00000000
00000001
00000000
00000000
00000000
00000100
00000000
00000000
00000000
00000010
00000000
00000000
,
00000000
00001000
00000000
00000000
00000000
00000000
00000000
00000000
00000000
00001000
00000000
00000000
00000000
00000100
00000000
00000000
,
00000000
00010000
00000000
00000000
00000000
00001000
00000000
00000000
00000000
00000000
00000000
00000000
00000000
00010000
00000000
00000000
,
00000000
00001000
00000000
00000000
00000000
00000000
00000000
00000000
00000000
00001000
00000000
00000000
00000000
00100000
00000000
00000000
,
00000000
00010000
00000000
00000000
00000000
01000000
00000000
00000000
00000000
00000000
00000000
00000000
00000000
00100000
00000000
00000000
,
00000000
00000000
00000000
00000000
00000000
10000000
00000000
00000000
00000000
00000000
00000000
00000000
00000000
01000000
00000000
00000000
,
00000000
01000000
00000000
00000000
00000000
01000000
00000000
00000000
00000000
00000000
00000000
00000000
00000000
00100000
00000000
00000000
,
00000000
00000000
00000000
00000000
00000000
00001000
00000000
00000000
00000000
00000000
00000000
00000000
00000000
00010000
00000000
00000000
,
00000000
00000100
00000000
00000000
00000000
00010000
00000000
00000000
00000000
00001000
00000000
00000000
00000000
00010000
00000000
00000000
,
00000000
00000010
00000000
00000000
00000000
00000000
00000000
00000000
00000000
00000010
00000000
00000000
00000000
00001000
00000000
00000000
,
00000000
00000100
00000000
00000000
00000000
00000010
00000000
00000000
00000000
00000000
00000000
00000000
00000000
00000001
00000000
00000000
,
00000000
00001000
00000000
00000000
00000000
00000000
00000000
00000000
00000000
00001000
00000000
00000000
00000000
00000100
00000000
00000000
,
00000000
00000010
00000000
00000000
00000000
00000001
00000000
00000000
00000000
00000000
00000000
00000000
00000000
00000100
00000000
00000000
,
00000000
00000000
00000000
00000000
00000000
00000010
00000000
00000000
00000000
00000000
00000000
00000000
00000000
00010000
00000000
00000000
,
00000000
00010000
00000000
00000000
00000000
00010000
00000000
00000000
00000000
00000000
00000000
00000000
00000000
00001000
00000000
00000000
,
00000000
00000000
00000000
00000000
00000000
01000000
00000000
00000000
00000000
00000000
00000000
00000000
00000000
00100000
00000000
00000000
,
00000000
10000000
00000000
00000000
00000000
01000000
00000000
00000000
00000000
00000000
00000000
00000000
00000000
00100000
00000000
00000000
,
00000000
00010000
00000000
00000000
00000000
01000000
00000000
00000000
00000000
00000000
00000000
00000000
00000000
00100000
00000000
00000000
,
00000000
00000000
00000000
00000000
00000000
01010000
00000000
00000000
00000000
00000000
00000000
00000000
00000000
00100000
00000000
00000000
,
00000000
00100000
00000000
00000000
00000000
00100000
00000000
00000000
00000000
00000000
00000000
00000000
00000000
00011000
00000000
00000000
,
00000000
00000000
00000000
00000000
00000000
00000100
00000000
00000000
00000000
00000000
00000000
00000000
00000000
00010000
00000000
00000000
,
00000000
00000010
00000000
00000000
00000000
00001000
00000000
00000000
00000000
00000100
00000000
00000000
00000000
00001000
00000000
00000000
,
00000000
00000000
00000000
00000000
00000000
00001010
00000000
00000000
00000000
00000000
00000000
00000000
00000000
00000001
00000000
00000000
,
00000000
00000100
00000000
00000000
00000000
00000010
00000000
00000000
00000000
00000000
00000000
00000000
00000000
00001010
00000000
00000000
,
00000000
00000000
00000000
00000000
00000000
00010000
00000000
00000000
00000000
00000000
00000000
00000000
00000000
00001000
00000000
00000000
,
00000000
00010000
00000000
00000000
00000000
00001000
00000000
00000000
00000000
01000000
00000000
00000000
00000000
00010000
00000000
00000000
,
00000000
00000000
00000000
00000000
00000000
10000000
00000000
00000000
00000000
01000000
00000000
00000000
00000000
00100000
00000000
00000000
,
00000000
00010000
00000000
00000000
00000000
00100000
00000000
00000000
00000000
00000000
00000000
00000000
00000000
00101000
00000000
00000000
,
00000000
00000000
00000000
00000000
00000000
00010000
00000000
00000000
00000000
00000000
00000000
00000000
00000000
00000010
00000000
00000000
,
00000000
00010000
00000000
00000000
00000000
00001000
00000000
00000000
00000000
00000100
00000000
00000000
00000000
00000001
00000000
00000000
,
00000000
00000000
00000000
00000000
00000000
00001010
00000000
00000000
00000000
00000000
00000000
00000000
00000000
00000100
00000000
00000000
,
00000000
00000100
00000000
00000000
00000000
00000100
00000000
00000000
00000000
00000000
00000000
00000000
00000000
00010100
00000000
00000000
,
00000000
00000000
00000000
00000000
00000000
00001000
00000000
00000000
00000000
00000000
00000000
00000000
00000000
00010000
00000000
00000000
,
00000000
00001000
00000000
00000000
00000000
01000000
00000000
00000000
00000000
00010000
00000000
00000000
00000000
10000000
00000000
00000000
,
00000000
00000000
00000000
00000000
00000000
11000000
00000000
00000000
00000000
00000000
00000000
00100000
00000000
00000000
00000000
00000000
;

//---------------dance-double - M. Emirzian----------------
#NOTES:
     dance-double:
     M. Emirzian:
     Medium:
     7:
     0.200,0.363,0.036,0.000,0.598,152.000,4.000,0.000,0.000,0.000,0.000,0.200,0.363,0.036,0.000,0.598,152.000,4.000,0.000,0.000,0.000,0.000:
00000000
00000000
00000000
00000000
,
00000000
00000000
00000000
00000000
,
00000000
00000000
00000000
00000000
,
00000000
00000000
00000000
00000000
,
10000000
10000000
10000000
00000000
,
10000000
00000000
00000000
10000000
00000000
00000000
10000000
00000000
,
10000000
00000000
00000000
10000000
00000000
00000000
10000000
00000000
,
00000000
10000000
00000000
10000000
10000000
00000000
10000000
00000000
,
10000000
00000000
10000000
00000000
10000000
00000000
00000000
00000000
10000000
00000000
00000000
10000000
00000000
00000000
10000000
00000000
,
10000000
00000000
00000000
10000000
00000000
00000000
00000000
00000000
00000000
10000000
00000000
00000000
00000000
00000000
00000000
10000000
,
00000000
00000000
00000000
10000000
00000000
10000000
00000000
00000000
00000000
10000000
00000000
00000000
00000000
10000000
00000000
00000000
,
00000000
10000000
00000000
00000000
00000000
10000000
00000000
00000000
00000000
00000000
00000000
00000000
00000000
10000000
00000000
00000000
,
00000000
00000000
00000000
10000000
00000000
00000000
00000000
00000000
00000000
10000000
00000000
00000000
00000000
10000000
00000000
00000000
,
00000000
00000000
00000000
10000000
00000000
00000000
00000000
00000000
00000000
10000000
00000000
00000000
00000000
00000000
00000000
10000000
,
00000000
00000000
00000000
10000000
00000000
10000000
00000000
00000000
00000000
10000000
00000000
00000000
00000000
10000000
00000000
00000000
,
00000000
10000000
00000000
10000000
00000000
00000000
00000000
10000000
00000000
00000000
00000000
10000000
00000000
00000000
00000000
00000000
,
00000000
00000000
00000000
10000000
00000000
10000000
00000000
00000000
00000000
10000000
00000000
00000000
00000000
10000000
00000000
00000000
,
00000000
10000000
00000000
10000000
00000000
00000000
00000000
10000000
00000000
00000000
00000000
10000000
00000000
00000000
00000000
00000000
,
00000000
00000000
00000000
00000000
00000000
00000000
00000000
10000000
00000000
10000000
00000000
00000000
00000000
10000000
00000000
00000000
,
00000000
00000000
00000000
10000000
00000000
00000000
00000000
00000000
00000000
10000000
00000000
00000000
00000000
10000000
00000000
00000000
,
00000000
00000000
00000000
00000000
00000000
10010000
00000000
00000000
00000000
00000000
00000000
00000000
00000000
10000000
00000000
00000000
,
00000000
00000000
00000000
10010000
00000000
00000000
00000000
00000000
00000000
00000000
00000000
00000000
00000000
10000000
00000000
10000000
,
00000000
00000000
00000000
10000000
00000000
00000000
00000000
10000000
00000000
00000000
00000000
00000000
00000000
10000000
00000000
00000000
,
00000000
10000000
00000000
10000000
00000000
00000000
00000000
10000000
00000000
00000000
00000000
10000000
00000000
00000000
00000000
00000000
,
00000000
00000000
00000000
10000000
00000000
10000000
00000000
00000000
00000000
10000000
00000000
00000000
00000000
10000000
00000000
00000000
,
00000000
10000000
00000000
10000000
00000000
00000000
00000000
10000000
00000000
00000000
00000000
10000000
00000000
00000000
00000000
00000000
,
00000000
00000000
00000000
00000000
00000000
00000000
00000000
10000000
00000000
10000000
00000000
00000000
00000000
10000000
00000000
00000000
,
00000000
00000000
00000000
10000000
00000000
00000000
00000000
00000000
00000000
10000000
00000000
00000000
00000000
10000000
00000000
00000000
,
00000000
00000000
00000000
00000000
00000000
10010000
00000000
00000000
00000000
00000000
00000000
00000000
00000000
10000000
00000000
00000000
,
00000000
00000000
00000000
10010000
00000000
00000000
00000000
00000000
00000000
00000000
00000000
00000000
00000000
10000000
00000000
10000000
,
00000000
00000000
00000000
10000000
00000000
00000000
00000000
00000000
00000000
00000000
00000000
00000000
00000000
10000000
00000000
00000000
,
00000000
10000000
00000000
00000000
00000000
10000000
00000000
00000000
00000000
00000000
00000000
00000000
00000000
10000000
00000000
00000000
,
00000000
00000000
00000000
10000000
00000000
00000000
00000000
10000000
00000000
10000000
00000000
00000000
00000000
10000000
00000000
00000000
,
00000000
10000000
00000000
10000000
00000000
00000000
00000000
10000000
00000000
00000000
00000000
10000000
00000000
00000000
00000000
00000000
,
00000000
10000000
00000000
00000000
00000000
10000000
00000000
00000000
00000000
10000000
00000000
00000000
00000000
10000000
00000000
00000000
,
00000000
10000000
00000000
10000000
00000000
00000000
00000000
00000000
00000000
00000000
00000000
00000000
00000000
10000000
00000000
10000000
,
00000000
00000000
00000000
10000000
00000000
00000000
00000000
00000000
00000000
10000000
00000000
00000000
00000000
10000000
00000000
00000000
,
00000000
00000000
00000000
10000000
00000000
00000000
00000000
00000000
00000000
00000000
00000000
00000000
00000000
10000000
00000000
00000000
,
00000000
10000000
00000000
00000000
00000000
10000000
00000000
00000000
00000000
00000000
00000000
00000000
00000000
10000000
00000000
00000000
,
00000000
10000000
00000000
00000000
00000000
10000000
00000000
00000000
00000000
00000000
00000000
00000000
00000000
10000000
00000000
00000000
,
00000000
00000000
00000000
10000000
00000000
00000000
00000000
10000000
00000000
10000000
00000000
00000000
00000000
10000000
00000000
00000000
,
00000000
10000000
00000000
10000000
00000000
00000000
00000000
10000000
00000000
00000000
00000000
10000000
00000000
00000000
00000000
00000000
,
00000000
10000000
00000000
00000000
00000000
10000000
00000000
00000000
00000000
10000000
00000000
00000000
00000000
10000000
00000000
00000000
,
00000000
10000000
00000000
10000000
00000000
00000000
00000000
00000000
00000000
00000000
00000000
00000000
00000000
10000000
00000000
10000000
,
00000000
00000000
00000000
10000000
00000000
00000000
00000000
00000000
00000000
10000000
00000000
00000000
00000000
10000000
00000000
00000000
,
00000000
00000000
00000000
10000000
00000000
00000000
00000000
00000000
00000000
10000000
00000000
00000000
00000000
10000000
00000000
00000000
,
00000000
10000000
00000000
00000000
00000000
10000000
00000000
10000000
00000000
10000000
00000000
00000000
00000000
10000000
00000000
00000000
,
00000000
00000000
00000000
00000000
,
00000000
00000000
00000000
00000000
,
00000000
00000000
00000000
00000000
,
00000000
00000000
00000000
00000000
,
00000000
00000000
00000000
00000000
,
00000000
00000000
00000000
00000000
,
00000000
00000000
00000000
00000000
,
00000000
00000000
00000000
00000000
,
00000000
00000000
00000000
00000000
,
00000000
00000000
00000000
00000000
,
00000000
00000000
00000000
00000000
,
00000000
00000000
00000000
00000000
,
00000000
00000000
00000000
00000000
,
00000000
00000000
00000000
00000000
,
00000000
00000000
00000000
00000000
,
00000000
00000000
00000000
00000000
,
00000000
00000000
00000000
00000000
,
00000000
00000000
00000000
00000000
,
00000000
00000000
00000000
00000000
,
00000000
00000000
00000000
00000000
,
00000000
00000000
00000000
00000000
,
00000000
00000000
00000000
00000000
,
00000000
00000000
00000000
00000000
,
00000000
00000000
00000000
00000000
,
00000000
00000000
00000000
00000000
,
00000000
00000000
00000000
00000000
,
00000000
00000000
00000000
00000000
,
00000000
00000000
00000000
00000000
,
00000000
00000000
00000000
00000000
,
00000000
00000000
00000000
00000000
,
00000000
00000000
00000000
00000000
,
00000000
00000000
00000000
00000000
,
00000000
00000000
00000000
00000000
00000000
00000000
00000000
00000000
00000000
10000000
00000000
00000000
00000000
00000000
00000000
10000000
,
00000000
00000000
00000000
00000000
00000000
10000000
00000000
00000000
00000000
00000000
00000000
10000000
00000000
00000000
00000000
00000000
;

//---------------dance-double - M. Emirzian----------------
#NOTES:
     dance-double:
     M. Emirzian:
     Hard:
     8:
     0.000,0.000,0.000,0.000,0.000,0.000,0.000,0.000,0.000,0.000,0.000,0.000,0.000,0.000,0.000,0.000,0.000,0.000,0.000,0.000,0.000,0.000:
00000000
00000000
00000000
00000000
;

//---------------dance-double - W. Smith + S. Hanson----------------
#NOTES:
     dance-double:
     W. Smith + S. Hanson:
     Challenge:
     9:
     0.642,0.868,0.476,0.324,0.072,411.000,53.000,36.000,21.000,3.000,0.000,0.642,0.868,0.476,0.324,0.072,411.000,53.000,36.000,21.000,3.000,0.000:
00000000
00000000
00000000
00000000
,
00000000
00000000
00000000
00000000
,
00000000
00000000
00000000
00000000
,
00000000
00000000
00000000
00000000
00000000
10000000
01000000
00100000
,
00101000
00000000
00010000
00000000
00000100
00000100
00001000
00000000
,
00000010
00000000
00000100
00000001
00000000
00000001
00000010
00000100
,
0001M100
00000000
00000000
01MM1000
00000000
00000000
1MM10000
00000000
,
00000000
00000000
00010000
00000000
00000000
00000000
01000000
00000000
00001000
00100000
00001000
00000000
00010000
00000000
00000000
00000000
,
00011000
00000000
00000100
00000000
00000010
00000010
00000001
00000000
,
00000100
00000000
00000010
00010000
00000000
00010000
00100000
10000000
,
01M10000
00000000
00000000
0001MM10
00000000
00000000
001M1000
00000000
,
00000000
00000000
00000000
00000100
00010000
00001000
00100000
01000000
,
11000000
00000000
10000000
00000000
00100000
00100000
01000000
00000000
,
00001000
00000000
00010000
00000010
00000000
00000010
00001000
00000001
,
00000100
00000010
00000010
00001000
00000100
00000100
00011000
00000000
,
00000000
00000000
1MM10000
00000000
00000000
00000000
00000000
10000000
01000000
00000000
00100000
00000000
00001000
00000000
00010000
00000000
,
00010100
00000100
00010000
00002000
00000000
20003000
00000000
30020000
,
00000000
00000000
00000000
01030000
10000000
01000000
00001000
00100000
,
00010000
00010000
00100000
00000010
00000000
00000101
00000000
00002000
,
00000000
00000000
00000000
00000000
00000000
00003010
00000000
00000001
,
00000010
00000000
00000010
00001000
00000000
00001000
00200000
00000000
,
10000000
00000000
00000000
00000000
00000000
01300000
00100000
00010000
,
00002000
00000000
00000000
00003020
00000000
00000000
00000000
00000000
,
00000031
00001001
00010000
00010010
00000000
00101000
00001000
00010000
,
01000000
00010000
00001000
00000200
00000000
00000302
00000000
00002003
,
00000000
00000000
00000000
00003010
00000100
00000001
00001000
00000100
,
00010000
00010000
00001000
01000000
00000000
00110000
00000000
20000000
,
00000000
00000000
00000000
00000000
00000000
30010000
00010000
10000000
,
01000000
00000000
01000000
00001000
00000000
00001000
00000200
00000000
,
00000010
00000000
00000300
00000100
00000000
00000100
00000010
00000001
,
00001000
00001000
00000100
00010000
00000000
00010000
00001000
01000000
,
00000000
01000000
00010000
01MM1000
00000000
00001000
01000000
00100000
,
10200000
00000000
00000000
00320000
00000000
00000010
00000000
00000100
,
00000000
00000000
00000000
00030002
00000000
00000013
00000100
00010000
,
00001000
00001000
00100000
00010000
00000000
10010000
00000000
02000000
,
00000000
00000000
00000000
00000000
00000000
03100000
00010000
00001000
,
00100000
00000000
00100000
00002000
00000000
00000000
00000000
00000000
,
00010000
00013000
00000000
00001010
00000000
00010000
00001000
00000100
,
00000110
00000010
00001000
00000002
00000000
00000010
00000000
00010000
,
00000000
00001000
00000000
00000100
00000000
00000000
00000013
00000100
,
00002100
00000000
00000000
02003000
00000000
00010000
00000000
00100000
,
00000000
00000000
13000000
01000000
00000000
01000000
00100000
00010000
,
00100000
00100000
00000100
00001000
00000000
00001001
00000000
00000020
,
00000000
00000130
00000001
00002000
00000000
00000000
00000000
00003100
,
00010000
00010000
00001000
00100000
00000000
00100000
01000000
00000000
,
00000000
0M11M000
00000000
00M11M00
00000000
000M11M0
00000000
00001000
,
00000001
00000010
00000001
00001000
00000000
00001000
00000010
00000100
,
00000001
00000100
00000010
00001000
00000010
00010000
00001000
00010000
00000100
00001000
00000100
00000010
00000001
00001000
00000010
00001000
,
00000100
00010000
00001000
00000100
00000000
00000101
00000000
00000011
,
00000000
00000110
00000000
00010100
00000000
01000000
00001000
00010000
,
00001000
00001000
00010000
00100000
00000000
10100000
00000000
20010000
,
00000000
00000000
00000000
31000000
00000000
01000000
00100000
00001000
,
00000020
00000000
00000000
00000230
00000000
00000000
00000000
00000000
,
00000000
00000000
00010300
00000010
00000000
00000010
00010000
00001000
,
01000000
01000000
00100000
10000000
00000000
01010000
00000000
00101000
,
00000000
00000000
00011000
00000000
00000000
00000000
00010010
00000000
00000000
00000000
00001000
00000000
00000010
00000000
00000010
00000100
,
00000001
00000001
00000010
00000100
00000000
00010100
00000000
00011000
,
00000000
01001000
00000000
01010000
00000000
00010000
00100000
01000000
,
10000000
10000000
00100000
01000000
00000000
01001000
00000000
00012000
,
00000000
00000000
00000000
00003100
00000000
00000100
00000001
00000010
,
00001000
00001000
00010000
01000000
00000000
11000000
00000000
10010000
,
00000000
01010000
00000000
01001000
00000000
00001000
00010000
00000100
,
00020000
00100000
10000000
01000000
,
00001000
00000010
00000001
00000100
,
01000000
00000000
10000000
00000000
00100000
00000000
00001000
00030000
,
00010000
00000010
00010000
00000000
00001000
00000000
00100000
00001000
00100000
00000000
00001000
00000000
00010000
00001000
00010000
00001000
,
00010000
00000000
00000100
00000000
00010000
00010000
00000010
00000000
,
00000100
00000000
00000001
00000010
00000000
00000010
00001000
00010000
,
00200000
00000000
00000000
02000000
00000000
00000000
00010000
00000000
,
03300000
00000000
00000000
00000000
00000000
00001000
01000000
00010000
,
01100000
00000000
10000000
00000000
01000000
01000000
00100000
00000000
,
00010000
00000000
01000000
00000100
00000000
00000100
00001000
00000010
,
00020000
00000000
00000000
00002000
00000000
00000000
00100000
00000000
,
00033000
00000000
00001000
00000000
00000000
00000000
00001000
00000000
00010000
00000100
00010000
00000000
00001000
00000000
00000000
00000000
,
00101000
00000000
00100000
00000000
01000000
01000000
10000000
00000000
,
00100000
00000000
01000000
00001000
00000000
00001000
00010000
00000100
,
00000010
00000001
00000002
00000200
00000000
00000000
00000010
00000000
,
00000303
00000000
00000000
00000100
00000010
00010000
00000100
00001000
,
00001001
00000000
00000001
00000000
00000100
00000100
00000010
00000000
,
00010000
00000000
00001000
01000000
00000000
01000000
00010000
10000000
,
00100000
01000000
01000000
00010000
00100000
00100000
0001M100
00000000
,
00000000
00001M10
00000000
00000010
00000200
00000000
00001300
00002002
,
00000000
00000000
00000000
00000000
,
00000000
00000000
00000000
00000000
,
00003003
00000000
00000000
00000000
;

//---------------dance-single - J. Frederick----------------
#NOTES:
     dance-single:
     J. Frederick:
     Beginner:
     1:
     0.078,0.108,0.054,0.000,0.000,55.000,6.000,0.000,0.000,0.000,0.000,0.078,0.108,0.054,0.000,0.000,55.000,6.000,0.000,0.000,0.000,0.000:
0000
0000
0000
0000
,
0000
0000
0000
0000
,
0000
0000
0000
0000
,
0000
0000
0000
0000
,
0000
0001
0000
0000
,
0000
0000
0000
0000
,
0000
0100
0000
0000
,
0000
0000
0000
0000
,
0000
0010
0000
0000
,
0000
1000
0000
0000
,
0000
0000
0000
0000
,
0001
0000
0000
0000
,
0000
0000
0000
0010
,
0000
0000
0000
0000
,
0000
0000
0000
1001
,
0000
0000
0000
0000
,
0000
0000
0000
0100
,
0000
0000
0000
0000
,
0000
0000
0000
0010
,
0000
0000
0000
0000
,
0000
0000
0000
1000
,
0000
0000
0000
0000
,
0000
0000
0000
0001
,
0000
0000
0000
0000
,
0000
0000
0000
0100
,
0000
0000
0000
0000
,
0000
0000
0000
0010
,
0000
0000
0000
0000
,
0000
0000
0000
1001
,
0000
0000
0000
0000
,
0000
0000
0000
0100
,
0000
0000
0000
0000
,
0000
0000
0000
0010
,
0000
0000
0000
0000
,
0000
0000
0000
1000
,
0000
0000
0000
0000
,
0000
0000
0000
0001
,
0000
0000
0000
0000
,
0000
0000
0000
0100
,
0000
0000
0000
0000
,
0000
0000
0000
0010
,
0000
0000
0000
0000
,
0000
0000
0000
1000
,
0000
0000
0000
0000
,
0000
0000
0000
0001
,
0000
0000
0000
0000
,
0000
0000
0000
0100
,
0000
0000
0000
0010
,
0000
0000
0000
1000
,
0000
0000
0000
0001
,
0000
0000
0000
0010
,
0000
0000
0000
0100
,
0000
0000
0000
1000
,
0000
0000
0000
0001
,
0000
0000
0000
1001
,
0000
0000
0000
0100
,
0000
0000
0000
0010
,
0000
0000
0000
1000
,
0000
0000
0000
0001
,
0000
0000
0000
0100
,
0000
0000
0000
0110
,
0000
0000
0000
0000
,
0000
0000
0000
1000
,
0000
0000
0000
0001
,
0000
0000
0000
1001
,
0000
0000
0000
0100
,
0000
0000
0000
0010
,
0000
0000
0000
1000
,
0000
0000
0000
0001
,
0000
0000
0000
0010
,
0000
0000
0000
0100
,
0000
0000
0000
1000
,
0000
0000
0000
1001
,
0000
0000
0000
0100
,
0000
0000
0000
0010
,
0000
0000
0000
1000
,
0000
0000
0000
0001
,
0000
0000
0000
0100
,
0000
0000
0000
0010
,
0000
0000
0000
1000
;

//---------------dance-single - J. Frederick----------------
#NOTES:
     dance-single:
     J. Frederick:
     Easy:
     3:
     0.272,0.409,0.243,0.090,0.000,175.000,27.000,10.000,0.000,1.000,0.000,0.272,0.409,0.243,0.090,0.000,175.000,27.000,10.000,0.000,1.000,0.000:
0000
0000
0000
0000
,
0000
0000
0000
0000
,
0000
0000
0000
0000
,
0000
0000
0000
0000
,
1000
0000
0001
0000
,
0010
0000
0100
0000
,
1000
0000
0100
0000
,
0010
0000
0001
0000
,
1001
0100
0010
1000
,
0110
0001
0000
1000
,
0000
0001
1000
0001
,
0000
1000
0000
0010
,
0000
0100
0000
0001
,
0000
0010
0000
0110
,
0110
0110
0110
1000
,
0100
1000
0100
1000
,
0100
1000
0000
0001
,
0100
0001
0100
0001
,
0000
0100
0000
0010
,
0100
0010
0100
0010
,
0000
0010
0000
1000
,
0001
1000
0001
1000
,
0000
1000
0000
1100
,
0000
0011
0000
0100
,
0010
0100
0000
1001
,
0000
0110
0000
1000
,
0001
1000
0000
0010
,
0000
0100
0000
0010
,
0000
0100
0000
2002
,
0000
0000
0000
0000
,
0000
0000
3003
0010
,
0000
0100
0000
1000
,
0000
0100
0010
0001
,
0000
0100
0000
0001
,
0000
1000
0001
1000
,
0000
0001
0000
1000
,
0000
0001
0000
2002
,
0000
0000
0000
0000
,
0000
0000
3003
0100
,
0000
0010
0000
1000
,
0000
0010
0100
0010
,
0000
0100
0000
0001
,
0000
0010
0100
1000
,
0000
0100
0000
0010
,
0000
0001
0100
0001
,
0000
1000
0000
2002
,
0000
0000
0000
3103
,
0000
0010
0000
1000
,
0000
0010
0100
0010
,
0000
1000
0000
0001
,
0000
0010
0001
0010
,
0000
0100
0000
1000
,
0000
0100
0010
0100
,
0000
1000
0000
0010
,
0000
0100
0010
0110
,
0000
1000
0000
0001
,
0000
0010
0100
1000
,
0000
0100
0000
0010
,
0000
0001
0100
0001
,
0000
1000
0000
0010
,
0000
0100
0001
2002
,
0000
0000
0000
0000
,
0000
0000
3003
0010
,
0000
0100
0000
1000
,
0100
1000
0100
1100
,
0000
0010
0000
0001
,
0000
0100
0000
1001
,
0000
0100
0000
0010
,
0000
1000
0000
1100
,
0000
0001
0000
0010
,
0000
0001
0000
0101
,
0000
1000
0000
0010
,
0000
0100
0000
0110
,
0000
1000
0000
0001
,
0000
0010
0000
0110
,
0000
1000
0000
0100
,
0000
0010
0000
0011
,
0000
0100
0000
0001
,
0000
1000
0000
1001
,
0000
0110
0000
1001
,
0000
0110
0000
2002
,
0000
0000
0000
0000
,
0000
0000
0000
3003
;

//---------------dance-single - K. Ward----------------
#NOTES:
     dance-single:
     K. Ward:
     Hard:
     9:
     0.673,0.793,0.216,0.126,0.072,486.000,24.000,14.000,1.000,0.000,0.000,0.673,0.793,0.216,0.126,0.072,486.000,24.000,14.000,1.000,0.000,0.000:
0000
0000
0000
0000
,
0000
0000
0000
0000
,
0000
0000
0000
0000
,
0000
0000
0000
0000
,
0001
0100
1000
0000
0100
0010
0001
0000
,
0010
0100
0001
0010
0000
0100
1000
0100
,
0010
0000
0001
0100
0000
1000
0100
0000
,
0000
0001
0000
0100
0010
0001
0010
0000
,
1001
0000
0100
0000
0010
0100
1000
0000
,
0010
0001
0010
0100
0000
0001
0010
0100
,
1000
0000
0100
0010
0000
0100
1000
0000
,
0000
0001
0000
0100
0010
0000
0100
0000
,
0101
0000
0010
0000
0100
1000
0100
0000
,
0010
0001
0010
0100
0000
1000
0010
0100
,
1000
0000
0100
0010
0000
1000
0001
0000
,
0010
0000
0100
0000
1000
0000
0000
1000
0100
0000
0010
0000
0100
0000
0000
0000
,
1001
0000
0100
0010
0000
0100
0000
0002
,
0000
0000
0000
0103
0010
0100
0001
0100
,
0010
0100
1000
0100
0000
0010
0000
2000
,
0000
0100
0010
3001
,
1000
0100
0010
0000
0010
0100
1000
0000
,
0010
0100
1000
0100
0001
0010
0100
0000
,
1001
0000
0001
1000
0000
0100
0010
0000
,
0001
0010
0100
0010
1000
0010
0100
0000
,
1100
0000
0010
0000
0100
1000
0100
0000
,
0100
0010
0001
0010
0000
0100
0001
0010
,
0100
0000
0010
0000
0001
0100
0001
2000
,
0000
0000
0100
0000
0010
0000
3001
0001
,
0010
0100
1000
0000
0010
0100
0001
0000
,
0001
0010
0100
1000
0000
1000
0100
0010
,
0100
0100
0010
0001
0000
0001
0010
0100
,
0000
0011
0000
1200
0000
0000
0010
0000
,
1300
0000
1000
0010
0100
0000
0100
0001
,
0010
0000
0010
0100
1000
0100
0010
0000
,
0101
0000
1000
0100
0010
0000
0010
0100
,
0001
0000
0010
0000
0100
0000
1000
0000
0100
0000
0010
0000
0000
0000
0001
1000
,
0002
0000
0000
0000
0000
0000
0013
0000
0000
0000
0110
0000
0000
0000
1000
0001
,
2000
0000
0000
3100
0000
1001
0000
0000
,
0100
1000
0100
0000
0010
0100
0001
0010
,
0000
0001
1000
0001
0010
0000
0110
0000
,
1001
0000
0100
0000
0010
1000
0100
0010
,
0001
0100
1000
0100
0000
0001
0010
0100
,
1000
0000
0100
0010
0000
0100
0010
0002
,
0000
0010
0013
0100
1000
0000
0010
0000
,
0001
0100
1000
0100
0010
1000
0100
0010
,
0001
0010
0100
2000
0000
0000
3100
0000
,
0001
0001
1000
0100
0000
0010
0100
0000
,
0001
1000
0001
1000
0001
1000
0001
1000
0001
1000
0001
1000
0001
1000
0001
0000
,
0100
1000
0100
0001
0010
1000
0010
0001
,
0100
0010
0001
0010
0100
1000
0100
0000
,
0001
0010
0100
1000
0000
0100
0020
0001
,
0000
0100
0030
0002
0000
0100
0013
000M
,
1000
0100
0001
0100
1000
0100
0010
0000
,
0001
0010
0001
0100
0000
0010
0001
0000
,
0010
0100
1000
0100
0000
0010
0000
0101
,
0000
0110
0000
2002
0000
0000
3003
0000
,
0010
1000
0100
0010
0100
1000
0100
0001
,
0100
1000
0010
0001
0010
1000
0100
0010
,
0001
0100
1000
0100
0001
0010
0100
0001
,
0100
1000
0010
0001
0010
1000
0100
0010
,
0100
0010
0001
0010
0100
1000
0100
0010
,
0000
1100
0000
0011
0000
1001
1000
0000
,
0001
1000
0001
1001
0000
1000
0001
1100
,
0000
0100
0010
0101
0000
0010
0100
0001
,
0010
0000
0100
0000
1000
0000
0001
0000
0010
0000
0100
0000
1000
0001
1000
0000
,
0100
0000
0010
0000
0001
0000
0010
0000
0100
0010
0100
0000
1000
0001
1000
0001
,
1000
0000
0010
0000
0100
0010
0001
0000
,
0001
0010
0100
0001
0000
1000
0100
0010
,
0001
0000
0100
1000
0000
0100
0001
0000
,
0100
0000
0100
0000
0010
0000
0001
0000
0010
0000
0000
0000
0100
0000
0001
1000
,
0001
0000
0010
0000
0100
0010
0001
0000
,
0100
0010
0100
1000
0000
0100
0010
0001
,
0010
0000
0100
0100
0000
0010
0010
0000
,
1100
0000
1000
0000
0100
0000
0000
0100
0010
0000
0001
0000
0010
0000
0000
0000
,
1001
0000
0100
0000
1000
0100
0000
0001
,
0010
0000
0100
0010
0000
0010
0001
0100
,
1000
0000
1000
0100
0000
0001
0010
0000
,
1000
0100
0001
0100
1000
0100
0010
0010
,
0100
0000
1100
0000
0010
0001
0010
0000
,
0100
0001
0010
0100
0000
0010
0100
1000
,
0100
0001
0100
1000
0010
0100
1000
0100
,
0001
0010
0100
0010
0001
0010
0200
2000
,
0000
0000
0000
0000
,
0000
0000
0000
0000
,
3300
0000
0000
0000
;

//---------------dance-single - M. Calfin----------------
#NOTES:
     dance-single:
     M. Calfin:
     Edit:
     9:
     0.764,0.000,0.090,0.539,0.180: // measure 1
0000
0000
0000
0000
,  // measure 2
0000
0000
0000
0000
,  // measure 3
0001
1000
0100
0010
0100
1000
0100
0001
,  // measure 4
0100
1000
0010
0001
0010
1000
0100
0010
,  // measure 5
1001
M000
0001
0100
0010
1000
0001
0100
,  // measure 6
0001
1000
0100
1000
0100
0010
0001
0100
,  // measure 7
0001
0100
0001
0000
0010
0000
0100
1000
0100
0000
0010
0000
0001
0000
1000
0000
,  // measure 8
0010
0100
0010
0100
0010
0000
1000
0000
0010
0000
0100
0000
0010
0000
0001
0000
,  // measure 9
0210
0000
0301
1000
0100
0010
0100
0010
,  // measure 10
0001
0010
0100
0001
0100
1000
0100
0010
,  // measure 11
0100
0010
0001
0100
0001
0100
0010
1000
,  // measure 12
0010
0100
0010
1000
0001
0100
0001
0010
,  // measure 13
0120
0000
0130
1000
0100
1000
0100
0010
,  // measure 14
0001
0100
0010
1000
0010
0100
0001
0010
,  // measure 15
0100
1000
0100
0000
0010
0000
0001
0100
0001
0000
0100
0000
0010
1000
0010
0000
,  // measure 16
1000
1000
1000
0001
0001
0100
0001
0000
,  // measure 17
0002
0000
0203
0000
M320
0000
2030
000M
0000
00M0
3200
0000
0000
0000
M020
0000
,  // measure 18
0000
0000
000M
0330
0000
M000
0002
0000
2003
0000
3200
0000
M320
0000
0230
000M
,  // measure 19
4300
0000
0000
0M00
3002
0000
0203
0000
0000
M000
0320
0000
0000
0M00
2000
0000
,  // measure 20
0000
3030
1000
1000
0010
1000
1000
0100
,  // measure 21
0010
0000
0000
0000
0001
0000
0200
0000
0000
0300
0020
0000
2000
0000
0000
0000
,  // measure 22
0M0M
0000
3030
M0M0
0000
0010
1000
0100
,  // measure 23
0100
0000
0020
0002
0000
0000
0033
0000
,  // measure 24
0101
0010
0010
1000
1000
0100
0010
0000
,  // measure 25
0001
0000
0100
0000
0010
0000
2000
0000
0M00
0000
3200
000M
0000
M000
0020
0000
,  // measure 26
0330
0000
0000
0001
0100
1000
0100
0001
,  // measure 27
0010
1000
0010
0001
0000
0020
0000
0100
,  // measure 28
0000
M40M
0000
0030
0300
0100
0100
1000
,  // measure 29
0020
0000
0000
0000
0100
0030
0002
0000
0000
0003
0010
0000
0001
0000
0010
0000
,  // measure 30
0100
0000
1000
0100
0010
0001
0100
0010
,  // measure 31
1000
0001
0002
0200
0000
0000
0000
0303
,  // measure 32
0000
0010
0000
1010
0000
0001
0100
0000
,  // measure 33
0020
0000
0000
0000
0000
0000
2000
0000
0000
000M
0000
0000
0000
0M00
0030
0000
,  // measure 34
0000
0000
3000
0100
0010
0100
0010
0001
,  // measure 35
0100
0010
1000
0000
0010
0000
0100
0000
0000
0000
0010
0000
0000
0000
2000
0000
,  // measure 36
0M00
0000
0000
0000
0000
3001
0100
0001
,  // measure 37
0100
0000
0100
0002
0000
0000
0000
0003
,  // measure 38
0010
0100
0000
1000
0000
0001
1000
0100
,  // measure 39
0010
0000
0100
0000
1000
0000
0400
0000
0000
0000
0000
0000
0000
M000
0000
0000
,  // measure 40
0000
0000
0000
0300
0000
0000
0000
0010
,  // measure 41
0001
0000
0200
M020
0000
0000
0000
0000
,  // measure 42
0330
0000
0000
0100
0010
1000
0100
0010
,  // measure 43
0001
1000
0001
0000
0100
0000
0020
0000
0030
0000
2000
0000
3000
0000
0200
0000
,  // measure 44
0300
0020
0032
0023
0030
0000
0000
0100
,  // measure 45
0100
1000
0100
0020
0000
0032
0203
0000
,  // measure 46
0300
0020
0030
2000
3000
0200
0300
0020
,  // measure 47
0032
0023
0032
0203
0300
0010
1000
0100
,  // measure 48
0000
0000
0010
0000
0001
0010
0001
0000
0100
0000
0010
0000
1000
0100
1000
0000
,  // measure 49
0010
0100
0010
0100
0000
0001
0000
0010
,  // measure 50
0000
0001
0000
0100
0010
1000
0010
1000
,  // measure 51
0010
0000
0100
0000
0001
0000
0100
0000
0000
0000
0001
0000
0000
0000
0020
000M
,  // measure 52
0000
0000
0030
0000
0000
0000
0002
M000
0003
0000
0100
0000
0010
0000
0200
0000
,  // measure 53
0002
0303
0001
0010
0000
0100
0000
1000
,  // measure 54
0000
0010
0000
0100
0001
0100
0001
0010
,  // measure 55
0001
0010
0100
1000
0000
0100
0000
1000
,  // measure 56
0100
1000
0100
0010
0001
0100
0001
0100
,  // measure 57
0001
0010
0001
0100
0000
0010
0000
1000
,  // measure 58
0000
0010
0000
0100
0001
0100
0001
0010
,  // measure 59
0100
0010
0100
1000
0000
0100
0000
4400
,  // measure 60
0000
3300
0000
0011
0000
0001
0100
0010
,  // measure 61
1000
0010
0100
0001
0000
0010
0000
0100
,  // measure 62
0000
1000
0000
0010
0000
0100
0010
1000
,  // measure 63
0010
0100
0001
0100
0001
0010
0100
0010
,  // measure 64
0100
1000
0100
0000
0010
0000
0001
1000
0001
0000
0100
0000
0010
0100
0010
0000
,  // measure 65
0100
0001
0100
0000
0001
1000
0001
0000
0010
0000
0100
0010
0100
0000
0010
0000
,  // measure 66
0001
0000
0100
0000
0010
0000
1000
0010
1000
0000
0001
0000
0010
0100
0010
0000
,  // measure 67
0001
1000
0001
1000
0001
0000
0000
0000
0010
0000
0001
0000
0100
0000
0010
0000
,  // measure 68
1000
0001
1000
0010
0100
0001
0010
0001
,  // measure 69
0010
0000
0010
0100
1000
0100
0010
0100
,  // measure 70
0010
0001
0100
0010
0000
1000
0100
1000
,  // measure 71
0200
0300
0010
0000
0001
0000
0100
0000
0010
0000
1000
0000
0010
0000
0100
0000
,  // measure 72
0010
0001
0010
1000
0100
1000
0100
0100
,  // measure 73
0100
1000
0100
0010
0100
0010
0001
0100
,  // measure 74
0010
1000
0001
0100
0010
1000
0001
0100
,  // measure 75
1001
0000
0001
0100
0010
1000
0001
0100
,  // measure 76
0001
0010
0100
0010
0100
1000
1000
0100
,  // measure 77
0100
0000
1000
0000
0010
0100
0010
0000
1000
0000
0100
0010
0100
0000
0010
0000
,  // measure 78
0100
0010
0001
1000
0100
0010
0100
1000
,  // measure 79
1100
0100
0010
0001
0100
0010
0100
0100
,  // measure 80
0010
1000
0001
0100
0010
1000
0001
0010
,  // measure 81
0100
1000
0100
0000
0010
0000
0100
0000
0010
0001
0010
0000
0001
0000
0100
0000
,  // measure 82
0010
0000
1000
0100
0010
0000
0001
0000
0001
0000
0100
0000
0010
0000
1000
0000
,  // measure 83
2002
0000
0000
0000
,  // measure 84
0000
0000
0000
0000
,  // measure 85
0000
0000
3003
0000
;

//---------------dance-single - R. Konkul----------------
#NOTES:
     dance-single:
     R. Konkul:
     Medium:
     6:
     0.375,0.416,0.099,0.036,0.000,277.000,11.000,4.000,0.000,0.000,0.000,0.375,0.416,0.099,0.036,0.000,277.000,11.000,4.000,0.000,0.000,0.000: // measure 1
0000
0000
0000
0000
,  // measure 2
0000
0000
0000
0000
,  // measure 3
0001
0000
0000
0010
,  // measure 4
0100
0000
0000
1100
,  // measure 5
1000
0000
0000
0000
,  // measure 6
0000
0001
0100
0001
,  // measure 7
0010
0000
0000
0010
0000
0000
0010
0000
,  // measure 8
0010
0000
0100
1000
,  // measure 9
1001
0000
0000
0000
,  // measure 10
0000
0000
0001
0100
,  // measure 11
0110
0000
0000
0010
0000
0000
1000
0000
,  // measure 12
0001
0000
0010
0010
,  // measure 13
0010
0000
0001
0100
,  // measure 14
0001
0000
0000
0000
1000
0010
1000
0010
,  // measure 15
1000
0000
0000
0010
0000
0000
0100
0000
,  // measure 16
0010
0000
0100
0001
,  // measure 17
0011
0000
0010
0000
,  // measure 18
0100
0000
1000
0000
0001
1000
0001
1000
,  // measure 19
0001
0100
0010
0100
,  // measure 20
0001
0000
0000
0000
0010
0100
0010
0000
,  // measure 21
0100
1000
0001
0000
1000
0000
0001
0000
,  // measure 22
0100
0000
0010
0100
,  // measure 23
0001
0100
0001
0000
1000
0000
0001
0000
,  // measure 24
0010
0000
0010
0100
,  // measure 25
1000
0001
0100
0010
,  // measure 26
0100
0000
0001
0010
,  // measure 27
0001
1000
0001
1000
0000
0001
0000
0100
,  // measure 28
0000
0000
0010
0010
,  // measure 29
0010
1000
0100
1000
,  // measure 30
0010
0100
0001
0000
,  // measure 31
0010
0000
0001
0000
0100
0000
0010
0100
,  // measure 32
0010
0000
0100
0001
0100
0000
0001
1000
,  // measure 33
0001
0000
1000
0000
,  // measure 34
0100
0000
0010
0010
,  // measure 35
0002
0000
0000
0000
,  // measure 36
0000
0200
0000
0003
,  // measure 37
0000
0000
0010
0300
0010
0000
0000
0000
,  // measure 38
1000
0000
0001
0000
0010
0001
0010
0000
,  // measure 39
0001
0100
0001
0000
0100
0000
0010
0000
,  // measure 40
1000
0000
0100
1000
,  // measure 41
0010
0000
0100
0001
,  // measure 42
0010
0000
0001
0000
0100
0001
0100
0010
,  // measure 43
0100
0000
0010
1000
0000
0010
0000
1000
,  // measure 44
0000
0010
0000
1000
0100
0000
1000
0000
,  // measure 45
0100
0010
0001
0100
,  // measure 46
0001
0010
0100
1000
,  // measure 47
1010
0000
0000
0000
,  // measure 48
1001
0000
0000
0000
,  // measure 49
0001
0000
0010
0000
,  // measure 50
0001
0000
0100
0000
0010
0000
0100
0001
,  // measure 51
0100
0001
1000
0100
,  // measure 52
0010
0000
0100
0000
0010
0100
0010
0001
,  // measure 53
0010
0001
1000
0001
,  // measure 54
1000
0001
1000
0000
0001
0000
0100
0000
,  // measure 55
0010
0000
0100
0001
,  // measure 56
0010
0000
0001
0000
1000
0100
1000
0001
,  // measure 57
0010
0001
0100
0010
,  // measure 58
0100
0000
0000
0000
0001
0000
1000
0100
,  // measure 59
1000
0001
0010
0000
,  // measure 60
0001
0000
0100
0000
0001
1000
0010
0000
,  // measure 61
1000
0000
0001
0010
,  // measure 62
0001
0000
0000
0000
1000
0100
1000
0000
,  // measure 63
0001
0000
0000
0000
0010
0001
0010
0000
,  // measure 64
0001
0000
0100
0100
,  // measure 65
0010
0000
0000
0000
,  // measure 66
1000
0000
0001
0010
,  // measure 67
0011
0000
0000
0001
,  // measure 68
0100
0000
0001
0100
0001
0100
0001
0100
,  // measure 69
0001
0000
0000
0000
,  // measure 70
0100
0000
0010
1000
,  // measure 71
1010
0000
1000
0100
,  // measure 72
0010
0000
0100
0000
0010
0100
0010
0100
,  // measure 73
0010
0000
0000
0001
0000
0000
0100
0000
,  // measure 74
0001
0000
1000
0010
,  // measure 75
1010
0000
0010
0100
,  // measure 76
0110
0000
0000
0000
0100
0001
0100
0001
,  // measure 77
0100
0000
0000
0001
0000
0000
0010
0000
,  // measure 78
0001
0000
0010
0100
,  // measure 79
0110
0000
0010
0001
,  // measure 80
1000
0000
0001
0000
1000
0001
1000
0001
,  // measure 81
1000
0000
0000
0001
0000
0000
0100
0000
,  // measure 82
0020
0000
0000
0000
,  // measure 83
2030
0000
0000
0000
,  // measure 84
0000
0000
0000
0000
,  // measure 85
0000
3000
0000
0000
0000
0000
0000
0000
;

//---------------dance-single - T. Thompson & C. Sandmann----------------
#NOTES:
     dance-single:
     T. Thompson & C. Sandmann:
     Challenge:
     10:
     0.689,0.868,0.629,0.198,0.216,445.000,70.000,22.000,88.000,13.000,39.000,0.689,0.868,0.629,0.198,0.216,445.000,70.000,22.000,88.000,13.000,39.000: // measure 1
0000
0000
0000
0000
,  // measure 2
0000
0000
0000
0000
,  // measure 3
0000
0000
0000
0000
,  // measure 4
0000
0000
0000
0000
0000
0001
0010
0001
,  // measure 5
1100
0000
0400
1000
000M
M004
00M0
M000
,  // measure 6
00M0
M003
000M
1300
0000
0010
0100
0010
,  // measure 7
1001
0MM0
0000
0101
00MM
0000
1010
M0M0
,  // measure 8
0000
0000
0110
0000
0000
0000
0010
0000
1000
0100
0010
0100
1000
0000
0000
0000
,  // measure 9
1001
0000
0400
0001
M000
400M
00M0
000M
,  // measure 10
00M0
300M
M000
0301
0000
0010
0001
0100
,  // measure 11
0101
0000
0000
0001
0000
0000
1000
0000
0000
1100
0000
0000
0000
0000
0MM0
0000
M00M
0000
0220
0000
0000
0000
0000
0000
,  // measure 12
0330
0000
M00M
0000
0MM0
0000
0000
0000
0000
1000
0000
0000
0100
0000
0000
0001
0000
0000
0100
0000
0000
1000
0000
0000
,  // measure 13
1100
0000
4000
0010
0M00
04M0
000M
00M0
,  // measure 14
000M
03M0
0M00
3010
0000
0100
1000
0100
,  // measure 15
0001
1000
0001
0101
0000
0100
0110
0100
,  // measure 16
0010
0000
1010
0000
1000
0000
0010
1000
0001
0000
0100
0000
1000
0000
0100
0000
,  // measure 17
0001
0010
1000
0010
0000
0002
0000
0400
,  // measure 18
0000
0000
0303
0010
1000
0100
0001
0100
,  // measure 19
1000
0100
1000
0001
0100
0000
0010
0000
0000
0000
101M
0000
0000
0000
0102
0000
,  // measure 20
0000
0100
0100
1000
1003
2000
0000
3100
,  // measure 21
1100
0000
0100
0110
0000
0010
0404
0000
,  // measure 22
0000
0000
0000
0000
0303
0100
0010
1000
,  // measure 23
0200
0000
0000
0040
0000
0000
0000
0330
,  // measure 24
0100
11MM
0000
MM11
0000
M1M1
0000
0000
,  // measure 25
0001
0100
0001
1000
0100
0000
0010
0000
0000
0000
MM11
0000
0000
0000
4M04
0000
,  // measure 26
00M0
0M00
30M3
0001
0100
0001
1000
0100
,  // measure 27
1000
0100
1000
0001
0100
0000
M1M1
0000
0000
0000
1M1M
0000
0000
0000
2100
0000
,  // measure 28
0000
0100
0100
0001
3001
1000
0100
1000
,  // measure 29
1100
0000
0100
0110
0000
0010
0022
0000
,  // measure 30
0000
0000
0033
0001
0000
0100
1000
0100
,  // measure 31
0001
0010
0001
1000
0100
1000
0100
0000
0000
0000
0001
0000
0100
0000
1000
0000
,  // measure 32
0000
0000
11MM
0000
0000
0000
MM11
0000
0000
0000
0001
0000
1000
0001
1000
0000
,  // measure 33
0200
0000
0000
0000
0000
0000
0000
0000
0000
0000
0000
0000
0000
0000
0000
0000
0000
0000
0000
0000
0000
0000
0000
0000
0000
0000
0000
0000
0000
0000
0000
0000
0000
0000
0000
0000
0000
0000
0000
0000
0000
0000
0000
0000
0000
0000
0000
0000
0000
0000
0000
0000
0000
0000
0000
0000
0000
0000
0000
0000
0000
0000
0000
0000
0000
0000
0000
0000
0000
0000
0000
0300
0440
0000
0000
0000
0000
0000
0000
0000
0000
0000
0000
0000
0000
0000
0000
0000
0000
0000
0000
0000
0000
0000
0000
0000
0000
0000
0000
0000
0000
0000
0000
0000
0000
0000
0000
0000
0000
0000
0000
0000
0000
0000
0000
0000
0000
0000
0000
0000
0000
0000
0000
0000
0000
0000
0000
0000
0000
0000
0000
0000
0000
0000
0000
0000
0000
0000
0000
0000
0000
0000
0000
0000
0000
0000
0000
0000
0000
0000
0000
0000
0000
0000
0000
0000
0000
0000
0000
0000
0000
0000
0000
0000
0000
0000
0000
0000
0000
0000
0000
0000
0000
0000
0000
0000
0000
0000
0000
0000
0000
0000
0000
0000
0000
0000
0000
0000
0000
0000
0000
0000
,  // measure 34
0000
0000
0330
0100
0000
0010
0001
0010
,  // measure 35
0100
0010
0001
0100
0010
0000
0100
0000
0000
0000
110M
0000
0000
0000
0404
0000
,  // measure 36
0000
0000
0000
0000
0303
0100
1000
0100
,  // measure 37
0001
0000
0004
0040
0000
0000
0000
0033
,  // measure 38
1000
11MM
0000
M101
0000
0001
0010
0100
,  // measure 39
1100
1000
0100
0110
0000
0100
0010
0001
,  // measure 40
0000
MM11
0000
M11M
0000
11MM
0000
0100
,  // measure 41
2000
0000
0000
0000
0000
0000
0000
0000
0000
0000
0000
0000
0000
0000
0000
0000
0000
0000
0000
0000
0000
0000
0000
0000
0000
0000
0000
0000
0000
0000
0000
0000
0000
0000
0000
0000
0000
0000
0000
0000
0000
0000
0000
0000
0000
0000
0000
0000
0000
0000
0000
0000
0000
0000
0000
0000
0000
0000
0000
0000
0000
0000
0000
0000
0000
0000
0000
0000
0000
0000
3000
0000
4200
0000
0000
0000
0000
0000
0000
0000
0000
0000
0000
0000
0000
0000
0000
0000
0000
0000
0000
0000
0000
0000
0000
0000
0000
0000
0000
0000
0000
0000
0000
0000
0000
0000
0000
0000
0000
0000
0000
0000
0000
0000
0000
0000
0000
0000
0000
0000
0000
0000
0000
0000
0000
0000
0000
0000
0000
0000
0000
0000
0000
0000
0000
0000
0000
0000
0000
0000
0000
0000
0000
0000
0000
0000
0000
0000
0000
0000
0000
0000
0000
0000
0000
0000
0000
0000
0000
0000
0000
0000
0000
0000
0000
0000
0000
0000
0000
0000
0000
0000
0000
0000
0000
0000
0000
0000
0000
0000
0000
0000
0000
0000
0000
0000
0000
0000
0000
0000
0000
0000
,  // measure 42
0000
0000
3300
0100
0000
1000
0010
0100
,  // measure 43
0001
1000
0001
0000
0100
0000
0010
0000
0000
0000
M11M
0000
0000
0000
1M2M
0000
,  // measure 44
0000
1030
0100
0002
0000
0000
0000
1003
,  // measure 45
0010
0010
0001
0100
0000
0010
2000
0000
,  // measure 46
3100
0010
0000
1M1M
0000
MM11
0000
0001
,  // measure 47
1000
1000
0001
0100
0000
0010
1000
0100
,  // measure 48
0000
1000
0100
1000
0001
0010
0100
1000
0010
0100
0001
1000
0010
1000
0001
0100
,  // measure 49
0004
0000
1000
0003
0000
M001
0100
1000
,  // measure 50
0100
0010
0100
0001
0000
1000
0010
0100
,  // measure 51
0040
0000
0100
0030
0000
1010
0000
2000
,  // measure 52
0000
0000
0000
0000
0000
0000
0000
0000
0000
0000
0000
0000
0000
0000
0000
0000
0000
0000
0000
0000
0000
0000
0000
0000
0000
0000
0000
0000
0000
0000
0000
0000
0000
0000
0000
0000
0000
0000
0000
0000
0000
0000
0000
0000
0000
0000
0000
0000
0000
0000
0000
0000
0000
0000
0000
0000
0000
0000
0000
0000
0000
0000
0000
0000
0000
0000
0000
0000
0000
0000
0000
0000
0200
0000
0000
0000
0000
0000
0000
0000
0000
0000
0000
0000
0000
0000
0000
0000
0000
0000
0000
0000
0000
0000
0000
0000
0000
0000
0000
0000
0000
0000
0000
0000
0000
0000
0000
0000
0000
0000
0000
0000
0000
0000
0000
0000
0000
0000
0000
3300
1000
0000
0000
0000
0000
0000
0000
0000
0000
0000
0000
0000
0000
0000
0000
0000
0000
0000
0000
0000
0000
0000
0000
0000
0100
0000
0000
0000
0000
0000
0000
0000
0000
0000
0000
0000
0000
0000
0000
0000
0000
0000
0000
0000
0000
0000
0000
0000
1000
0000
0000
0000
0000
0000
0000
0000
0000
0000
0000
0000
0000
0000
0000
0000
0000
0000
0000
0000
0000
0000
0000
0000
,  // measure 53
4400
0000
3000
0000
0000
1000
0000
1000
,  // measure 54
0300
0000
0001
0100
0000
0010
1000
0100
,  // measure 55
4000
0100
0010
0001
0000
0100
3010
0000
0000
0000
1MM1
0000
0000
0000
0004
0100
,  // measure 56
0010
1000
0000
0100
0013
0000
0000
0000
0000
0000
0110
0000
0010
0000
0100
0000
,  // measure 57
4400
0000
0011
3300
0000
0100
1000
0010
,  // measure 58
0001
0010
1000
0100
0000
0011
0001
0010
,  // measure 59
0440
0000
1001
0330
0000
0110
0000
0202
,  // measure 60
0000
0000
0000
0003
030M
0001
0100
0010
,  // measure 61
1000
1000
0010
0100
0000
M1M1
0000
1M1M
,  // measure 62
0000
1100
0000
1000
0000
0100
0010
0001
,  // measure 63
0100
0010
1000
0100
1000
0010
0100
0001
,  // measure 64
4000
0400
0000
0001
0000
0000
0000
0001
0000
0000
0000
0001
0000
0000
3300
0000
,  // measure 65
1100
1000
0100
0010
0001
0010
0100
0010
,  // measure 66
0004
0400
0000
1000
0000
0000
0000
1000
0000
0000
0000
1000
0000
0000
0303
0000
,  // measure 67
0011
0000
0010
0001
0100
1000
0001
0010
,  // measure 68
1000
0100
0001
0100
0000
1000
0100
1000
,  // measure 69
0040
0000
0000
4000
0000
0000
0100
0000
,  // measure 70
0000
0000
3030
MMMM
0000
0001
0100
0001
,  // measure 71
1100
0000
0100
1000
0010
0001
0010
1000
,  // measure 72
0100
0001
0100
1000
0000
0001
1000
0010
,  // measure 73
4000
0000
0000
0400
0000
0000
0010
0000
,  // measure 74
0000
0000
0000
0000
0000
0000
0000
0000
0000
0000
0000
0000
0000
0000
0000
0000
0000
0000
0000
0000
0000
0000
0000
0000
0001
0000
0000
0000
0000
0000
0000
0000
3300
0000
0000
0000
0000
0000
0000
0000
0000
0000
0000
0000
0000
0000
0000
0000
0000
0000
0000
0000
0000
0000
0000
0000
0000
0000
0000
0000
0000
0000
0000
0000
0000
0000
0000
0000
0000
0000
0000
0000
1000
0000
0000
0000
0000
0000
0000
0000
0000
0000
0000
0000
0100
0000
0000
0000
0000
0000
0000
0000
0000
0000
0000
0000
0010
0000
0000
0000
0000
0000
0000
0000
0000
0000
0000
0000
M001
0000
0000
0M00
0000
0000
0000
0000
0000
0000
0000
0000
0010
0000
0000
0000
0000
0000
0000
0000
0000
0000
0000
0000
0100
0000
0000
0000
0000
0000
0000
0000
0000
0000
0000
0000
1000
0000
0000
0000
0000
0000
0000
0000
0000
0000
0000
0000
0000
0000
0000
0000
0000
0000
0000
0000
0000
0000
0000
0000
0000
0000
0000
0000
0000
0000
0000
0000
0000
0000
0000
0000
0000
0000
0000
0000
0000
0000
0000
0000
0000
0000
0000
0000
,  // measure 75
1100
0000
0100
0010
0001
0100
0010
1000
,  // measure 76
0001
1000
0100
0010
0001
1000
0001
0100
,  // measure 77
0040
0100
0100
0400
0000
0000
1001
0000
,  // measure 78
0000
0000
0000
0000
0330
0000
0010
0000
1000
0100
0010
0000
0001
0000
0000
0000
,  // measure 79
0101
0000
0100
0010
1000
0001
0100
0010
,  // measure 80
1000
0100
0010
0001
1000
0001
0100
0010
,  // measure 81
0110
0100
0001
0101
0100
0010
1010
1000
,  // measure 82
0001
0000
0011
0000
0010
0000
0001
1000
0100
0000
1000
0000
0002
0000
0200
0000
,  // measure 83
0000
0000
2000
0000
,  // measure 84
0000
0000
0000
0000
,  // measure 85
3303
0000
0000
0000
;
