#TITLE:Hearts of Ice;
#SUBTITLE:;
#ARTIST:Missing Heart;
#TITLETRANSLIT:;
#SUBTITLETRANSLIT:;
#ARTISTTRANSLIT:;
#GENRE:Trance;
#CREDIT:;
#BANNER:Hearts of Ice-bn.png;
#BACKGROUND:Hearts of Ice-bg.png;
#LYRICSPATH:;
#CDTITLE:;
#MUSIC:Hearts of Ice.ogg;
#OFFSET:-0.047;
#SAMPLESTART:42.360;
#SAMPLELENGTH:11.720;
#SELECTABLE:YES;
#BPMS:0.000=136.000;
#STOPS:;
#BGCHANGES:0.140=Hearts of Ice.mpg=1.000=1=0=0=StretchNoLoop==CrossFade==,
99999=-nosongbg-=1.000=0=0=0 // don't automatically add -songbackground-;
#KEYSOUNDS:;

//---------------dance-single - K. Ward----------------
#NOTES:
     dance-single:
     K. Ward:
     Challenge:
     9:
     0.427,0.498,0.058,0.681,0.034,235.000,6.000,71.000,0.000,43.000,7.000,0.427,0.498,0.058,0.681,0.034,235.000,6.000,71.000,0.000,43.000,7.000: // measure 1
0000
0000
0000
0000
,  // measure 2
0000
0000
0000
0000
,  // measure 3
0000
0000
0000
0000
,  // measure 4
0000
0000
0000
0000
,  // measure 5
1000
0010
0100
0001
0010
0100
0010
0004
,  // measure 6
0000
1003
0010
0100
0001
0010
0100
4000
,  // measure 7
0000
3001
1000
0100
0010
0100
0010
0004
,  // measure 8
0000
1003
0100
0040
0000
0031
0400
0000
,  // measure 9
0310
1000
0100
0010
0000
0001
0100
1000
,  // measure 10
0000
0100
0010
1000
0000
0100
0010
0001
,  // measure 11
0000
0010
0100
1000
0000
0100
1000
0010
,  // measure 12
0000
0010
0100
0001
0000
1000
0100
1000
,  // measure 13
0000
0100
0010
0001
0000
0100
0010
0100
,  // measure 14
0010
1000
1000
0200
0000
0010
1300
0100
,  // measure 15
0000
0100
1000
0010
0000
0020
0100
0001
,  // measure 16
0030
0010
0100
0001
0000
1000
0100
0010
,  // measure 17
1001
0000
1000
0000
0001
0000
1000
0001
0000
0000
0100
0000
0010
0000
1000
0100
,  // measure 18
0000
0000
0010
0000
0100
0000
1000
0001
0000
0000
0100
0000
0010
0000
0100
0001
,  // measure 19
0000
0000
1000
0000
0100
0000
0010
0100
0000
0000
1000
0000
0001
0000
1000
0001
,  // measure 20
0000
0000
0100
0000
0010
0000
1000
0100
0000
0000
0010
0000
0100
0000
2000
0000
,  // measure 21
0000
3040
0000
0230
0000
0304
0000
1003
,  // measure 22
0100
0100
0010
0001
0010
0100
1000
0010
,  // measure 23
0001
0010
1000
0100
0001
0100
1000
0010
,  // measure 24
0001
0000
0000
2200
0000
0000
3300
0000
,  // measure 25
0002
0000
0000
0200
0000
0000
0010
0003
,  // measure 26
0002
0000
0000
2300
0000
0200
0000
0000
,  // measure 27
0010
3303
0000
0000
0000
0000
0001
0000
,  // measure 28
0200
2000
0320
3002
,  // measure 29
2030
0000
0003
0200
0000
0000
3002
0000
,  // measure 30
0310
0000
0003
2000
0000
0002
0000
0000
,  // measure 31
0010
3003
0000
0000
0000
0000
1000
0000
,  // measure 32
0020
0200
2030
0320
,  // measure 33
3002
0000
0030
2000
0000
0000
0010
0003
,  // measure 34
0200
0000
3000
1000
0000
0020
0000
0000
,  // measure 35
0001
0330
0000
0000
0000
0000
0001
0000
,  // measure 36
0200
2000
0320
3002
,  // measure 37
2030
0000
0003
0200
0000
0000
0010
3300
,  // measure 38
0002
0000
0000
0200
0000
0020
0000
0000
,  // measure 39
1000
0333
0000
0000
0000
0000
1001
0000
,  // measure 40
0200
2000
0320
3002
,  // measure 41
2030
0003
0000
0001
3000
0000
0010
0100
,  // measure 42
0001
0000
0010
0100
0000
1000
0100
0000
,  // measure 43
0220
0000
0000
1000
0000
0330
0000
0000
,  // measure 44
2000
0000
0020
3000
0200
0000
0032
0000
,  // measure 45
0020
0303
0000
0100
0000
0000
1030
0000
,  // measure 46
2000
0000
0000
0200
0000
0000
0001
0000
,  // measure 47
0020
0000
3330
0000
,  // measure 48
0001
0100
1000
0100
0001
0010
0100
1000
,  // measure 49
1002
0000
0000
0200
0000
0000
0010
0003
,  // measure 50
0002
0000
0000
2300
0000
0200
0000
0000
,  // measure 51
0010
3303
0000
0000
0000
0000
0001
0000
,  // measure 52
0200
2000
0320
3002
,  // measure 53
2030
0000
0003
0200
0000
0000
3002
0000
,  // measure 54
0310
0000
0000
2000
0000
0200
0003
0000
,  // measure 55
0010
3300
0000
0000
0000
0000
1000
0000
,  // measure 56
0200
0000
2000
0000
0320
0000
3001
0030
,  // measure 57
2002
0000
0000
0000
,  // measure 58
0010
0000
0000
3003
;

//---------------dance-single - J. Frederick----------------
#NOTES:
     dance-single:
     J. Frederick:
     Beginner:
     1:
     0.081,0.082,0.048,0.000,0.000,54.000,5.000,0.000,0.000,0.000,0.000,0.081,0.082,0.048,0.000,0.000,54.000,5.000,0.000,0.000,0.000,0.000:
0000
0000
0000
0000
,
0000
0000
0000
0000
,
0000
0000
0000
0000
,
0000
0000
0000
0000
,
1000
0000
0000
0000
,
0001
0000
0000
0000
,
0010
0000
0000
0000
,
0100
0000
0000
0000
,
1001
0000
0000
0000
,
0100
0000
0000
0000
,
0010
0000
0000
0000
,
1000
0000
0000
0000
,
0001
0000
0000
0000
,
0010
0000
0000
0000
,
0100
0000
0000
0000
,
0001
0000
0000
0000
,
1001
0000
0000
0000
,
0010
0000
0000
0000
,
0100
0000
0000
0000
,
1000
0000
0000
0000
,
0001
0000
0000
0000
,
0010
0000
0000
0000
,
0100
0000
0000
0000
,
1001
0000
0000
0000
,
0010
0000
0000
0000
,
0100
0000
0000
0000
,
1000
0000
0000
0000
,
0001
0000
0000
0000
,
0010
0000
0000
0000
,
0100
0000
0000
0000
,
1000
0000
0000
0000
,
0001
0000
0000
0000
,
0010
0000
0000
0000
,
0100
0000
0000
0000
,
0001
0000
0000
0000
,
1000
0000
0000
0000
,
0100
0000
0000
0000
,
0010
0000
0000
0000
,
0001
0000
0000
0000
,
1000
0000
0000
0000
,
0110
0000
0000
0000
,
0100
0000
0000
0000
,
1000
0000
0000
0000
,
0001
0000
0000
0000
,
0010
0000
0000
0000
,
0100
0000
0000
0000
,
0001
0000
0000
0000
,
1000
0000
0000
0000
,
1001
0000
0000
0000
,
0100
0000
0000
0000
,
0010
0000
0000
0000
,
1000
0000
0000
0000
,
0001
0000
0000
0000
,
0010
0000
0000
0000
,
0100
0000
0000
0000
,
1000
0000
0000
0000
,
0001
0000
0000
0000
,
0010
0000
0000
0000
;

//---------------dance-single - J. Frederick----------------
#NOTES:
     dance-single:
     J. Frederick:
     Easy:
     2:
     0.178,0.167,0.125,0.077,0.000,109.000,13.000,8.000,0.000,0.000,0.000,0.178,0.167,0.125,0.077,0.000,109.000,13.000,8.000,0.000,0.000,0.000:
0000
0000
0000
0000
,
0000
0000
0000
0000
,
0000
0000
0000
0000
,
0000
0000
0000
0000
,
1001
0000
0010
0000
,
0100
0000
1000
0000
,
0001
0000
0100
0000
,
0220
0000
0000
0330
,
1000
0000
0001
0000
,
0010
0000
0100
0000
,
1000
0000
0100
0000
,
0010
0000
0001
0000
,
0100
0000
1000
0000
,
0010
0000
0100
0000
,
0001
0000
1100
0000
,
0100
0000
0010
0000
,
1001
0000
0100
0000
,
0010
0000
0001
0000
,
1000
0000
0100
0000
,
0001
0000
1000
0000
,
0100
0000
0010
0000
,
0001
0000
0100
0000
,
1000
0000
0100
0000
,
0220
0000
0000
0330
,
1000
0000
0100
0000
,
0010
0000
0001
0001
,
0001
0000
1000
0000
,
0100
0000
0010
0000
,
0001
0000
0100
0000
,
1000
1000
1000
0000
,
0010
0000
0100
0000
,
0001
0000
1000
0000
,
1001
0000
0001
0000
,
0010
0000
0100
0100
,
0100
0000
1000
0000
,
0100
0000
0001
0000
,
0010
0000
0100
0000
,
1000
0000
0001
0001
,
0001
0000
1000
0000
,
0010
0000
0100
0000
,
1001
0000
0100
0000
,
0010
0000
0100
0000
,
0001
0000
1000
0000
,
0010
0000
0100
0000
,
1001
0000
0100
0000
,
0110
0000
0100
0000
,
1100
0000
0001
0000
,
0101
0000
0001
0000
,
0011
0000
0010
0000
,
0100
0000
1000
1000
,
1000
0000
0001
0000
,
0100
0000
0010
0000
,
0001
0000
1000
1000
,
1000
0000
0100
0000
,
0010
0000
0001
0000
,
2002
0000
0000
3003
,
0020
0000
0000
0000
,
0200
0000
0000
0000
,
0330
0000
0000
0000
;

//---------------dance-single - J. Frederick----------------
#NOTES:
     dance-single:
     J. Frederick:
     Medium:
     4:
     0.263,0.250,0.105,0.115,0.000,169.000,11.000,12.000,0.000,1.000,0.000,0.263,0.250,0.105,0.115,0.000,169.000,11.000,12.000,0.000,1.000,0.000:
0000
0000
0000
0000
,
0000
0000
0000
0000
,
0000
0000
0000
0000
,
0000
0000
0000
0000
,
1000
0000
0000
0001
0000
0000
0010
0000
,
0100
0000
0000
1000
0000
0000
0100
0000
,
0010
0000
0000
0001
0000
0000
0100
0000
,
0020
1000
0100
0031
,
1001
0010
0100
1000
,
0100
0010
0001
0100
,
0101
1000
0010
0100
,
0010
1000
0100
0010
,
0011
0010
0001
0100
,
0001
1000
0010
0100
,
0110
0220
0000
0000
,
0000
0000
0000
0330
,
1001
0010
0100
1000
,
0100
0010
0001
0100
,
0001
1000
0001
0100
,
0010
1000
0010
0100
,
0001
0010
0001
1000
,
0001
0100
0010
1000
,
0010
0100
0001
1000
,
2002
0000
0000
0000
0000
0000
0000
3003
,
0010
0000
0000
0100
0000
0000
1000
0000
,
0100
0000
0000
0010
0000
0000
0001
0000
,
0100
0000
0000
0010
0000
0000
1000
0000
,
0001
0000
0000
0010
0000
0000
0100
0000
,
1000
0000
0000
0100
0000
0000
0010
0000
,
0001
0000
0000
0100
0000
0000
0010
0000
,
1000
0000
0000
0010
0000
0000
0100
0000
,
0001
0000
0000
0010
0000
0000
0100
0000
,
1100
0000
0000
0010
0000
0000
0001
0000
,
0100
0000
0000
0010
0000
0000
1000
0000
,
0001
0000
0000
0010
0000
0000
0100
0000
,
1000
0000
0000
0100
0000
0000
0010
0000
,
0001
0000
0000
0100
0000
0000
0010
0000
,
1000
0000
0000
0010
0000
0000
0100
0000
,
0001
0000
0000
0010
0000
0000
0001
0000
,
1000
0000
0000
0010
0000
0000
0100
0000
,
0001
0010
0001
0010
,
0001
1000
0001
1000
,
0100
1000
0100
1000
,
0220
0000
0000
0330
,
0001
0100
0001
0100
,
0001
0010
0001
0010
,
0100
0010
0100
0010
,
2002
0000
0000
3003
,
0100
0000
0000
0010
0000
0000
1000
0000
,
0001
0000
0000
0010
0000
0000
0100
0000
,
1000
0000
0000
0100
0000
0000
0010
0000
,
0001
0000
0000
0100
0000
0000
0010
0000
,
1000
0000
0000
0010
0000
0000
0100
0000
,
0001
0000
0000
0010
0000
0000
0100
0000
,
1000
0000
0000
0100
0000
0000
0010
0000
,
0001
0100
0001
1000
,
2002
0000
0000
0000
,
3023
0000
0000
0000
,
0030
0000
0000
0000
;

//---------------dance-single - J. Frederick----------------
#NOTES:
     dance-single:
     J. Frederick:
     Hard:
     6:
     0.366,0.361,0.096,0.249,0.000,231.000,10.000,26.000,0.000,0.000,0.000,0.366,0.361,0.096,0.249,0.000,231.000,10.000,26.000,0.000,0.000,0.000:
0000
0000
0000
0000
,
0000
0000
0000
0000
,
0000
0000
0000
0000
,
0000
0000
0000
0000
,
1000
0000
1000
0020
0000
0000
0130
0000
,
0001
0000
0010
0200
0000
0000
1300
0000
,
0100
0000
0010
0002
0000
0000
0103
0000
,
0001
0000
1000
0002
0000
0000
0013
0000
,
0100
0000
1000
0000
0010
1000
0010
0000
,
0100
0001
0010
0001
,
1000
0000
0001
0000
1000
0010
1000
0000
,
0010
0100
0001
0010
,
0001
0000
0100
0000
0001
1000
0001
0000
,
0010
0100
1000
0100
,
0010
0000
0001
0000
0100
0001
0100
0000
,
0001
0000
0010
0000
0100
0010
0100
0010
,
0110
0000
0010
0000
0001
1000
0001
0000
,
0100
0010
1000
0010
,
0100
0000
0001
0000
0010
0100
0010
0000
,
0100
1000
0001
0010
,
0001
0100
0001
1000
,
0010
0100
0001
0010
,
0001
1000
0001
1000
0001
1000
0001
1000
,
2002
0000
0000
0000
0000
0000
0000
3003
,
0010
0000
0100
2000
0000
0000
3100
0000
,
0010
0000
0001
0200
0000
0000
0301
0000
,
1000
0000
0010
0200
0000
0000
0301
0000
,
0010
0000
0100
1000
0000
1000
0100
0000
,
0010
0000
0001
0200
0000
0000
0301
0000
,
1000
0000
0010
0200
0000
0000
0301
0000
,
0010
0000
0100
2000
0000
0000
3100
0000
,
0010
0000
0100
0001
0000
0001
0010
0000
,
0100
0000
1000
0200
0000
0000
0310
0000
,
0001
0000
0100
0002
0000
0000
1003
0000
,
0010
0000
0100
0020
0000
0000
1030
0000
,
0001
0000
0010
0100
0000
0100
1000
0000
,
0100
0000
0010
0002
0000
0000
0103
0000
,
0001
0000
1000
0002
0000
0000
0103
0000
,
0010
0000
1000
0020
0000
0000
0130
0000
,
0001
0000
0010
0100
0000
0100
1000
0000
,
1000
0000
0010
0000
0100
0001
0010
0000
,
0001
0000
1000
0000
0010
0100
0001
0000
,
0010
0000
0100
0000
1000
0100
0010
0000
,
0110
1001
0110
1001
,
0010
0000
0001
0000
1000
0010
0100
0000
,
0001
0000
0010
0000
0001
1000
0100
0000
,
0010
0000
0100
0000
1000
0010
0100
0000
,
0110
1001
0110
1001
,
1000
0000
0010
0200
0000
0000
0301
0000
,
0010
0000
0100
2000
0000
0000
3001
0000
,
0100
0000
0010
2000
0000
0000
3001
0000
,
0010
0000
0100
1000
0000
1000
0100
0000
,
0010
0000
0001
0200
0000
0000
0301
0000
,
1000
0000
0010
0200
0000
0000
0301
0000
,
0010
0000
0001
2000
0000
0000
3100
0000
,
0010
0000
0001
1000
0000
1000
0001
0000
,
2000
0000
0000
0000
,
0002
0000
0000
0000
,
3003
0000
0000
0000
;

//---------------dance-double - S. Hanson----------------
#NOTES:
     dance-double:
     S. Hanson:
     Challenge:
     10:
     0.625,0.890,0.556,0.288,0.441,368.000,58.000,30.000,86.000,2.000,0.000,0.625,0.890,0.556,0.288,0.441,368.000,58.000,30.000,86.000,2.000,0.000:
00000000
00000000
00000000
00000000
,
00000000
00000000
00000000
00000000
,
00000000
00000000
00000000
00000000
,
00000000
00000000
00000000
00000000
,
01001000
00000000
00010000
00000100
00000000
00000100
00010000
00000000
,
00010010
00000000
00001000
00100000
00000000
00100000
00001000
00000000
,
00010001
00000000
00000010
00000100
00000000
00000100
00000010
00000000
,
00001000
00000010
00001000
00000001
00001000
00000100
00010000
00001000
00010000
00001000
00100000
00001000
00010000
00001000
01000000
00010000
,
10000000
01000000
00010000
01000000
10000000
01000000
00010000
00001000
,
00000100
00000010
00000100
00000001
00000000
00000011
00000000
00001100
,
00000001
00000100
00001000
00000100
00000001
00000100
00001000
00010000
,
00100000
01000000
00010000
11000000
00000000
01000000
00010000
00001000
,
00000000
00010010
00010000
00000010
00000100
00000001
00001000
00000001
,
00000011
00000010
00000100
00010000
00000000
00010000
00001000
00100000
,
00000000
01001000
00000000
10000000
10000000
00000000
00000000
00000000
,
00010000
00100000
10000000
00100000
00010000
00100000
10000000
00100000
,
01100000
00000000
10000000
00000000
10000000
00000000
00010000
01000000
00000000
00000000
00001000
00000000
00001000
00000000
00010000
00000100
,
00000000
00000000
00010000
00000000
00010000
00000000
00000010
00001000
00000000
00000000
00000100
00000000
00000100
00000000
00000010
00000001
,
00000000
00000000
00000100
00000000
00000100
00000000
00000010
00010000
00000000
00000000
00001000
00000000
00001000
00000000
00100000
00010000
,
00000000
00000000
01000000
00000000
01000000
00000000
00010000
10000000
00000000
00000000
01000000
00000000
01000000
00000000
00100000
00010000
,
10000000
00100000
10000000
00100000
01000000
00010000
01000000
00010000
01000000
00001000
01000000
00001000
00010000
00001000
00010000
00001000
,
00010000
00000100
00010000
00000100
00001000
00000100
00001000
00000100
00000010
00000100
00000010
00000100
00000010
00000001
00000010
00000001
,
00001000
00000010
00000100
00000001
00001000
00000100
00010000
00001000
00100000
00001000
00010000
00001000
01000000
00010000
00100000
02000000
,
20000000
00000000
00M1M000
00000000
00000000
00000000
00M1M000
33000000
,
11000000
00000000
01000000
10010000
00000000
10010000
00100000
00000000
,
01001000
00000000
01000000
00000000
00010000
00000000
00110000
00000000
00000000
00000000
00011000
00000000
00000000
000MM000
00000000
00000000
,
00001100
00001000
00000001
00000110
00000000
00000110
00001000
00000001
,
00000011
00000000
00000010
00002000
00000000
00023000
00000000
00130000
,
01010000
00000000
01000000
00011000
00000000
00011000
00000010
00000000
,
00101000
00000000
00001000
00000000
01000000
00000000
10100000
00000000
00000000
00000000
00110000
00000000
00000000
00MM0000
00000000
00000000
,
01001000
00001000
00010000
00001010
00000000
00001010
00000100
00000000
,
00000001
00000010
00001000
00020000
00000000
00030200
00000000
00000300
,
01000100
00000000
01000000
00011000
00000000
00011000
00100000
00000000
,
00001010
00000000
00000010
00000000
00001000
00000000
00001100
00000000
00000000
00000000
00000011
00000000
00000000
000000MM
00000000
00000000
,
00000101
00000001
00000010
00001100
00000000
00001100
00010000
00000000
,
00001000
00000000
00010000
02000000
00000000
23000000
00000000
30000000
,
01010000
00000000
00001000
00110000
00000000
00110000
01000000
00000000
,
00010010
00000000
00010000
00000000
00000010
00000000
00001010
00000000
00000000
00000000
00101000
00000000
00000000
00M0M000
00000000
00000000
,
00010100
00000100
00010000
00000110
00000000
00000110
00000001
00000000
,
00001000
00000001
00000010
00000100
00001000
00000100
00000010
00000001
00001000
00000100
00010000
00001000
00100000
00010000
00100000
01000000
,
10000000
00100000
01000000
00010000
10000000
01000000
00010000
00001000
,
00010100
00000100
00001000
00000010
00000001
00000010
00001000
00000001
,
00001100
00000100
00010000
00000010
00000100
00001000
00010000
00100000
,
10010000
00000000
11000000
00020000
00000000
02030000
00000000
03000000
,
01001000
10000000
00100000
00010000
00100000
01000000
00001000
00010000
,
00001100
00000100
00000010
00000001
00001000
00000010
00010000
00000100
,
00001001
00000001
00000100
00000001
00000010
00000100
00010000
00001000
,
00110000
00000000
00001010
00020000
00000000
00032000
00000000
00003000
,
M010020M
00000000
00000000
0M0000M0
00010300
00000000
0000M020
00M00000
00000000
M0000M00
0010003M
00000000
0M020000
000000M0
00000000
0000M000
,
20030000
000000M0
00M00000
0000000M
00000M00
00000000
3M002000
00000000
0000000M
00M00000
02003000
00000000
M00M00M0
00000000
00000M00
0000000M
,
03000020
00M00000
0000M000
00000000
0M100030
00000000
0000200M
M0000000
000M0000
000000M0
01003000
00000000
00M00100
M0000000
000000M0
00000000
,
00001001
00000000
00010000
00002000
00000000
00003200
00000000
00000000
,
M000032M
0000M000
00M00000
00000000
0M00103M
00000000
00200M00
M0000000
0000M000
0000000M
10300M00
00000000
000020M0
0M000000
000M0000
0000000M
,
00203M00
M0000000
00000000
0000000M
00301000
00000000
0M0M0M20
00000000
M0000000
0000000M
0002M030
00M00000
000000M0
0M000000
00000000
00000M00
,
M2030000
0000M000
00000000
00M000M0
00000000
M0000000
000M000M
00000M00
00000000
0000000M
00M00000
0000M000
M3000010
00000000
00000000
00000000
,
00010000
00000100
00001000
00000100
00010000
00001000
00100000
00010000
00100000
00001000
00010000
00000010
00001000
00000010
00010000
00001000
,
02000000
00000000
00000000
00000000
,
00100000
00000000
00000000
00000000
00000000
00010000
00000000
00001000
00000000
00000000
00000000
00000000
00000000
00000000
00000000
00000000
,
03000000
00000000
00000000
00000000
;

//---------------dance-double - J. Frederick----------------
#NOTES:
     dance-double:
     J. Frederick:
     Easy:
     2:
     0.152,0.166,0.058,0.355,0.000,68.000,6.000,37.000,0.000,0.000,0.000,0.152,0.166,0.058,0.355,0.000,68.000,6.000,37.000,0.000,0.000,0.000:
00000000
00000000
00000000
00000000
,
00000000
00000000
00000000
00000000
,
00000000
00000000
00000000
00000000
,
00000000
00000000
00000000
00000000
,
10000000
00000000
01000000
00000000
,
00100000
00000000
00010000
00000000
,
01000000
00000000
10000000
00000000
,
20020000
00000000
00000000
30030000
,
00010000
00000000
00100000
00000000
,
01000000
00000000
10000000
00000000
,
01000000
00000000
00010000
00000000
,
00001000
00000000
00000010
00000000
,
00000100
00000000
00000001
00000000
,
00000010
00000000
00001000
00000000
,
00002002
00000000
00000000
00000000
,
00000000
00000000
00000000
00003003
,
00001001
00000000
00000100
00000000
,
00000010
00000000
00001000
00000000
,
00010000
00000000
01000000
00000000
,
10000000
00000000
00100000
00000000
,
01000000
00000000
10000000
00000000
,
00010000
00000000
01000000
00000000
,
00100000
00000000
00010000
00000000
,
00022000
00000000
00000000
00033000
,
00002000
00000000
00000000
00003000
,
00000020
00000000
00000000
00000030
,
00000200
00000000
00000000
00000300
,
00000002
00000000
00000000
00000003
,
00000020
00000000
00000000
00000030
,
00002000
00000000
00000000
00003000
,
00020000
00000000
00000000
00030000
,
00200000
00000000
00000000
00300000
,
02000000
00000000
00000000
03000000
,
20000000
00000000
00000000
30000000
,
02000000
00000000
00000000
03000000
,
00020000
00000000
00000000
00030000
,
00200000
00000000
00000000
00300000
,
02000000
00000000
00000000
03000000
,
20000000
00000000
00000000
30000000
,
20020000
00000000
00000000
30030000
,
00010000
00000000
00000000
00000000
,
00001000
00000000
00000000
00000000
,
00000020
00000000
00000000
00000000
,
00000200
00000000
00000000
00000330
,
00000010
00000000
00000000
00000000
,
00000001
00000000
00000000
00000000
,
00000200
00000000
00000000
00000000
,
00002000
00000000
00000000
00003300
,
00002000
00000000
00000000
00003000
,
00000020
00000000
00000000
00000030
,
00000200
00000000
00000000
00000300
,
00000002
00000000
00000000
00000003
,
00000020
00000000
00000000
00000030
,
00002000
00000000
00000000
00003000
,
00020000
00000000
00000000
00030000
,
00200000
00000000
00000000
00300000
,
02200000
00000000
00000000
00000000
,
00000000
00000000
00000000
03300000
;

//---------------dance-double - x0_000----------------
#NOTES:
     dance-double:
     x0_000:
     Medium:
     5:
     0.337,0.361,0.058,0.374,0.000: // measure 1
00000000
00000000
00000000
00000000
,  // measure 2
00000000
00000000
00000000
00000000
,  // measure 3
00000000
00000000
00000000
00000000
,  // measure 4
00000000
00000000
00000000
00000000
,  // measure 5
00000001
00000000
00000100
00000010
00000000
00000000
00010010
00000000
,  // measure 6
00001000
00000000
00010000
00000100
00000000
00000000
00011000
00000000
,  // measure 7
00001000
00000000
00100000
00010000
00000000
00000000
11000000
00000000
,  // measure 8
00010000
00000000
10000000
00100000
00000000
00000000
01010000
00000000
,  // measure 9
10000000
01000000
10000000
01000000
,  // measure 10
00100000
00001000
00010000
00000010
,  // measure 11
00001000
00000100
00001000
00000100
,  // measure 12
00000010
00000000
00000001
00000000
00000100
00000010
00000100
00000010
,  // measure 13
00010000
00001000
00010000
00001000
,  // measure 14
01000000
00010000
10000000
01000000
,  // measure 15
00100000
00001000
00100000
00001000
,  // measure 16
00010000
00000000
00000100
00000000
00001000
00000010
00001000
00000010
,  // measure 17
00000100
00000001
00000100
00000001
,  // measure 18
00001000
00000100
00010000
00001000
,  // measure 19
01000000
00100000
01000000
00100000
,  // measure 20
10000000
00000000
00010000
00000000
00100000
01000000
00100000
01000000
,  // measure 21
00100000
00001000
00100000
00001000
,  // measure 22
00010000
00000010
00001000
00000100
,  // measure 23
00001000
00000001
00001000
00000001
,  // measure 24
00002002
00000000
00000000
00003003
,  // measure 25
00002000
00000000
00000000
00003200
00000000
00000000
00020300
00000000
,  // measure 26
00032000
00000000
00000000
02003000
00000000
03200000
00000000
00000000
,  // measure 27
10300000
01000000
10000000
00010000
,  // measure 28
01000000
00001000
00010000
00000100
,  // measure 29
00002000
00000000
00000000
00003020
00000000
00000000
00000230
00000000
,  // measure 30
00000302
00000000
00000000
00002003
00000000
00003200
00000000
00000000
,  // measure 31
00010300
00001000
00100000
01000000
,  // measure 32
00100000
00010000
10000000
00100000
,  // measure 33
02000000
00000000
00000000
03002000
00000000
00000000
00023000
00000000
,  // measure 34
00030200
00000000
00000000
00002300
00000000
00003020
00000000
00000000
,  // measure 35
00000130
00000001
00001000
00000100
,  // measure 36
00000010
00000100
00010000
00001000
,  // measure 37
02000000
00000000
00000000
03020000
00000000
00000000
00230000
00000000
,  // measure 38
02300000
00000000
00000000
23000000
00000000
30020000
00000000
00000000
,  // measure 39
01030000
00001000
00010000
00000100
,  // measure 40
00001000
00000000
00000010
00000000
00010000
00001000
00010000
00001000
,  // measure 41
00010000
00000100
00010000
00000100
,  // measure 42
00001000
00000010
00001000
00000010
,  // measure 43
00010000
00001000
00010000
00001000
,  // measure 44
00100000
00000000
01000000
00100000
00000000
00000000
00000000
00000000
,  // measure 45
00010000
01000000
00010000
01000000
,  // measure 46
00001000
00010000
00001000
00010000
,  // measure 47
00000100
00000010
00000100
00000010
,  // measure 48
00000001
00000000
00001000
00000001
00000000
00000000
00000000
00000000
,  // measure 49
00000200
00000000
00000000
00000320
00000000
00000000
00020030
00000000
,  // measure 50
00032000
00000000
00000000
00203000
00000000
02300000
00000000
00000000
,  // measure 51
03100000
00010000
01000000
00100000
,  // measure 52
10000000
01000000
00100000
00001000
,  // measure 53
00020000
00000000
00000000
00030020
00000000
00000000
00002030
00000000
,  // measure 54
00003200
00000000
00000000
00000320
00000000
00000032
00000000
00000000
,  // measure 55
00000103
00000010
00010000
00001000
,  // measure 56
00100000
01000000
00100000
00010000
,  // measure 57
01100000
00000000
00000000
00000000
,  // measure 58
20000000
00000000
00000000
00000000
,  // measure 59
30000000
00000000
00000000
00000000
;

//---------------dance-double - x0_000----------------
#NOTES:
     dance-double:
     x0_000:
     Hard:
     7:
     0.456,0.473,0.029,0.077,0.053: // measure 1
00000000
00000000
00000000
00000000
,  // measure 2
00000000
00000000
00000000
00000000
,  // measure 3
00000000
00000000
00000000
00000000
,  // measure 4
00000000
00000000
00000000
00000000
,  // measure 5
10000000
00000000
00010000
01000000
00000000
00010000
00100000
00000000
,  // measure 6
00001000
00000000
00010000
00000010
00000000
00000010
00001000
00000000
,  // measure 7
00000100
00000000
00000010
00000001
00000000
00000010
00000100
00000000
,  // measure 8
00010000
00000000
00001000
00100000
00000000
00100000
00010000
00000000
,  // measure 9
01000000
00100000
10000000
00000000
10000000
01000000
00010000
00000000
,  // measure 10
00010000
01000000
10000000
00100000
01000000
00010000
00100000
01000000
,  // measure 11
00100000
00001000
00010000
00000000
00010000
00000010
00001000
00000000
,  // measure 12
00001000
00000100
00000010
00000100
00001000
00000001
00000100
00000000
,  // measure 13
00000010
00010000
00001000
00000000
00001000
00100000
01000000
00000000
,  // measure 14
01000000
00100000
00010000
01000000
00100000
01000000
00001000
00010000
,  // measure 15
00000100
00001000
00000010
00000000
00000010
00010000
00001000
00000000
,  // measure 16
00001000
00100000
01000000
10000000
00100000
01000000
00010000
00000000
,  // measure 17
00100000
00000000
00001000
00000000
00010000
00000000
00000000
00010000
00000000
00000000
00000010
00000000
00000100
00000000
00000000
00000001
,  // measure 18
00000000
00000000
00001000
00000000
00000100
00000000
00000000
00000100
00000000
00000000
00001000
00000000
00000010
00000000
00000000
00010000
,  // measure 19
00000000
00000000
00001000
00000000
00100000
00000000
00000000
00100000
00000000
00000000
00010000
00000000
01000000
00000000
00000000
00100000
,  // measure 20
00000000
00000000
01000000
00000000
00010000
00000000
00000000
00010000
00000000
00000000
10000000
00000000
01000000
00000000
00000000
00010000
,  // measure 21
00000000
00000000
00001000
00000000
00010000
00000000
00000000
00010000
00000000
00000000
00000100
00000000
00001000
00000000
00000000
00000010
,  // measure 22
00000000
00000000
00000100
00000000
00000001
00000000
00000000
00000001
00000000
00000000
00001000
00000000
00000100
00000000
00000000
00000000
,  // measure 23
00010000
00001000
00100000
00001000
00010000
00000010
00010000
00001000
,  // measure 24
01000000
00001000
00010000
00000100
00000000
00011000
00011000
00000000
,  // measure 25
00001000
00100000
00100000
00010000
00000000
01000000
00100000
00000000
,  // measure 26
10000000
01000000
01000000
00010000
01000000
10000000
00000000
00000000
,  // measure 27
00100000
01000000
00010000
00100000
01000000
00100000
00001000
00000000
,  // measure 28
00010000
00000010
00001000
00000100
00000001
00000100
00001000
00000000
,  // measure 29
00000010
00010000
00010000
00001000
00000000
01000000
00010000
00000000
,  // measure 30
00100000
00001000
00001000
00010000
00000010
00001000
00000000
00000000
,  // measure 31
00000100
00010000
00001000
00100000
01000000
00100000
00010000
00000000
,  // measure 32
10000000
00100000
01000000
00010000
10000000
01000000
00100000
00000000
,  // measure 33
00001000
00010000
00010000
00000100
00000000
00001000
00000001
00000000
,  // measure 34
00000100
00000010
00000010
00001000
00000100
00010000
00000000
00000000
,  // measure 35
00001000
01000000
00100000
01000000
00010000
10000000
01000000
00000000
,  // measure 36
00100000
00001000
00010000
00000100
00001000
00000010
00010000
00000000
,  // measure 37
00001000
00010000
00010000
00000100
00000000
00001000
00000010
00000000
,  // measure 38
00010000
00001000
00001000
00100000
00010000
01000000
00000000
00000000
,  // measure 39
00100000
10000000
01000000
00100000
01000000
10000000
00010000
00000000
,  // measure 40
01000000
00001000
00010000
00001000
00100000
00010000
01000000
00000000
,  // measure 41
00001000
00000000
00010000
00000100
00000000
00001000
00000010
00000000
,  // measure 42
00000100
00000000
00001000
00010000
00000000
00001000
00000010
00000000
,  // measure 43
00001000
00000000
00010000
00100000
00000000
10000000
01000000
00000000
,  // measure 44
00200000
00000000
00310000
00020000
00000000
01030000
02000000
00000000
,  // measure 45
03001000
00000000
00010000
00000100
00000000
00010000
00000010
00000000
,  // measure 46
00000100
00000000
00000001
00001000
00000000
00000100
00010000
00000000
,  // measure 47
00001000
00000000
00000100
00001000
00000000
00010000
00100000
00000000
,  // measure 48
20000000
00000000
31000000
02000000
00000000
03100000
00200000
00000000
,  // measure 49
00301000
00010000
00010000
00000100
00000000
00001000
00000010
00000000
,  // measure 50
00000100
00000001
00000001
00001000
00000100
00000010
00000000
00000000
,  // measure 51
00000100
00010000
00001000
00010000
00000010
00001000
00000100
00000000
,  // measure 52
00010000
00001000
00100000
00010000
01000000
00100000
01000000
00000000
,  // measure 53
00010000
10000000
10000000
01000000
00000000
00100000
01000000
00000000
,  // measure 54
00100000
00001000
00001000
00010000
00000010
00001000
00000000
00000000
,  // measure 55
00000100
00010000
00001000
01000000
00010000
00100000
01000000
00000000
,  // measure 56
00100000
00001000
00010000
00000010
00001000
00000100
00000010
00000000
,  // measure 57
00002002
00000000
00000000
00000000
,  // measure 58
00000010
00000000
00000000
00000000
,  // measure 59
00003003
00000000
00000000
00000000
;
