#TITLE:Hasse Mich;
#SUBTITLE:;
#ARTIST:Onyx;
#TITLETRANSLIT:;
#SUBTITLETRANSLIT:;
#ARTISTTRANSLIT:;
#GENRE:Techno;
#CREDIT:;
#BANNER:Hasse Mich-bn.png;
#BACKGROUND:Hasse Mich-bg.png;
#LYRICSPATH:;
#CDTITLE:;
#MUSIC:Hasse Mich.ogg;
#OFFSET:-0.070;
#SAMPLESTART:70.220;
#SAMPLELENGTH:11.840;
#SELECTABLE:YES;
#BPMS:0.000=280.000,320.000=140.000,324.000=280.000,379.000=140.000,383.000=280.000,439.000=140.000,443.000=280.000;
#STOPS:354.500=0.214;
#BGCHANGES:0.076=Hasse Mich.mpg=1.000=1=0=0=StretchNoLoop==CrossFade==,
99999=-nosongbg-=1.000=0=0=0 // don't automatically add -songbackground-;
#KEYSOUNDS:;

//---------------dance-single - D. D'Amato----------------
#NOTES:
     dance-single:
     D. D'Amato:
     Medium:
     7:
     0.508,0.556,0.172,0.138,0.000,376.000,20.000,16.000,0.000,0.000,0.000,0.508,0.556,0.172,0.138,0.000,376.000,20.000,16.000,0.000,0.000,0.000:
0000
0000
0000
0000
,
0000
0000
0000
0000
,
0000
0000
0000
0000
,
0000
0000
0000
0000
,
0000
0000
0000
0000
,
0000
0000
0000
0000
,
0000
0000
0000
0000
,
0000
0000
0000
0000
,
1001
0010
0100
0001
,
1000
0010
0100
0001
,
1000
0010
0100
0010
,
1000
0100
0010
0100
,
1000
0100
0010
0001
,
1000
0100
0010
0001
,
1000
0100
1000
0010
,
1000
0000
0001
0000
1000
0001
1000
0000
,
0001
0010
0100
1000
,
0001
0010
0100
1000
,
0001
0010
0100
0010
,
0001
0100
0010
0100
,
0001
0100
0010
1000
,
0001
0100
0010
1000
,
0001
0100
0001
0010
,
0001
0000
1000
0000
0001
1000
0001
0000
,
1000
0000
0001
0000
0100
0000
0000
0001
,
0000
1000
0100
0000
,
0010
0000
0001
0000
0100
0000
0000
0010
,
0000
1000
0100
0000
,
1000
0000
0001
0000
1000
0000
0000
0010
,
0000
0100
0001
0000
,
0010
0001
1000
0010
,
0200
0000
0310
0000
,
0110
0000
0010
0000
0010
1000
0000
0000
,
0001
0000
0001
0000
0001
0010
0000
0000
,
0100
0000
0100
0000
0100
1000
0000
1000
,
0002
0000
1003
1001
,
0010
0000
0010
0000
0010
0001
0000
0000
,
1000
0000
1000
0000
1000
0010
0000
0000
,
0100
0000
0100
0000
0100
0001
0000
0001
,
2000
0000
3001
0110
,
1000
0100
1000
0000
,
0001
0100
0001
1000
,
0001
0010
0001
0100
,
0200
0000
0310
0110
,
0001
0100
0001
0000
,
1000
0100
1000
0001
,
1000
0010
1000
0100
,
0200
0000
0310
0000
,
0110
0000
0000
0000
,
1000
0100
1000
0001
,
0000
0000
0000
0001
,
0100
0001
1000
0001
,
0000
0000
0000
0000
,
1000
0010
1000
0001
,
0000
0000
0000
0001
,
0020
0000
0031
0000
,
1001
0000
0000
0000
,
0001
0010
0001
2000
,
0010
0010
3001
0000
,
1000
0100
1000
0001
,
1001
0000
0000
0000
,
1000
0010
1000
0002
,
0010
0010
1003
0000
,
0001
0100
0001
1000
,
1001
0000
0001
0001
,
0001
0000
0100
0000
,
0101
0000
0010
0010
,
0010
0000
1000
0000
,
1010
0000
1000
1000
,
1000
0000
0001
0000
,
1001
0000
0100
0010
,
0200
0000
0020
0330
,
1001
0000
1000
1000
,
1000
0000
0100
0000
,
1100
0000
0010
0010
,
0010
0000
0001
0000
,
0011
0000
0001
0001
,
0001
0000
1000
0000
,
1001
0000
0100
0010
,
0200
0000
0020
0330
,
0110
0001
0100
1000
,
0010
0000
0001
0000
,
0000
0000
0000
1000
,
0000
0000
0100
0000
,
0010
0001
0100
0010
,
0000
0000
1000
0000
,
0000
0000
0000
0001
,
0000
0000
0100
0000
,
0010
1000
0100
0010
,
0100
1000
0000
0001
,
0000
1000
0100
0000
,
0010
0001
0001
1000
,
1000
0001
0010
0100
,
0010
0001
0000
1000
,
0000
0001
0100
0001
,
0001
1000
1000
1001
,
0001
0001
0000
0100
,
0100
0100
0100
0000
,
0010
0010
0000
1000
,
1000
1000
1000
0100
,
1000
1000
0000
0010
,
0010
0010
0010
0000
,
0100
0100
0000
0002
,
0000
2003
0000
3010
,
1001
1000
0000
0100
,
0100
0100
0100
0000
,
0010
0010
0000
0001
,
0001
0001
0001
0100
,
0001
0001
0000
0010
,
0010
0010
0010
0001
,
0001
1000
1000
0001
,
1000
0010
0000
1000
,
0100
1000
0001
0100
,
1000
0100
0000
0001
,
0010
0001
1000
0010
,
0001
0010
0000
1000
,
0010
1000
0001
0010
,
0100
0010
0000
0000
,
0010
0100
0000
0000
,
1000
0010
1000
0100
,
1000
0001
0100
1000
,
0100
0001
0100
0010
,
1000
0010
0001
0010
,
0100
0001
0010
0001
,
0100
0010
1000
0001
,
1000
0001
1000
0001
,
0010
0000
0100
2002
,
0000
0000
0000
0000
,
0000
0000
0000
0000
,
3003
0000
0000
0000
;

//---------------dance-single - D. D'Amato----------------
#NOTES:
     dance-single:
     D. D'Amato:
     Easy:
     5:
     0.388,0.445,0.379,0.241,0.000,243.000,44.000,28.000,0.000,0.000,0.000,0.388,0.445,0.379,0.241,0.000,243.000,44.000,28.000,0.000,0.000,0.000:
0000
0000
0000
0000
,
0000
0000
0000
0000
,
0000
0000
0000
0000
,
0000
0000
0000
0000
,
0000
0000
0000
0000
,
0000
0000
0000
0000
,
0000
0000
0000
0000
,
0000
0000
0000
0000
,
1000
0000
0001
0000
,
1000
0010
1000
0000
,
0001
0000
1000
0000
,
0001
0010
0100
1000
,
0001
0000
1000
0000
,
0001
0010
0001
0000
,
1000
0000
0001
0000
,
1000
0010
0100
0001
,
1000
0000
0001
0000
,
1000
0100
1000
0000
,
0001
0000
1000
0000
,
0001
0100
0010
1000
,
0001
0000
1000
0000
,
0001
0100
0001
0000
,
1000
0000
0001
0000
,
1000
0100
0010
0001
,
1000
1000
0100
0000
,
0100
0100
0010
0000
,
0010
0010
0001
0000
,
0000
0001
0100
0000
,
0010
0010
1000
0000
,
0000
1000
0100
0000
,
0010
0010
0001
0000
,
0200
0000
0010
0300
,
0110
0000
0010
0000
,
0010
1000
0001
0000
,
0100
0000
0100
0001
,
2000
0000
3100
0000
,
0110
0000
0010
0000
,
0010
0001
1000
0000
,
0100
0000
0100
1000
,
0002
0000
0103
0010
,
0100
0000
0101
0000
,
0000
0000
1010
0000
,
1000
0100
0010
0000
,
0001
0000
0010
0100
,
1000
0100
0010
0000
,
0000
0000
0011
0000
,
0001
0100
0010
0000
,
1010
0000
0101
0000
,
0110
0000
0000
0000
,
0020
0000
0000
0030
,
0000
0000
0000
2000
,
0000
0000
0000
3000
,
0000
0000
0000
0000
,
0002
0000
0000
0003
,
0000
0000
0000
0200
,
0020
0000
0000
0330
,
1001
0000
0000
0000
,
0002
0000
0000
0003
,
1100
0000
0011
0000
,
2000
0000
0000
3000
,
1001
0000
0000
0000
,
0020
0000
0000
0030
,
1010
0000
0101
0000
,
0200
0000
0000
0300
,
1001
0000
0010
0000
,
1000
0000
0100
0000
,
1001
0000
0010
0000
,
0001
0000
0100
0000
,
1001
0000
0010
0000
,
1000
0000
0100
0000
,
1001
0000
0010
0000
,
0002
0000
0200
0303
,
1001
0000
0010
0000
,
0001
0000
0100
0000
,
1001
0000
0010
0000
,
1000
0000
0100
0000
,
1001
0000
0010
0000
,
0001
0000
0100
0000
,
1001
0000
0010
0000
,
2000
0000
0200
3300
,
1001
0000
0101
0000
,
0210
0000
0000
0000
,
0000
0000
0000
0000
,
0000
0000
0000
0000
,
0301
1000
0001
1000
,
0200
0000
0000
0000
,
0000
0000
0000
0000
,
0000
0000
0000
0000
,
1300
0001
1000
0200
,
0000
0010
0000
0010
,
0000
0010
0000
0010
,
0000
0310
0001
1000
,
0001
1000
0001
0200
,
0000
0010
0000
0010
,
0000
0010
0000
0020
,
0000
0000
0330
1001
,
0000
0001
0000
0100
,
0000
0010
0000
1000
,
0000
0010
0000
0100
,
0000
0001
0001
1000
,
0000
0100
0000
0010
,
0000
0001
0000
0010
,
0000
0100
0000
2002
,
0000
0000
3003
1001
,
0000
1000
0000
0100
,
0000
0010
0000
0001
,
0000
0010
0000
0100
,
0000
1000
1000
0001
,
0000
0100
0000
0010
,
0000
1000
0000
0020
,
0000
0130
0100
1001
,
0001
0001
0000
1100
,
0000
0000
0011
0000
,
1000
1000
0000
0101
,
0000
0000
1010
0000
,
0100
0100
0000
1010
,
0000
0000
0101
0000
,
0010
0010
0000
0000
,
0100
0100
0000
0000
,
0001
0001
0000
0110
,
0000
0000
1100
0000
,
0010
0010
0000
1001
,
0000
0000
0011
0000
,
1000
1000
0000
0110
,
0000
0000
0110
2002
,
0000
0000
0000
3003
,
0000
0110
0000
2002
,
0000
0000
0000
0000
,
0000
0000
0000
0000
,
3003
0000
0000
0000
;

//---------------dance-double - M.Emirzian----------------
#NOTES:
     dance-double:
     M.Emirzian:
     Easy:
     6:
     0.457,0.444,0.052,0.034,0.000,361.000,6.000,4.000,0.000,0.000,0.000,0.457,0.444,0.052,0.034,0.000,361.000,6.000,4.000,0.000,0.000,0.000:
00000000
00000000
00000000
00000000
,
00000000
00000000
00000000
00000000
,
00000000
00000000
00000000
00000000
,
00000000
00000000
00000000
00000000
,
00000000
00000000
00000000
00000000
,
00000000
00000000
00000000
00000000
,
00000000
00000000
00000000
00000000
,
00000000
00000000
00000000
00000000
,
10000000
00000000
00010000
00000000
,
01000000
00000000
00100000
00000000
,
10000000
01000000
00100000
00000000
,
10000000
01000000
00010000
00000000
,
00100000
00000000
00001000
00000000
,
00010000
00000000
00000100
00000000
,
00010000
00000100
00001000
00000000
,
00000010
00001000
00000100
00000000
,
00000010
00000000
00000001
00000000
,
00000100
00000000
00000010
00000000
,
00001000
00000100
00010000
00000000
,
00001000
00010000
01000000
00000000
,
10000000
00000000
00100000
00000000
,
10000000
00000000
01000000
00000000
,
00100000
00010000
01000000
00000000
,
00100000
00010000
10000000
00000000
,
00100000
10000000
01000000
00000000
,
00100000
00010000
10000000
00000000
,
01000000
00000000
00100000
00000000
00001000
00000000
00000000
00010000
,
00000000
00001000
00010000
00001000
,
00010000
00000100
00001000
00000000
,
00000010
00000100
00000001
00000000
,
00000100
00000000
00000010
00000000
00001000
00000000
00000000
00000010
,
00000000
00000100
00000001
00001000
,
00000100
00010000
00001000
00010000
,
00001000
00000000
00000000
01000000
00000000
00000000
00010000
00000000
,
01000000
00100000
10000000
00100000
,
10000000
00000000
01000000
00100000
,
01000000
00100000
00010000
00100000
,
00001000
00000000
00000000
00010000
00000000
00000000
00001000
00000000
,
00010000
00001000
00010000
00000010
,
00001000
00000000
00000010
00000100
,
00000010
00001000
00000010
00000100
,
00000001
00000000
00000000
00000010
00000000
00000000
00000100
00000000
,
00001000
00000010
00001000
00000010
,
00010000
00000000
00001000
00010000
,
00001000
01000000
00001000
01000000
,
00010000
00000000
00000000
00100000
00000000
00000000
00010000
00000000
,
01000000
00010000
01000000
10000000
,
01000000
00000000
00010000
00000000
,
10010000
00000000
00000000
00000000
,
10000000
01000000
00100000
00010000
,
00000000
00000000
00000000
00000000
,
00000001
00000100
00000010
00001000
,
00000000
00000000
00000000
00000000
,
10000000
00100000
00010000
00100000
,
00000000
00000000
00000000
00000000
,
00000001
00000010
00001000
00000010
,
00000000
00000000
00000000
00000000
,
10000000
00010000
01000000
10000000
,
00000000
00000000
00000000
00000000
,
00000001
00000010
00001000
00000001
,
00000000
00000000
00000000
00000000
,
00100000
01000000
00010000
01000000
,
00100000
00000000
00000000
00000000
,
00000100
00000010
00000001
00000010
,
00000100
00001000
00000001
00000100
,
00000010
00000000
00000000
00001000
00000000
00000000
00000100
00000000
,
00010000
00000100
00010000
00001000
,
01000000
00000000
00000000
00010000
00000000
00000000
01000000
00000000
,
00100000
10000000
01000000
00100000
,
00010000
00000000
00000000
10000000
00000000
00000000
01000000
00000000
,
00100000
00010000
00100000
00001000
,
00010000
00000000
00000000
00001000
00000000
00000000
00010000
00000000
,
00000100
00001000
00000100
00010000
,
00000100
00000000
00000000
00001000
00000000
00000000
00000010
00000000
,
00000100
00000010
00001000
00000010
,
00001000
00000000
00000000
00000100
00000000
00000000
00000010
00000000
,
00000001
00000010
00000001
00001000
,
00000010
00000000
00000000
00010000
00000000
00000000
00001000
00000000
,
01000000
00001000
01000000
00010000
,
01000000
00000000
00000000
00100000
00000000
00000000
10000000
00000000
,
20020000
00000000
00000000
30030000
,
10000000
01000000
00100000
00000000
,
10000000
01000000
00100000
00000000
,
00010000
01000000
00100000
00000000
,
00010000
01000000
00100000
00000000
,
00001000
00010000
00000100
00000000
,
00001000
00010000
00000100
00000000
,
00001000
00000100
00000001
00000000
,
00000010
00001000
00000100
00000000
,
00000001
00000100
00001000
00000000
,
00010000
00100000
10000000
00000000
,
00100000
10000000
01000000
00000000
,
00100000
00000000
00010000
00000000
,
10000000
00100000
01000000
00000000
,
00010000
01000000
00100000
10000000
,
00000000
01010000
00000000
10000000
,
00010000
01000000
00000000
00100000
,
01000000
00001000
00000000
00100000
,
00010000
00001000
00000000
00010000
,
00000100
00001000
00000000
00000010
,
00001000
00000010
00001000
00000001
,
00001000
00000001
00000100
00000010
,
00001000
00000010
00001000
00000010
,
00010000
00001000
00010000
00001000
,
01000000
00001000
00010000
00000000
,
00001000
01000000
00010000
00000000
,
01000000
00100000
10000000
00000000
,
00010000
00100000
10000000
00000000
,
00010000
01000000
00001000
00000000
,
00010000
00000100
00001000
00000100
,
00000000
00001001
00000000
00000010
,
00001000
00000100
00001000
00000100
,
00000000
00010000
00000000
00000000
00001000
00000000
01000000
00000000
,
00001000
01000000
00010000
01000000
,
00000000
00100000
00000000
00000000
10000000
00000000
01000000
00000000
,
00100000
00010000
10000000
00100000
,
00000000
01000000
00000000
00000000
00010000
00000000
10000000
00000000
,
01000000
00100000
00010000
00100000
,
00001000
00100000
00001000
00010000
,
00001000
00010000
00000100
00001000
,
00000000
00000100
00000000
00000000
00000010
00000000
00000001
00000000
,
00000010
00000001
00001000
00000010
,
00000000
00000100
00000000
00000000
00000001
00000000
00000100
00000000
,
00000010
00001000
00000010
00010000
,
00000000
00001000
00000000
00000000
00010000
00000000
00001000
00000000
,
01000000
00001000
01000000
00010000
,
00000000
01010000
00000000
20020000
,
00000000
00000000
00000000
00000000
,
00000000
00000000
00000000
30030000
;

//---------------dance-double - M.Emirzian----------------
#NOTES:
     dance-double:
     M.Emirzian:
     Medium:
     9:
     0.654,0.722,0.138,0.121,0.000,501.000,16.000,14.000,10.000,0.000,0.000,0.654,0.722,0.138,0.121,0.000,501.000,16.000,14.000,10.000,0.000,0.000:
00000000
00000000
00000000
00000000
,
00000000
00000000
00000000
00000000
,
00000000
00000000
00000000
00000000
,
00000000
00000000
00000000
00000000
,
00100000
00000000
10000000
00000000
01000000
00000000
00000000
00100000
,
00000000
00010000
10000000
00000000
,
01000000
00000000
00100000
00000000
00010000
00000000
00000000
00202000
,
00000000
00000000
00000000
00303000
,
00010000
00001000
00010000
00000100
,
00001000
00000000
00000010
00000000
00001000
00000010
00001000
00000000
,
00000001
00000100
00000010
00001000
,
00000010
00000000
00010000
00000000
00001000
00010000
00001000
00000000
,
01000000
00010000
01000000
00100000
,
10000000
00000000
00010000
00000000
00100000
01000000
00100000
00000000
,
01000000
10000000
00010000
01000000
,
00001000
00000000
00010000
00000000
00000100
00001000
00000100
00000000
,
00001000
00000010
00001000
00000100
,
00000010
00000000
00000001
00000000
00001000
00000010
00001000
00000000
,
00000001
00000100
00000010
00001000
,
00000100
00000000
00010000
00000000
00001000
00010000
00001000
00000000
,
01000000
00010000
00100000
01000000
,
10000000
00000000
00010000
00000000
01000000
00100000
01000000
00000000
,
00010000
10000000
00100000
10000000
,
01000000
00100000
00010000
10000000
00010000
00100000
00010000
00000000
,
10000000
00000000
00100000
00000000
01000000
00001000
00000000
00001000
,
00010000
00000100
00001000
00000010
,
00000100
00000000
00000001
00000000
00001000
00000100
00000000
00000010
,
00000000
00000100
00001000
00000000
00000010
00000000
00010000
00000000
,
00001000
00000000
01000000
00000000
00010000
00100000
00000000
01000000
,
00000000
00100000
00010000
00000000
10000000
00000000
00100000
00000000
,
01000000
00000000
00001000
00000000
00010000
00001000
00000000
00001000
,
01000000
00001000
00010000
00000010
,
00001000
00000100
00000010
00000001
,
00000100
00000000
00000M00
00000010
00000000
00000010
00001000
00000000
,
00000100
00010000
00001000
01000000
,
02020000
00000000
00000000
00000000
03030000
00000000
10000000
00100000
,
10000000
01000000
00100000
00001000
,
00010000
00000000
000M0000
00000100
00000000
00000100
00001000
00000000
,
00000010
00001000
00000100
00000010
,
00002002
00000000
00000000
00000000
00003003
00000000
00001000
00000010
,
00001000
00000100
00010000
00001000
,
01000000
00000000
0M000000
00010000
00000000
00010000
00100000
00000000
,
01000000
10000000
01000000
00100000
,
00202000
00000000
00000000
00000000
00303000
00000000
01000000
00010000
,
01000000
00001000
00010000
00000100
,
00001000
00000000
0000M000
00000010
00000000
00000010
00000100
00000000
,
00000001
00001000
00000100
00000010
,
00002200
00000000
00003300
00000000
,
00011000
00000000
00000000
10000000
,
01000000
00100000
00001000
00010000
,
00000000
00000000
00000000
00000001
,
00000010
00000100
00010000
00001000
,
00000000
00000000
00000000
10000000
,
00100000
00010000
00100000
10000000
,
00000000
00000000
00000000
00000001
,
00000100
00001000
00000100
00000001
,
00000000
00000000
00000000
00100000
,
00001000
00010000
01000000
10000000
,
00000000
00000000
00000000
00000100
,
00010000
00001000
00000010
00000001
,
00000000
00000000
00000000
10000000
,
01000000
00100000
00010000
10000000
,
00000000
00000000
00000000
00000001
,
00000100
00000010
00001000
00000001
,
00000010
00000100
00001000
00000010
,
00000100
00000000
00000000
00000001
00001000
00000001
00001000
00000000
,
00000100
00010000
00001000
01000000
,
00010000
00000000
00000000
00100000
00010000
00100000
01000000
00000000
,
00100000
00010000
10000000
00100000
,
01000000
00000000
00000000
00010000
01000000
00010000
10000000
00000000
,
01000000
00100000
00001000
00010000
,
00000100
00000000
00001000
00000000
00000010
00001000
00000010
00000000
,
00000100
00000001
00001000
00000100
,
00000010
00000000
00000000
00000100
00001000
00000100
00010000
00000000
,
00001000
00000100
00001000
00010000
,
00100000
00000000
00000000
10000000
00010000
10000000
01000000
00000000
,
00100000
00001000
00010000
00000100
,
00000010
00000000
00000000
00000001
00001000
00000001
00000100
00000000
,
00000010
00001000
00000100
00001000
,
00000010
00010000
00001000
01000000
,
00220000
00000000
00000000
00330000
,
10000000
00100000
01000000
00010000
,
10000000
01000000
00100000
00001000
,
00100000
00010000
01000000
00001000
,
00010000
00000000
000M0000
00001000
00010000
00001000
00010000
00000000
,
00000100
00001000
00000010
00000001
,
00000010
00001000
00000100
00000010
,
00000100
00001000
00000001
00000100
,
00001000
00000000
0000M000
00010000
00001000
00010000
00100000
00000000
,
10000000
01000000
00100000
00010000
,
00100000
00001000
00010000
00100000
,
10000000
00100000
01000000
00001000
,
0000M000
00010000
00001000
00010000
00000100
00000000
00001000
00000000
,
00000100
00000001
00000100
00001000
,
00000010
00000000
00000100
00000001
00000100
00000000
00001010
00000000
,
00010010
00011000
01001000
01000000
,
00010000
00100000
00010000
10000000
,
01000000
00100000
00001000
00010000
,
00100000
01000000
00010000
01000000
,
00001000
00000000
00010000
00001000
00010000
00000000
00000100
00000000
,
00001000
00000010
00001000
00000100
,
00000010
00000001
00001000
00000100
,
00010000
00001000
00000100
00000001
,
00000100
00000010
00001000
00000100
,
00010000
00001000
01000000
00001000
,
00010000
00100000
01000000
00010000
,
01000000
00100000
10000000
01000000
,
00000000
00100000
00010000
10000000
00010000
00000000
10000000
00000000
,
00100000
01000000
00001000
00010000
,
01000000
00000000
10000000
00100000
10000000
00000000
01100000
00000000
,
00011000
00000000
00000110
00000000
00011000
00000000
00100000
00001000
,
00010000
00000100
00001000
00000010
,
000000M0
00000100
00000000
00000100
00000001
00000000
00001000
00000100
,
00000010
00000001
00001000
00000100
,
00000000
00010000
00001000
00010000
00000100
00000000
00010000
00001000
,
01000000
00001000
00100000
00010000
,
00000000
10000000
00010000
10000000
01000000
00000000
00100000
00010000
,
10000000
01000000
10000000
00010000
,
01000000
00000000
00001000
00000000
00010000
00000000
00001000
00010000
,
00000100
00000000
00001000
00000010
00000100
00000000
00000001
00000000
,
0000000M
00000001
00001000
00000100
00000010
00000000
00000001
00001000
,
00000010
00010000
00001000
01000000
,
0M000000
00001000
01000000
00010000
01000000
00000000
00100000
10000000
,
00010000
00100000
01000000
10000000
,
00000000
00010000
01000000
00001000
00010000
00000000
00000100
00010000
,
00001000
00000000
00010000
00000100
00001000
00000100
00001000
00000010
,
00000100
00000010
00000100
00000001
00001000
00000000
00002002
00000000
,
00000000
00000000
00000000
00000000
,
00000000
00000000
00000000
00003003
;

//---------------dance-double - M.Emirzian----------------
#NOTES:
     dance-double:
     M.Emirzian:
     Hard:
     11:
     0.862,0.888,0.543,0.147,0.060,620.000,63.000,17.000,12.000,0.000,2.000,0.862,0.888,0.543,0.147,0.060,620.000,63.000,17.000,12.000,0.000,2.000:
00000000
00000000
00000000
00000000
,
00000000
00000000
00000000
00000000
,
00000000
00000000
00000000
00000000
,
00000000
00000000
00000000
00000000
,
10000000
00000000
00100000
00000000
01000000
00000000
00010000
10000000
,
000M0000
00000000
01000000
00000000
00100000
00010000
10000000
00000000
,
00100000
00000000
01000000
00000000
00010000
01000000
00001000
00010000
,
00001000
00000000
00010000
00001000
00010000
00000010
00001000
00000010
,
00001000
00000100
00000010
00000000
00000010
00000100
00001000
00000000
,
00000010
00000100
00000001
00000000
00000010
00000001
00000100
00000000
,
00000010
00010000
00001000
00010000
00002000
00000000
01000000
00000000
,
00013000
00001000
01000000
00001000
01000000
00010000
01000000
00000000
,
00100000
10000000
01000000
00000000
00100000
01000000
10000000
00000000
,
00100000
01000000
00010000
00000000
00100000
00010000
01000000
00000000
,
00100000
01000000
00001000
00010000
00002000
00000000
00010000
00000000
,
01003000
00001000
00010000
00001000
00010000
00000100
00001000
00000000
,
00001000
00000001
00000100
00000000
00001000
00000100
00000001
00000000
,
00001000
00000001
00000010
00000100
00000010
00000001
00001000
00000010
,
00001000
00000010
00010000
00001000
00020000
00000000
00001000
00000000
,
00030100
00010000
00001000
00010000
00001000
01000000
00010000
00000000
,
01000000
00100000
10000000
00000000
01000000
10000000
00100000
00000000
,
00010000
00100000
01000000
00000000
00010000
01000000
10000000
00000000
,
01000000
00010000
01000000
00001000
02000000
00000000
00001000
00000000
,
03010000
01000000
00001000
01000000
00010000
01000000
00001000
00000000
,
00010000
00000000
00001000
00000000
00010000
00000100
00000000
00000010
,
00000100
00000000
00010000
00000000
00000100
00001000
00000010
00000000
,
00000100
00000000
00000001
00000000
00001000
00000100
00000000
01000000
,
00000000
00000100
00001000
00000000
00000010
00010000
00001000
00000000
,
01000000
00000000
00100000
00000000
01000000
00001000
00000000
00010000
,
00000000
00001000
01000000
00000000
00100000
10000000
01000000
00000000
,
00100000
00000000
00001000
00000000
00010000
00000010
00000000
00000100
,
00000000
00000000
00000000
00000010
00000000
00000000
00010000
00000000
00000000
00000000
00000000
00000000
00001000
00000000
00000000
00000000
00010000
00000000
00000000
00000000
00000100
00000000
00000000
00000000
,
00001000
00010100
00001100
00001010
,
00001001
00000000
00000000
00001010
00000000
00010000
00001000
00000000
,
01001000
01010000
01100000
10100000
,
20020000
00000000
00000000
00000000
30030000
00000000
10000000
01000000
,
00100000
00110000
00101000
00011000
,
01001000
00000000
00000000
00011000
00000000
00000100
00001000
00000000
,
00010100
00011000
00010010
00001010
,
00002200
00000000
00000000
00000000
00003300
00000000
00001000
00000100
,
00000010
00001001
00000110
00010010
,
00011000
00000000
00000000
01001000
00000000
00100000
00010000
00000000
,
01010000
01001000
01100000
10100000
,
02020000
00000000
00000000
00000000
03030000
00000000
10000000
01000000
,
00100000
00010000
00100000
00000100
,
00001000
00000000
00000000
00000010
00000000
00000100
00000001
00000000
,
00000100
00000010
00100000
00001000
,
00022000
00000000
00033000
00000000
,
01001000
00000000
00000000
00000000
00000000
00000000
10000000
00100000
,
01000000
00010000
01000000
10000000
,
00000000
00000000
00011000
00000000
00000000
00000000
00000001
00000100
,
00000010
00001000
00000010
00000001
,
00000000
00000000
00011000
00000000
00000000
00000000
00010000
01000000
,
10000000
01000000
00010000
00100000
,
00000000
00000000
00011000
00000000
00000000
00000000
00000001
00000010
,
00001000
00000010
00000001
00000100
,
00001001
00000000
00000000
00000000
00010000
00000000
00100000
10000000
,
01000000
00010000
01000000
10000000
,
00001000
00000000
00010000
00000000
00000100
00000000
00000010
00000001
,
00000100
00001000
00000100
00000001
,
00001001
00000000
00000000
00000000
00000000
00000000
00010000
00100000
,
01000000
00010000
01000000
10000000
,
01000000
00000000
00001000
00000000
00010000
00000000
00001000
00000100
,
00000010
00001000
00000010
00000001
,
00000010
00000100
00000001
00000000
00000100
00000000
00000010
00000000
,
00001010
00000000
0000M000
00000100
00010000
00001000
01000000
00000000
,
00010000
01000000
00100000
00000000
10000000
00000000
01000000
00000000
,
01100000
00000000
00000000
00010000
01000000
00100000
10000000
00000000
,
01000000
00100000
00001000
00000000
00010000
00000000
00000100
00000000
,
00001100
00000000
0000M000
00000010
00000100
00000001
00001000
00000000
,
00000100
00000010
00000001
00000000
00000100
00000010
00001000
00000100
,
00001000
00000100
00010000
00001000
00010000
00001000
01000000
00000000
,
00100000
10000000
01000000
00000000
00100000
00000000
00010000
00000000
,
01000000
00000000
00001000
00010000
00001000
01000000
00001000
00000000
,
00010000
00000010
00001000
00000000
00000100
00000000
00000010
00000000
,
00000100
00000000
00001000
00000001
00000100
00000010
00001000
00000000
,
00000100
00010000
00001000
00000000
00000100
00000000
00001000
00000000
,
00010000
00000000
00001000
01000000
00010000
01000000
00100000
00000000
,
01000000
00010000
10000000
01000000
00100000
00010000
00100000
00000000
,
00010000
00000000
01000000
00000000
00001000
00000000
00010000
00000000
00000100
00000000
00001000
00000000
,
00004400
00000000
00000000
00003300
,
00001000
00000001
00001000
00000000
00000010
00000100
00000010
00000000
,
00010000
00000000
00001000
00000000
00010000
00001000
00010000
00000000
,
01000000
00000000
10000000
00000000
00100000
01000000
00010000
01000000
,
00010000
00000000
00100000
00000000
00001000
00010000
00001000
00000000
,
00000100
00000000
00000001
00000000
00000010
00000100
00001000
00000010
,
00001000
00000000
00000001
00000000
00000100
00000010
00001000
00000010
,
00010000
00001000
01000000
00000100
,
00010000
00000000
00000000
00010000
00001000
00010000
01100000
00000000
,
10000000
00100000
00020000
00001000
,
00030100
00000000
00001000
00000100
00001000
00000010
00000100
00000001
,
00000010
00000100
00000010
00000000
00001000
00000000
00010000
00000000
,
01000000
00000000
10000000
01000000
10000000
00000000
01000000
00000000
,
00010000
00001000
00000010
00000100
,
00000001
00000000
00000010
00000100
00000010
00000000
00001001
00000000
,
00000110
00000000
00011000
00000000
01100000
00010000
10000000
00000000
,
01000000
00100000
00002000
00010000
,
01003000
00000000
0001M000
00100000
00010000
00000000
01000000
00000000
,
10000000
01000000
00010000
00001000
,
00000010
00000000
00001000
00000010
00001000
00000000
00000100
00000000
,
00000001
00000100
00001000
00010000
,
00100000
00000000
01000000
10000000
01000000
00000000
00010000
00000000
,
00100000
00000000
00000000
01000000
00000000
00000000
10000000
00000000
00000000
01000000
00000000
00100000
,
00000000
00001000
00000000
00010000
00000000
00000100
00000000
00001000
00000000
00000010
00000000
00000000
,
00000100
00000001
00000200
00000010
,
00001300
00000000
00010000
00001000
00010000
00000000
00000010
00000000
,
00000100
00001000
00010000
00001000
,
0000M000
00010000
01000000
00100000
10000000
00000000
01000000
00100000
,
00010000
10000000
01000000
00100000
00010000
00100000
00001000
00010000
,
00001000
00000000
01000000
00001000
01000000
00000000
00011000
00000000
,
00010100
00000000
00011000
00000000
01001000
00010000
01000000
00010000
,
00100000
01001000
01100000
01010000
,
00000000
10100000
00000000
01000000
00100000
00000000
00010000
01000000
,
00001000
00010000
00001000
00000000
01000000
00010000
00100000
00001000
,
00010000
00000000
00001000
00010000
00000100
00000000
00001000
00000100
,
00000010
00001001
00001100
00010100
,
00000000
00001010
00000000
00000010
00000100
00000000
00000001
00000100
,
00000010
00000000
00000000
00001000
00000000
00000000
00000100
00000000
00000000
00000000
00000000
00000000
00000010
00000000
00000000
00000100
00000000
00000000
00001000
00000000
00000000
00000000
00000010
00000000
,
00000000
00000000
00010000
00000000
00000000
00000000
00001000
00000000
00000000
00000000
01000000
00000000
00000000
00000000
00100000
00000000
00000000
00000000
10000000
00000000
00000000
01000000
00000000
00000000
,
00100000
00000000
00010000
01000000
00100000
00000000
01000000
00001000
,
00010000
00001000
00010000
00000100
00001000
00000000
00001000
00000100
,
00000010
00000001
00001000
00000010
00000100
00000000
00000010
00001000
,
00000100
00001000
00000100
00010000
00001000
00000000
01000000
00001000
,
00010000
00000000
00010010
00000000
000110M0
00000000
00M01000
00010000
,
00100000
00000000
1001M000
00000000
01100000
00000000
00100000
00010000
,
00100000
00001000
00010000
00001000
00010000
00000100
00001000
00000000
,
0000M010
00000100
000000M0
00000001
00001M00
0000000M
00002002
00000000
,
00000000
00000000
00000000
00000000
,
00000000
00000000
00000000
00003003
;

//---------------dance-double - M.Emirzian----------------
#NOTES:
     dance-double:
     M.Emirzian:
     Challenge:
     13:
     1.000,1.000,0.552,0.000,0.388,822.000,64.000,0.000,128.000,0.000,4.000,1.000,1.000,0.552,0.000,0.388,822.000,64.000,0.000,128.000,0.000,4.000:
00000000
00000000
00000000
00000000
,
00000000
00000000
00000000
00000000
,
00000000
00000000
00000000
00000000
,
00000000
00000000
00000000
00000000
,
00010000
00000000
00000100
00000000
00000010
00000000
00001000
00000100
,
00000000
00000000
00001001
00000000
00000100
00001000
00000010
00000000
,
00000100
00000000
00000000
00000000
00001000
00000001
00001000
00000000
00000010
00000000
00001000
00000000
00000100
00000000
00000010
00000000
,
00000001
00000100
00000010
00010000
00001000
00100000
00001000
00010000
,
00001000
01000000
00010000
00100000
01000000
10000000
00100000
01000000
,
00001000
01000000
00100000
10000000
00010000
00100000
01000000
00100000
,
00001000
00010000
00000100
00010000
00000010
00010000
00000100
00001000
,
00000001
00001000
00000010
00000100
00000001
00000010
00000100
00000010
,
00000001
00000100
00000010
00000000
00000010
00000100
00001000
00000000
,
00001000
00000010
00010000
00000000
00100000
00010000
00001000
00000000
,
00010000
00001000
01000000
00001000
00100000
00010000
01000000
00000000
,
01000000
00000000
10000000
00000000
00010000
00000000
00100000
00000000
00010000
00000000
01000000
00000000
00001000
00000000
01000000
00010000
,
01000000
00010000
10000000
01000000
00100000
00010000
01000000
00010000
,
10000000
00100000
01000000
00001000
00010000
00000100
00001000
00000010
,
00001000
00000100
00000010
00001000
00000010
00000001
00001000
00000010
,
00010000
00000010
00001000
00000001
00000100
00000010
00001000
00000100
,
00001000
00000010
00000100
00000000
00000100
00010000
00001000
00000000
,
00010000
00100000
01000000
00000000
01000000
00010000
00100000
00000000
,
00100000
10000000
00010000
01000000
00100000
10000000
01000000
00000000
,
01000000
00010000
01000000
00001000
00010000
00000100
00001000
00000010
,
00010000
00000000
00000000
00000000
00000100
00000000
00010000
00001000
00010000
00000000
00000010
00000000
00000000
00000000
00001000
00000010
,
00000100
00000000
00001010
00000000
00001001
00000000
00000010
00010000
,
00000100
00001000
00000100
00000010
00000100
00010000
00001000
01000000
,
00001000
00100000
00010000
00100000
00001000
01000000
00010000
10000000
,
00100000
00000000
00000000
00000000
10000000
01000000
10000000
00000000
01000000
00000000
00100000
00000000
00000000
00000000
10010000
00000000
,
00000000
00000000
10000000
01000000
00100000
00000000
00000000
00000000
01100000
00000000
00000000
00000000
00100000
00000000
00010000
00000000
,
10000000
00100000
01000000
00010000
01000000
00001000
00010000
00000100
,
00010000
00000000
00000000
00000010
00000000
00000000
00001000
00000000
00000000
00000100
00000000
00000000
00010000
00000000
00000000
00000000
00001000
00000000
00000000
00000000
00010000
00000000
00000000
00000000
,
00001010
00010010
00001100
00010010
,
00011000
00000000
00000000
00001100
00000000
00000100
00000010
00010000
,
00001000
00010000
00000010
00001000
00000001
00001000
00000100
00000010
,
00000001
00001000
00000010
00010000
00001000
00100000
00001000
01000000
,
00010000
01001000
00110000
01001000
,
00011000
00000000
00000000
00101000
00000000
00100000
01000000
00001000
,
01000000
00100000
10000000
01000000
00100000
00010000
01000000
00001000
,
00010000
00001000
01000000
00100000
01000000
00001000
00010000
00000100
,
00001000
00010100
00001100
00010100
,
00001010
00000000
00000000
00001100
00000000
00001000
00010000
00001000
,
01000000
00000100
00001000
00000010
00001000
00000100
00000010
00000001
,
00001000
00000010
00000100
00000001
00000010
00000001
00001000
00000010
,
00010000
00010010
00011000
01001000
,
01010000
00000000
00000000
00110000
00000000
00010000
00001000
00100000
,
00001000
01000000
00010000
00100000
01000000
10000000
01000000
00100000
,
00001000
00000000
00010000
00000000
00001000
00000000
00000000
00000000
00000100
00000010
00000100
00000000
00000001
00000000
00000000
00000000
,
00001001
0000M00M
00000110
00000M0M
,
00000101
00000000
00000000
00000000
00000100
00000000
00000000
00000000
00000010
00001000
00000001
00000000
00000100
00000000
00000000
00000000
,
00000MM0
00011000
M0M00000
10100000
,
00100000
00000000
00000000
00000000
01000000
00010000
10000000
00000000
00100000
00000000
00000000
00000000
10010000
00000000
00000000
00000000
,
M0M00000
00011000
00000M00
00000010
,
00000011
00000000
00000000
00000000
00000010
00000000
00000000
00000000
00001000
00000001
00000010
00000000
00000100
00000000
00000000
00000000
,
0000MM00
00011000
MM000000
11000000
,
01000000
00000000
00000000
00000000
00010000
10000000
01000000
00000000
00100000
00000000
00000000
00000000
01100000
00000000
00000000
00000000
,
10010000
M00M0000
00011000
00000000
,
00000110
00000000
00000000
00000000
00001001
00000000
00000000
00000000
00000100
00000010
00001000
00000000
00000001
00000000
00000000
00000000
,
00000010
00000000
00000100
00000000
00010000
00000000
00001000
00000000
00000000
01100000
00000000
00000000
,
10010000
00000000
00000000
00000000
00100000
01000000
10000000
00000000
00010000
00000000
00000000
00000000
01000000
00000000
00000000
00000000
,
10010000
M00M0000
00011000
0000M000
,
00001010
00000000
00000000
00000000
00000110
00000000
00000000
00000000
00000100
00000010
00000001
00000000
00001000
00000000
00000000
00000000
,
00000010
00000000
00000100
00000000
00001000
00000000
00010000
00000000
00000000
00110000
00000000
00000000
,
01100000
00000000
00000000
00000000
00100000
01000000
00010000
00000000
10000000
00000000
00000000
00000000
01000000
00000000
00000000
00000000
,
00100000
M0000000
00001000
00000000
01M00000
00000000
M0000000
000M0000
01000000
00000000
10M00000
00000000
00100000
00000000
0M0M0000
00000000
,
01000000
M0000000
0M001000
000M0000
00M00000
00000000
010M0000
00000000
M0100000
00000000
01000000
000M0000
00001000
00000000
0M010000
00M01000
,
00010000
00000000
0000M100
00000000
000M1000
00000000
00000M00
00000000
00010000
0000M000
00000M10
000M0000
00001000
00000000
00000M01
00000000
,
00001000
000000M0
00000100
00000000
00000010
0000M10M
00000010
00000000
00000100
00000000
000010M0
00000M00
00000001
00000000
0000M100
00000000
,
00000010
00000000
00001M00
0000000M
00000100
00000000
000100M0
00001000
00010000
00000M00
0000M010
00000000
00001000
00000000
000M0M00
00000000
,
00010000
00000000
00001000
00M00000
000M0000
00000000
01000000
0000M000
00100000
M0000000
01M00000
00000000
00001000
M0000000
000M0000
00000000
,
00100000
M0000000
0100M000
00000000
00001000
00000000
M0M00000
00000000
00010000
0M000000
M0001000
000M0000
00100000
00000000
0M010000
00000000
,
10M00000
00000000
01000000
00M00000
M00M0000
00000000
10000000
00000000
00100000
00000000
0M010000
M000M000
01000000
000M0M00
00M01000
00000000
,
00010000
0000M000
00M00100
00000000
00000010
0000000M
00000M00
00000000
0000M010
00000000
00000100
00000000
000000M1
0000M000
00000100
00000001
,
00000100
00000000
0000M010
00000000
00000M00
0000000M
000M0100
00000000
00001000
00000000
000M01M0
00000000
00010000
00000000
0000M000
00000000
,
000M0100
00000000
00010000
00000M00
00000010
00000000
00000000
0000M000
00000010
00000000
00000001
00000000
000001M0
00000000
00000010
0000000M
,
00010M00
00000000
00001000
00000000
0000M000
00000000
00000100
00000000
00010M00
00M00000
00001000
00000000
010M0000
00000000
0000M100
00000000
,
0M010000
00000000
00001000
00000000
00100000
00000000
M001M000
00100000
00010000
00000000
10M00000
00000000
01000000
00000000
M0000000
00000000
,
001M0000
00000000
0M010000
00000000
M0000000
00000000
001M0000
00000000
01000000
00000000
00M01000
00000M00
00010000
00000000
00000100
000010M0
,
0000010M
00000000
000M0010
00000000
00000M01
00000000
0000M0M0
00000000
00000100
00000000
00000010
00000000
00000100
00000000
00000001
000000M0
,
00001000
00000000
00000000
00000000
00000000
00000000
00000000
00000000
00000100
000M0000
00000000
00000000
00000000
00000000
00000000
00000000
00010000
00000000
00000000
00000000
00000000
00000000
00000000
00000000
00001000
00000000
00000000
00000000
00000000
00000000
00000000
00000000
01000000
00M00000
00000000
00000000
00000000
00000000
00000000
00000000
00010000
00000000
00000000
00000000
00000000
00000000
00000000
00000000
,
04004000
00000000
00000000
00000000
00000000
00000000
00000000
00000000
00000000
00000000
00000000
00000000
00000000
00000000
00000000
00000000
00000000
00000000
00000000
00000000
03003000
00000000
00000000
00000000
01000000
00010000
01000000
00000000
00010000
01000000
00010000
00000000
,
01000000
00010000
10000000
00000000
01000000
00010000
00001000
00000000
,
00010000
00000000
00100000
00000000
01000000
00000000
00010000
00000000
10000000
00000000
01000000
00000000
00100000
00000000
01000000
00100000
,
01000000
10000000
00010000
00000000
01000000
00001000
00010000
00000000
,
00010000
00000000
00000100
00000000
00000000
00000000
00010000
00000000
00001000
00000000
01000000
00000000
00001000
00000000
00010000
00001000
,
00010000
00000100
00001000
00000000
00000100
00010000
00000010
00000000
,
00000010
00000000
00000100
00000000
00000001
00000000
00000010
00000000
00000100
00000000
00001000
00000000
00000010
00000000
00000100
00000001
,
00000100
00000010
00001000
00000000
00000010
00010000
00001000
00000000
,
00000010
00000100
00000000
00000100
00000010
00001000
001MM000
00010000
,
00001000
00000000
00000000
00000000
00001000
00000000
00000100
00000000
00010000
00000000
00001000
00010000
00001000
00000000
01000000
00000000
,
00001000
00010000
00100000
01000000
00010000
00000000
01000000
00100000
,
00010000
00000000
10000000
01000000
00001000
00000000
01000000
00010000
,
00000000
00001000
00100000
00001000
00010000
00000000
01000000
00010000
,
00001000
00000000
00000000
00000000
00001000
00000000
00000010
00000000
00000100
00000000
00000001
00000100
00000001
00000000
00000100
00000000
,
00000010
00010000
00001000
00000100
00000001
00000000
00000110
00000000
,
00010100
00000000
00100100
00000000
00011000
00010000
00001000
01000000
,
00010000
00000000
01000000
00000000
00100000
00000000
00000000
00000000
00100000
00000000
00010000
00000000
01000000
00000000
00100000
01000000
,
00100000
10000000
01000000
00100000
00010000
00000000
00001000
01000000
,
00010000
00000000
00001000
01000000
00100000
00000000
01010000
00000000
,
00100000
00001000
00010000
00000100
00000010
00000001
00001000
00000010
,
00000100
00000000
00000001
00000100
00000001
00000000
00000100
00000000
00000010
00000000
00000000
00000000
00000010
00000000
00000001
00000000
,
00000100
00000000
00000010
00000000
00010000
00000000
00000100
00000000
00001000
00000000
00000010
00001000
00000010
00000000
00010000
00000000
,
00001000
00000000
00000000
00000000
00000000
00000000
00001000
00000000
00000000
00000100
00000000
00000000
00000010
00000000
00000000
00000000
00000000
00000000
00000100
00000000
00000000
00000000
00010000
00000000
,
00000000
00000000
00001000
00000000
00000000
00000000
01000000
00000000
00000000
00000000
00010000
00000000
00000000
00000000
00100000
00000000
00000000
00000000
01000000
00000000
00000000
10000000
00000000
00000000
,
00010000
00000000
00000000
00000000
00010000
00000000
00001000
00000000
01000000
00000000
00100000
01000000
00100000
00000000
01000000
00000000
,
00010000
00100000
01000000
10000000
00010000
00000000
01000000
00001000
,
00010000
00000000
00010000
00100000
00001000
00000000
00010000
00000100
,
00000000
00000000
00000010
00000000
00001000
00000000
00000010
00000000
00000100
00000000
00000001
00000100
00000001
00000000
00000100
00000000
,
00000010
00000000
00000010
00000001
00000100
00000000
00000010
00010000
,
00001000
01000000
00001000
00010000
01000000
00000000
10010000
00000000
,
01001000
00000000
00010010
00000000
00001001
00000010
00000100
00001000
,
00000010
00001000
00000100
00010000
00001000
01000000
00010000
01000000
,
00000000
01100000
00000000
01000000
10000000
01000000
00100000
00001000
,
00010000
00000100
00010000
00001000
01000000
00010000
00100000
01000000
,
10000000
00010000
01000000
00001000
00010000
00000010
00010000
00000100
,
00000010
00000100
00001000
00000010
00001000
00000001
00000100
00000010
,
00000000
00010010
00000000
00000010
00000100
00010000
00001000
01000000
,
00100000
00000000
00000000
01000000
00000000
00000000
00010000
00000000
00000000
00100000
00000000
00000000
01000000
00000000
00000000
10000000
00000000
00000000
00010000
00000000
00000000
00000000
01000000
00000000
,
00000000
00000000
00100000
00000000
00000000
00000000
10000000
00000000
00000000
00000000
01000000
00000000
00000000
00000000
00100000
00000000
00000000
00000000
00010000
00000000
00000000
00100000
00000000
00000000
,
00001000
00010000
00000100
00000010
00000100
00001000
00000010
00010000
,
00000100
00010000
00001000
00010000
00000010
00001000
00000100
00001000
,
00000001
00000100
00000010
00001000
00000100
00010000
00001000
00010000
,
01000000
00000000
11000000
00000000
01010000
00000000
01000000
10000000
,
00100000
10000000
01000000
00100000
00010000
00100000
00001000
00010000
,
00000010
00000000
00000100
00000000
00000001
00000000
00000100
00000000
00000010
00000000
00001000
00000000
00000001
00001000
00000001
00000000
,
00000100
00000000
00000010
00000000
00001000
00000000
00000100
00000000
00010000
00000000
00001000
00010000
00001000
00000000
01000000
00001000
,
01000000
00000000
00001000
00000000
00100000
00010000
00100000
00000000
01000000
00000000
00100000
00000000
40040000
00000000
00000000
00000000
,
00000000
00000000
00000000
00000000
,
00000000
00000000
00000000
00000000
00000000
00000000
00000000
30030000
;

//---------------dance-single - J. Frederick----------------
#NOTES:
     dance-single:
     J. Frederick:
     Beginner:
     1:
     0.118,0.219,0.112,0.000,0.000,83.000,13.000,0.000,0.000,0.000,0.000,0.118,0.219,0.112,0.000,0.000,83.000,13.000,0.000,0.000,0.000,0.000:
0000
0000
0000
0000
,
0000
0000
0000
0000
,
0000
0000
0000
0000
,
0000
0000
0000
0000
,
0000
0000
0000
0000
,
0000
0000
0000
0000
,
0000
0000
0000
0000
,
0000
0000
0000
0000
,
0000
0000
0000
0000
,
1000
0000
0000
0000
,
0000
0000
0000
0000
,
0000
0001
0000
0000
,
0000
0000
0000
0000
,
0010
0000
0000
0000
,
0000
0000
0000
0000
,
0100
0000
0000
0000
,
0000
0000
0000
0000
,
1000
0000
0000
0000
,
0000
0000
0000
0000
,
0001
0000
0000
0000
,
0000
0000
0000
0000
,
0100
0000
0000
0000
,
0000
0000
0000
0000
,
0010
0000
0000
0000
,
0000
0000
0000
0000
,
1000
0000
0000
0000
,
0000
0000
0000
0000
,
0001
0000
0000
0000
,
0000
0000
0000
0000
,
0010
0000
0000
0000
,
0000
0000
0000
0000
,
0100
0000
0000
0000
,
0000
0000
0000
0000
,
0100
0000
0000
0000
,
0000
0000
0000
0000
,
1000
0000
0000
0000
,
0000
0000
0000
0000
,
0001
0000
0000
0000
,
0000
0000
0000
0000
,
0100
0000
0000
0000
,
0000
0000
0000
0000
,
0010
0000
0000
0000
,
0000
0000
0000
0000
,
1000
0000
0000
0000
,
0000
0000
0000
0000
,
0001
0000
0000
0000
,
0000
0000
0000
0000
,
0100
0000
0000
0000
,
0000
0000
0000
0000
,
0110
0000
0000
0000
,
0000
0000
0000
0000
,
0000
0000
0000
0000
,
1001
0000
0000
0000
,
0000
0000
0000
0000
,
0110
0000
0000
0000
,
0000
0000
0000
0000
,
0000
0000
1001
0000
,
1001
0000
0000
0000
,
0000
0000
0000
0000
,
0110
0000
0000
0000
,
0000
0000
0000
0000
,
1001
0000
0000
0000
,
0000
0000
0000
0000
,
0110
0000
0110
0000
,
0000
0000
0000
0000
,
1000
0000
0000
0000
,
0000
0000
0000
0000
,
0001
0000
0000
0000
,
0000
0000
0000
0000
,
0100
0000
0000
0000
,
0000
0000
0000
0000
,
0010
0000
0000
0000
,
0000
0000
0000
0000
,
1000
0000
0000
0000
,
0000
0000
0000
0000
,
0001
0000
0000
0000
,
0000
0000
0000
0000
,
0010
0000
0000
0000
,
0000
0000
0000
0000
,
0100
0000
0000
0000
,
0000
0000
0000
0000
,
1001
0000
0000
0000
,
0010
0000
0000
0000
,
0100
0000
0000
0000
,
0001
0000
0000
0000
,
1000
0000
0000
0000
,
0010
0000
0000
0000
,
0100
0000
0000
0000
,
0001
0000
0000
0000
,
1000
0000
0000
0000
,
0010
0000
0000
0000
,
0100
0000
0000
0000
,
0001
0000
0000
0000
,
1000
0000
0000
0000
,
0010
0000
0000
0000
,
0000
0000
0000
0000
,
1000
0000
0000
0000
,
0001
0000
0000
0000
,
0010
0000
0000
0000
,
0100
0000
0000
0000
,
1000
0000
0000
0000
,
0001
0000
0000
0000
,
0010
0000
0000
0000
,
0100
0000
0000
0000
,
0010
0000
0000
0000
,
0001
0000
0000
0000
,
1000
0000
0000
0000
,
0001
0000
0000
0000
,
1000
0000
0000
0000
,
0010
0000
0000
0000
,
1000
0000
0000
0000
,
0001
0000
0000
0000
,
1000
0000
0000
0000
,
0010
0000
0000
0000
,
0100
0000
0000
0000
,
0001
0000
0000
0000
,
1000
0000
0000
0000
,
0100
0000
0000
0000
,
0010
0000
0000
0000
,
0001
0000
0000
0000
,
0010
0000
0000
0000
,
0100
0000
0000
0000
,
1000
0000
0000
0000
,
0100
0000
0000
0000
,
0001
0000
0000
0000
,
1001
0000
0000
0000
,
1001
0000
0000
0000
,
1001
0000
0000
0000
;

//---------------dance-single - D. Runberg----------------
#NOTES:
     dance-single:
     D. Runberg:
     Edit:
     13:
     1.000,1.000,1.000,0.414,0.539,826.000,120.000,48.000,200.000,1.000,0.000,1.000,1.000,1.000,0.414,0.539,826.000,120.000,48.000,200.000,1.000,0.000:
0000
0000
0000
0000
,
0000
0000
0000
0000
,
0000
0000
0000
0000
,
0000
0000
0000
0000
,
2000
0000
0000
0000
3200
0000
0000
M000
0320
0000
0000
0M00
0032
0000
0000
00M0
,
2003
0000
0000
000M
3010
0000
0M00
0000
0010
0000
0100
0000
0001
0000
0000
0000
,
2000
0000
3100
M000
0100
0010
0001
1000
,
0001
0100
0001
0100
0010
1000
0010
1000
0001
1000
0001
1000
,
0100
1000
0100
0010
0001
0010
0100
1000
,
0001
0100
0010
0100
0001
1000
0100
0010
,
0001
0100
1000
0100
0001
0010
1000
0010
,
0001
0100
0010
0100
0010
1000
0100
0100
,
0010
0001
0010
0100
1000
0100
0010
0001
,
0100
0000
0010
0000
1000
0000
0100
0000
1000
0100
1000
0000
0100
0010
0100
0000
,
0010
0001
1000
0010
0100
0001
0100
1000
,
0100
0000
0001
0000
0010
0000
0100
0000
1000
0100
1000
0000
0100
0000
0001
0000
,
0100
1000
0100
0010
0001
0010
0100
1000
,
0010
0000
0100
0000
0010
0000
1000
0000
0001
0100
0001
0000
0010
0100
0010
0000
,
0001
0100
0010
1000
0100
0010
0001
0010
,
1000
0000
0010
0000
0001
0000
0100
0000
0010
1000
0010
0000
1000
0000
0100
0000
,
0010
0100
0010
0001
0100
0010
1000
0001
,
0010
0000
1000
0000
0010
0000
0100
0000
1000
0100
1000
0000
0100
0010
0100
0000
,
0010
0001
0100
0010
1000
0100
0010
0100
,
1000
0000
0010
0000
1000
0000
0001
0000
0100
0000
0001
0000
1000
0000
0100
0000
1000
0000
0010
0000
0000
0100
0000
0000
,
0001
0010
0100
000M
0011
0000
00M1
0100
,
0010
0000
0100
0000
0101
0000
0000
0M00
1001
0000
0000
M000
0001
0000
0010
0000
,
0100
0100
1000
0M00
0001
0100
000M
0110
,
0000
0000
0M10
0000
1010
0000
0000
0000
10M0
0000
0100
0000
0010
0000
0000
0M00
,
0001
0100
0110
0000
0M1M
1000
00M0
1001
,
0000
0000
0000
M000
0000
0000
0001
0000
0000
0000
0000
0000
0010
0000
0000
0000
0000
0000
0100
0000
0000
0000
0000
0000
1000
0000
0000
0000
0001
0000
0000
0000
1000
0000
0000
0000
0001
0000
0000
0000
0000
0000
0100
0000
0000
0000
0000
0000
,
0101
0000
0000
0M00
1001
0000
0000
0000
M001
0000
0010
0000
0100
0000
1000
0000
,
0001
0100
0001
0100
0001
0100
0010
0000
1000
0000
0001
0000
,
0011
0000
0000
M00M
0110
0000
0000
00MM
1100
0000
0000
0000
1M00
0000
0010
0000
,
0100
0001
0000
1000
0100
0100
M000
0010
,
0011
0000
0000
0MM0
1001
0000
0000
0M0M
1010
0000
0010
0000
0100
0000
0001
0000
,
1000
0000
0000
0100
0000
0000
0000
0000
0000
1M00
0000
0000
1001
0000
0000
0000
0000
0000
0100
0000
0001
0000
0100
0000
,
0001
0000
M1M1
0000
M11M
0000
0010
1000
,
0200
0010
0000
0301
0100
1000
0010
0000
,
0101
0001
0010
0100
2000
0000
3001
0100
,
M11M
0000
0000
0000
0000
0000
1M1M
0000
0000
0000
0000
0000
1MM1
0000
0000
0001
0000
0000
0100
0000
0010
0000
1000
0000
,
0001
0000
1001
0000
1100
0000
1000
0010
,
0200
1000
0000
0301
0010
0100
1000
0100
,
M11M
0000
MM11
0000
M1M1
0000
0001
0010
,
0210
0000
0300
1000
0010
0010
0100
0001
,
M101
000M
11M0
M000
011M
0000
0010
0001
,
0200
0000
0310
1000
0100
0100
M010
0000
,
0110
0000
0000
0000
0000
0000
11M0
0000
0000
0000
0000
0000
1000
0000
0001
0000
0100
0000
0010
0000
0000
1000
0000
0000
,
2002
0000
0000
0000
0000
3003
0000
0000
,
1111
MMMM
0000
0000
,
0002
0000
0000
0000
0023
0000
0000
000M
0230
0000
0000
00M0
2300
0000
0000
0M00
,
3001
0000
0000
0100
0000
0000
001M
0000
0000
0000
0000
0000
1000
0000
0000
0100
0000
0000
0010
0000
0001
0000
0010
0000
,
0002
0000
0000
0000
0203
0000
0000
000M
0320
0000
0000
0M00
2030
0000
0000
000M
,
3010
1000
0100
0000
0M10
0001
0100
0000
,
0M20
0000
0000
0000
0230
0000
0000
00M0
2300
0000
0000
0000
3200
0000
0000
M000
,
0310
1000
0001
0000
100M
0100
0010
0001
,
2000
0000
0000
3020
0000
0000
0130
0001
0100
0001
1000
0001
,
1000
0100
0010
0000
00M1
0100
0010
0000
,
20M0
3M20
203M
3100
,
1001
0000
0110
0000
0011
0000
0101
0000
0000
0200
0000
0000
,
0320
0000
0000
0M00
2030
0000
0000
00M0
3002
0000
0000
0000
0013
0000
0000
0000
,
1001
0000
M10M
0000
0010
1000
0001
0010
,
0200
0000
0000
0000
0000
0000
0000
0000
0000
0000
0000
0000
2300
0000
0000
0000
0000
0000
0000
0000
0000
0M00
0000
0000
3002
0000
0000
0000
0000
0000
0000
0000
0003
M000
0000
0000
0011
0000
0000
0000
0000
0000
0000
0000
0000
0000
0000
0000
,
1001
0000
0110
0000
1100
0000
1001
0000
0000
2000
0000
0000
,
3001
0000
0000
0100
0000
0000
0010
0000
0000
0100
0000
0000
0001
0000
1000
0000
0001
0000
1000
0000
0100
0000
0010
0000
,
0001
0010
0100
1000
0001
0100
1000
0100
,
0001
0010
0100
1000
0100
0010
0001
1000
,
1001
0000
0000
0001
0000
0000
0100
0000
0000
0010
0000
0000
0100
0000
0000
0001
0000
0000
0010
0000
0100
0000
1000
0000
,
0100
0000
0010
0000
0001
0000
1000
0000
0000
0010
0000
0000
0100
0000
0000
0001
0000
0000
0010
0000
0000
0100
0000
0000
,
1100
0000
0000
1000
0000
0000
0010
0000
0000
0100
0000
0000
0001
0000
0000
1000
0000
0000
0010
0000
1000
0000
0001
0000
,
0010
0100
1000
0010
0100
0010
1000
0001
,
1001
0000
0000
1000
0000
0000
0001
0000
0000
0010
0000
0000
0100
0000
0000
1000
0000
0000
0001
0000
0100
0000
0010
0000
,
1000
0000
0001
0000
0010
0000
0100
0000
0000
1000
0000
0000
0010
0000
0000
0100
0000
0000
0001
0000
0000
0010
0000
0000
,
0110
0100
1000
0100
0010
0001
1000
0010
,
0001
0010
1000
0100
0001
0100
1000
0010
,
0110
0100
0010
1000
0100
1000
0001
0010
,
1000
0010
0100
0010
0001
1000
0010
0100
,
0110
0010
1000
0001
0010
0001
1000
0010
,
0001
0010
0100
0001
1000
0100
0001
0100
,
0110
0010
0100
1000
0010
0001
0010
1000
,
1100
0000
0100
0000
0010
0000
0101
0000
0100
0000
0010
0000
,
1002
0000
0000
0000
0000
0000
0203
0000
0000
0010
0000
0000
0320
0000
0000
1030
0000
0000
0001
0010
0001
0010
0100
1000
,
0100
M011
01M1
011M
,
1M10
11M0
M110
11M0
,
M110
0M11
10M1
M101
,
011M
0000
0M00
0010
1000
0001
0010
0000
,
0M11
01M1
110M
M101
,
101M
M011
11M0
M101
,
011M
11M0
M101
0M11
,
011M
0000
0000
0010
0001
M1M0
011M
0000
,
1M10
11M0
M011
01M1
,
101M
M110
10M1
M011
,
011M
0M11
01M1
011M
,
0M00
0010
1000
0100
0010
0000
0M11
0000
,
011M
11M0
1M10
M101
,
0M11
0000
0000
0000
0001
0000
0100
0000
0010
0000
1000
0000
0100
0010
0001
0010
,
0100
1000
0001
0100
0010
1000
0100
1000
0010
0100
0001
0010
0100
0000
1000
0000
,
0010
0100
0001
00M0
0100
0001
0010
0M00
,
0001
0010
1000
0010
0001
0100
0010
0000
,
1M00
0010
0001
M000
0010
100M
0100
0000
,
10M0
0100
0001
0100
1000
0100
0010
0M00
,
0001
0100
100M
0000
M100
0001
0010
0000
,
00M1
0010
1000
0010
0001
0100
0010
0000
,
01M0
0000
0000
0001
0000
0000
0M10
0000
0000
0000
0000
0000
00M1
0000
0000
0000
0000
0000
1001
0000
0000
0000
0100
0000
,
0000
0010
0000
0101
0000
0001
0000
0010
0000
2100
0000
0000
,
3010
1000
00M1
1000
010M
1000
0M10
00M0
,
1000
0010
M100
0001
0M10
0100
10M0
M000
,
0100
0010
0M01
0100
100M
0100
M001
0010
,
0000
00M1
0100
0010
0010
0M00
1010
0000
,
10M0
0010
0100
1000
0100
0001
0010
0000
,
0M01
0010
1000
0010
0001
0100
0110
0010
,
1000
0000
0001
0000
0010
0100
1000
0100
0010
0001
0100
0010
1010
0000
0000
0000
,
1000
0000
0100
0000
0110
0000
0000
0000
0M10
0000
0001
0000
0201
0000
0000
000M
,
0310
1000
0000
M001
0010
0100
1000
0100
,
0001
0100
0010
0000
M100
1000
0M20
0000
,
0130
1000
00M0
1000
0100
0001
0010
0100
,
1000
0100
0001
M100
0000
1000
1100
0000
,
1000
1001
0000
M001
0100
000M
0010
1000
,
1001
0000
0000
0000
0000
0000
M011
0000
0000
0000
0000
0000
0010
0000
0000
0100
0000
0000
1100
0000
0000
0000
1000
0000
,
0000
0010
0000
0110
0000
0100
0000
0001
0000
1001
0000
0000
,
1000
0100
M001
0000
010M
1000
1020
0000
,
M130
1000
00M0
1000
0100
0001
0010
0100
,
0010
0001
1000
0000
M001
0100
021M
0000
,
M301
0100
0010
0100
0010
1010
1000
0100
,
001M
0000
0001
0100
M010
1000
1100
0000
,
00M1
0000
0000
0101
0000
0000
0000
0000
0000
0M01
0000
0000
1000
0000
0000
0100
0000
0000
0010
0000
0001
0000
1000
0000
,
0100
0000
0010
0000
0001
0000
0100
0000
0010
0000
1000
0000
0001
0000
0100
0000
0010
0000
100M
0000
0000
0100
0000
0000
,
M010
0000
0100
0000
10M0
0000
0001
0000
M100
0000
0010
0000
2M02
00M0
0000
00M0
,
0M00
0000
0M00
00M0
3003
0000
0000
0000
M00M
0000
M00M
0000
0MM0
0000
0MM0
0000
,
M00M
M00M
0000
0000
0000
0000
0000
0000
;

//---------------dance-single - Expert----------------
#NOTES:
     dance-single:
     D. D'Amato:
     Challenge:
     10:
     0.914,0.946,0.535,0.345,0.190,638.000,62.000,40.000,62.000,1.000,0.000,0.914,0.946,0.535,0.345,0.190,638.000,62.000,40.000,62.000,1.000,0.000:
0000
0000
0000
0000
,
0000
0000
0000
0000
,
0000
0000
0000
0000
,
0000
0000
0000
0000
,
0000
0000
0000
0000
,
0000
0000
0000
0000
,
0000
0000
0000
0000
,
0000
0000
0000
0000
,
1000
0100
1000
0100
1000
0100
1000
0100
,
0010
0001
0010
0001
0010
0001
0010
0001
,
0100
0010
0100
0010
0100
0010
0100
0010
,
1000
0001
1000
0001
1000
0001
1000
0000
,
0001
0100
0001
0100
0001
0100
0001
0100
,
0010
1000
0010
1000
0010
1000
0010
1000
,
0100
0010
0100
0010
0100
0010
0100
0010
,
0001
1000
0001
1000
0001
1000
0001
0000
,
1000
0100
1000
0100
1000
0001
1000
0001
,
0100
0010
0100
0010
0100
0001
0100
0001
,
1000
0010
1000
0010
1000
0100
1000
0100
,
0010
0001
0010
0001
0010
0100
0010
M000
,
0001
0010
0001
0010
0001
1000
0001
1000
,
0010
0100
0010
0100
0010
1000
0010
1000
,
0001
0100
0001
0100
0001
0010
0001
0010
,
0100
1000
0100
1000
0100
0010
0100
000M
,
1000
0100
1000
0000
0001
0100
0000
0010
,
1000
0001
0100
0000
0001
0010
0001
1000
,
0100
1000
0001
0000
1000
0100
0000
0010
,
0000
0001
0100
0010
0000
1000
0100
0010
,
0001
1000
0001
0000
1000
0010
0000
0100
,
0000
0001
0010
0000
0001
1000
0010
1000
,
0001
0100
0001
0000
1000
0100
0010
0001
,
0000
0000
0000
0010
0000
0000
0100
0000
1000
0000
0100
0000
0010
0000
0000
0000
0001
0000
0000
0000
1000
0000
0000
0000
,
1002
0000
0103
0010
1000
0100
1000
0000
,
2001
0000
3100
0010
0001
0100
0001
0000
,
1002
0000
0103
0010
1000
0M01
1000
0000
,
2001
0000
0000
0000
0000
0000
3M00
0000
0000
00M0
0000
0000
1001
0000
0000
0000
0000
0000
0001
0000
0100
0000
0001
0000
,
2000
0000
3010
0100
0001
0010
0001
0000
,
1002
0000
0013
0100
1000
0010
1000
0000
,
2001
0000
3010
0100
0001
10M0
0001
0000
,
1002
0000
0000
0000
0000
0000
00M3
0000
0000
0M00
0000
0000
100M
0000
0000
0100
0000
0000
0010
0000
0001
0000
1000
0000
,
0001
0000
M101
0000
010M
M010
0000
101M
,
0000
0000
0000
1100
0000
0000
0000
0000
0000
M100
0000
0000
0010
0000
0001
0000
0010
0000
0100
0000
0000
0000
0000
0000
,
1000
0000
101M
0000
M010
010M
0000
M101
,
0000
0000
0000
0011
0000
0000
0000
0000
0000
001M
0000
0000
0100
0000
1000
0000
0100
0000
0010
0000
0000
0000
0000
0000
,
0001
0000
10M1
0000
100M
01M0
0000
M110
,
0000
0000
0000
0011
0000
0000
0000
0000
0000
M001
0000
0000
0010
0000
0100
0000
0010
0000
0001
0000
0000
0000
0000
0000
,
1000
0000
1M01
0000
M001
01M0
0000
011M
,
0000
2010
0000
0000
3MM1
0000
0000
0000
,
2222
0000
3333
0000
,
0010
1000
0010
0001
,
00M0
0000
0000
M000
0000
0000
00M0
0000
0000
0100
0001
0100
,
0010
1000
0100
0001
,
0M00
00M0
M000
00M0
,
0100
0001
0100
1000
,
0M00
0000
0000
000M
0000
0000
0M00
0000
0000
0010
1000
0010
,
0100
0000
0000
0001
0000
0000
0010
0000
0100
0000
1000
0000
,
0001
00M0
M000
00M0
,
0100
1000
0100
0001
,
0010
0000
0100
0000
1000
0000
0001
0000
0000
00M0
0000
0000
,
1000
0010
0001
0010
,
1001
0M00
M00M
00M0
,
1000
0100
0001
0100
,
0010
0000
0100
0000
1000
0000
0001
0000
0000
1000
0000
0000
,
0010
0001
0010
1000
,
0110
0000
0010
0001
0100
0000
0001
0000
,
0101
0000
0100
0010
1000
0000
0010
0000
,
1010
0000
0000
0000
0000
0000
1000
0000
0000
0M00
0000
0000
0010
0000
0000
0000
0000
0000
0100
0000
0010
0000
1000
0000
,
0020
0031
0010
0100
,
0110
0000
0010
1000
0100
0000
1000
0000
,
1100
0000
0100
0010
0001
0000
0010
0000
,
0011
0000
0000
0000
0000
0000
0001
0000
0000
0M00
0000
0000
0010
0000
0000
0000
0000
0000
0100
0000
1000
0000
0100
0000
,
0020
M000
0230
0000
,
1300
0000
0001
0100
0002
0000
2003
0000
,
3010
0100
0001
1000
0010
0100
0001
0000
,
0101
0000
1000
0010
2000
0000
3002
0000
,
0103
0010
1000
0001
0100
0010
1000
0000
,
1010
0000
0001
0010
0002
0000
2003
0000
,
3100
0010
0001
1000
0100
0010
0001
0000
,
0011
0000
1000
0100
2000
0000
3002
0000
,
0023
0000
0230
0000
,
1300
0000
M0M0
0000
0010
1000
0001
0000
,
1001
1000
0100
1000
,
0001
1000
0010
1001
,
0100
0001
0110
1000
,
0001
1000
0000
1000
0001
0010
0100
0000
,
1000
0010
0101
1000
,
0001
1000
0100
1010
,
0001
1000
0110
0001
,
1000
0001
0000
0001
1000
0010
0100
0000
,
0001
1000
0010
0100
,
0010
1000
0011
0100
,
0010
0000
1100
0000
0001
0000
0100
0001
,
1000
0100
0000
0100
1000
0001
0100
0000
,
0010
1001
0100
0001
,
1000
0110
0101
1010
,
1100
0000
0220
0000
0000
0330
1001
0000
,
1000
0100
0001
0000
0100
1000
0010
0000
,
1000
0000
0010
0000
1000
0100
0001
0000
,
0100
1000
0010
0000
0001
0010
1000
0100
,
0010
0021
0100
0031
,
0001
0100
1000
0000
0100
0001
0010
0000
,
0001
0000
0010
0000
0001
0100
1000
0000
,
0100
0000
0000
0001
0000
0000
0010
0000
0000
0000
0000
0000
1000
0000
0000
0010
0000
0000
0001
0000
0000
0000
0100
0000
,
0000
0010
0000
1000
0000
0100
0000
0010
0000
1001
0000
0000
,
0001
0010
1000
0000
0010
0001
0100
0000
,
0001
0000
0100
0000
0001
0010
1000
0000
,
0010
0001
0100
0000
1000
0100
0001
0010
,
0100
1200
0010
1300
,
1000
0010
0001
0000
0010
1000
0100
0000
,
1000
0000
0100
0000
1000
00M0
0101
0000
,
0011
0000
0220
0000
0000
0330
1001
0000
,
2010
0000
3100
0000
0010
0001
1000
0000
,
0010
0001
0000
0010
1000
0000
1100
0000
,
0012
0000
0103
0000
0010
1000
0001
0000
,
0010
1000
0000
0010
0001
0000
0101
0000
,
0120
0000
1030
0000
0001
0100
0010
0000
,
0001
0010
1000
0001
0010
0000
0011
0000
,
0120
0000
0000
0000
0000
0000
0031
0000
0000
0000
0000
0000
1000
0000
0000
0100
0000
0000
0010
0000
0000
0000
100M
0000
,
0000
0M10
0000
M001
0000
100M
0000
0M10
0000
1001
0000
0000
,
1000
0010
0001
0000
0010
1000
0010
0100
,
0000
0100
0010
0100
0002
0000
1003
0000
,
0001
0010
1000
0000
0010
0001
0010
0100
,
0000
0100
0010
0100
2000
0000
3001
0000
,
1000
01M0
0001
0000
0100
1000
0010
0100
,
000M
0000
0000
0100
0000
0000
0001
0000
0000
1000
0000
0000
0001
0000
0000
0000
0000
0000
1000
0000
0001
0000
1000
0000
,
0001
1000
0001
1000
0001
1000
0001
1000
0001
1000
0000
0000
,
0010
M001
0010
2002
,
0000
0000
0000
0000
,
0000
0000
0000
0000
,
3003
0000
0000
0000
;

//---------------dance-single - D. D'Amato----------------
#NOTES:
     dance-single:
     D. D'Amato:
     Hard:
     8:
     0.598,0.000,0.341,0.162,0.000:
0000
0000
0000
0000
,
0000
0000
0000
0000
,
0000
0000
0000
0000
,
0000
0000
0000
0000
,
0000
0000
0000
0000
,
0000
0000
0000
0000
,
0000
0000
0000
0000
,
0000
0000
0000
0000
,
1000
0000
0010
0000
0100
0001
0100
0000
,
0001
0000
0010
0000
0100
1000
0100
0000
,
0010
0000
0001
0000
0100
0001
0100
0000
,
0010
0000
1000
0000
0100
1000
0100
0000
,
1000
0000
0100
0000
0010
0001
0010
0000
,
0001
0000
0100
0000
0010
1000
0010
0000
,
0100
0000
0001
0000
0010
0001
0010
0000
,
0100
0000
1000
0000
0010
1000
0010
0000
,
1000
0000
0001
0000
0010
0001
0010
0001
,
0010
0000
0100
0000
0010
0100
0010
0100
,
0010
0000
0001
0000
0100
0001
0100
0001
,
0100
0000
0010
0000
0100
0010
0100
0000
,
0010
0000
1000
0000
0010
1000
0010
1000
,
0010
0000
0100
0000
0010
0100
0010
0100
,
0010
0000
1000
0000
0100
1000
0100
1000
,
0100
0000
0010
0000
0100
0010
0100
0000
,
1000
0000
0001
0000
0100
0001
0000
1000
,
0100
0010
0001
0000
,
1000
0010
0100
0000
0001
0100
0000
0001
,
0000
1000
0100
0000
0010
0000
0000
0000
,
0001
0000
1000
0000
0001
0100
0000
0010
,
0000
1000
0100
0000
0010
0000
0000
0000
,
0001
0000
1000
0000
0010
1000
0000
0001
,
0200
0000
0010
0310
,
0110
0000
0010
1000
0010
0000
0000
0000
,
0100
0000
0100
0001
0100
0000
0001
0000
,
0010
0000
0010
0001
0010
0000
0001
0000
,
200M
0000
000M
0000
3001
0000
0010
0100
,
0010
0000
0010
0001
0010
0000
0000
0000
,
0100
0000
0100
1000
0100
0000
1000
0000
,
0010
0000
0010
1000
0010
0000
1000
0000
,
M002
0000
M000
0000
1003
0000
0010
1000
,
01M0
0000
1000
0000
0001
0100
0000
0010
,
0000
0100
0000
0010
1000
0100
0000
0010
,
0001
0000
1000
0000
0001
0100
0000
0010
,
000M
0200
000M
0000
0301
0000
0010
0001
,
0100
0000
0001
0000
1000
0100
0000
0010
,
0000
0100
0000
0010
0001
0100
0000
0010
,
1000
0000
0001
0000
1000
0100
M000
0020
,
M000
M000
0100
0030
,
0110
0000
MMMM
0000
,
0010
0100
1000
0001
,
0000
MMMM
0000
1000
,
0100
1000
0001
0010
,
0000
0000
MMM1
0000
,
1000
0010
0100
0001
,
0000
MMMM
0000
1000
,
0020
0000
0130
0000
,
1001
0000
MMMM
0000
,
0001
0010
0100
1000
,
1100
0000
0011
0000
,
1000
0100
0010
0001
,
0101
0000
MMMM
0000
,
0100
0001
1000
0010
,
1010
0000
0101
0000
,
0001
0010
0100
0010
,
1001
0000
0010
0100
,
1000
0000
0100
1000
,
1100
0000
0100
1000
,
0010
0000
1000
0010
,
1010
0000
0010
0100
,
0001
0000
0100
0001
,
0101
0000
0100
0001
,
0020
0000
0002
0033
,
1001
0000
0100
0010
,
0001
0000
0010
0001
,
0011
0000
0010
0001
,
0100
0000
0001
0100
,
0101
0000
0100
0010
,
1000
0000
0010
1000
,
1010
0000
0010
1000
,
0200
0000
2000
3300
,
0110
0000
0010
0000
0001
1000
0001
0000
,
0200
0000
0001
0000
,
0000
0000
0000
0001
,
0000
0000
0001
0000
,
0301
0000
0101
0000
0001
1000
0100
1000
,
0200
0000
1000
0000
,
0000
0000
0000
1000
,
0000
0000
1000
0000
,
1300
0000
1100
0000
1000
0001
0200
0000
,
0010
0010
00M0
0010
,
00M0
0010
0010
00M0
,
0010
0310
1000
0100
,
0010
0000
0001
1000
0010
1000
0020
0000
,
0100
0100
0M00
0100
,
0M00
0100
0100
0100
,
0100
0000
0200
0000
0000
0330
1001
0000
,
1000
0100
0000
0001
,
0100
1000
0010
0000
,
0001
0010
0000
1000
,
0100
0010
0001
0100
,
0001
0010
0000
1000
,
0010
0001
0100
0000
,
1000
0100
0000
0002
,
0000
2003
0000
3010
,
1000
0000
0001
0000
0010
0000
0100
0010
,
0001
0000
0100
0000
0001
0100
0001
0000
,
1000
0000
0001
0100
0001
0000
1000
0000
,
0100
0000
1000
0010
0100
0000
0001
0000
,
1000
0001
1000
0000
0010
0000
0100
0010
,
1000
0000
0100
0000
1000
0100
1000
0000
,
0001
0000
1000
0100
1000
0000
1001
0000
,
0001
0001
000M
1100
,
0000
0110
0000
0000
0011
0000
M000
0000
,
1000
1000
M000
0101
,
0000
0110
0000
0000
1010
0000
0M00
0000
,
0100
0100
0M00
1010
,
0000
0110
0000
0000
0101
0000
00M0
0000
,
0010
0010
00M0
0MM0
,
0100
0100
0M00
0M0M
,
0001
0001
000M
0110
,
0000
1010
0000
0000
1100
0000
00M0
0000
,
0010
0010
00M0
1001
,
0000
0101
0000
0000
0011
0000
M000
0000
,
1000
1000
M000
0110
,
0000
1001
0000
0000
0110
0000
1000
0001
,
1000
0001
1000
0001
1000
0001
1000
0000
,
0100
0010
0001
2002
,
0000
0000
0000
0000
,
0000
0000
0000
0000
,
3003
0000
0000
0000
;
