#TITLE:Hanging On;
#SUBTITLE:;
#ARTIST:Cyrex;
#TITLETRANSLIT:;
#SUBTITLETRANSLIT:;
#ARTISTTRANSLIT:;
#GENRE:;
#CREDIT:;
#BANNER:Hanging On-bn.png;
#BACKGROUND:Hanging On-bg.png;
#LYRICSPATH:;
#CDTITLE:;
#MUSIC:Hanging On.ogg;
#OFFSET:-0.712;
#SAMPLESTART:0.700;
#SAMPLELENGTH:15.920;
#SELECTABLE:YES;
#BPMS:0.000=130.060;
#STOPS:;
#BGCHANGES:-1.179=Hanging On.mpg=1.000=1=0=0=StretchNoLoop==CrossFade==,
99999=-nosongbg-=1.000=0=0=0 // don't automatically add -songbackground-;
#KEYSOUNDS:;

//---------------dance-single - J. Frederick----------------
#NOTES:
     dance-single:
     J. Frederick:
     Hard:
     8:
     0.532,0.000,0.323,0.143,0.237: // measure 1
0000
0000
0000
0000
,  // measure 2
0000
0000
0000
0000
,  // measure 3
0000
0000
0000
0000
,  // measure 4
0000
0000
0000
0000
,  // measure 5
1000
0000
0000
0001
0000
0000
0010
0000
0000
0100
0000
0000
1000
0000
0100
0000
,  // measure 6
0010
0000
0000
0001
0000
0000
0100
0000
0000
0001
0000
0000
1000
0000
0001
0000
,  // measure 7
0010
0000
0000
0100
0000
0000
1000
0000
0100
0000
0000
0010
0000
0000
0001
0000
,  // measure 8
0100
0000
0000
0001
0000
0000
1000
0000
0010
0000
0000
0100
0000
0000
0001
0000
,  // measure 9
2002
0000
0000
0000
0000
0010
0000
3013
,  // measure 10
1001
0000
0000
0010
0000
0000
0100
0000
0000
1000
0000
0000
0100
0000
0010
0000
,  // measure 11
0002
0000
0000
0103
0000
0000
0001
0000
1000
0000
0010
0000
0100
0000
0001
0000
,  // measure 12
0020
0000
0000
0130
0000
0000
1000
0000
0100
0000
0010
0000
0001
0000
0100
0000
,  // measure 13
0002
0000
0000
1003
0000
0000
0010
0000
0100
0000
0010
0000
1000
0000
0001
0000
,  // measure 14
1001
0000
0000
0010
0000
0000
0100
0000
1000
0000
0100
0000
0010
0000
0001
0000
,  // measure 15
0101
0000
0000
0100
0000
0000
0001
0000
1000
0000
0010
0000
0100
0000
0010
0000
,  // measure 16
0110
0000
0000
1000
0000
0000
0100
0000
0010
0000
0100
0000
0100
0000
1000
0000
,  // measure 17
1100
0000
0000
0010
0000
0000
0001
0000
0100
0000
0000
0001
0000
0000
1000
0000
,  // measure 18
0001
0000
0010
0100
0000
1000
0100
0010
,  // measure 19
0001
0000
0100
0001
0000
1000
0010
0100
,  // measure 20
0110
0000
1000
0100
0000
0010
0100
1000
,  // measure 21
0000
0100
0010
0001
0100
0001
1000
0001
,  // measure 22
1001
0000
0000
0010
0000
0000
0100
0000
1000
0000
0100
0000
0010
0000
0001
0000
,  // measure 23
0101
0000
0000
0100
0000
0000
0001
0000
1000
0000
0010
0000
0100
0000
0010
0000
,  // measure 24
0110
0000
0000
1000
0000
0000
0010
0000
0100
0000
0001
0000
0010
0000
0100
0000
,  // measure 25
1000
0000
0100
0000
0010
0000
0001
0000
0100
0000
0001
0000
1000
0001
0000
0000
,  // measure 26
1001
0000
0010
0100
1000
0100
0010
0001
,  // measure 27
0011
0000
0100
0001
1000
0001
0100
0001
,  // measure 28
0101
0000
1000
0001
0010
0100
1000
0100
,  // measure 29
1100
0000
0000
0000
0010
0000
0001
0000
0100
0000
0001
0000
0100
0000
0010
0100
,  // measure 30
0010
0000
1000
0010
0100
0001
0010
0100
,  // measure 31
0110
0000
1000
0100
0010
0001
0100
0001
,  // measure 32
0101
0000
1000
0001
0010
0001
0100
0001
,  // measure 33
0101
0000
1000
0001
0010
0100
0010
0100
,  // measure 34
0220
0000
0000
0000
0000
1000
0000
0331
,  // measure 35
0110
0000
0000
0001
0000
0000
1000
0000
0001
0000
0010
0000
0100
0000
1000
0000
,  // measure 36
0200
0000
0000
0310
0000
0000
0001
0000
0100
0000
0001
0000
1000
0000
0010
0000
,  // measure 37
0200
0000
0000
0310
0000
0000
1000
0000
0010
0000
0100
0000
0001
0000
0010
0000
,  // measure 38
0200
0000
0000
1300
0000
0000
0100
0000
0010
0000
0000
0001
0000
0000
0100
0000
,  // measure 39
0002
0000
0000
1003
0000
0000
0001
0000
0010
0000
0100
0000
1000
0000
0100
0000
,  // measure 40
0020
0000
0000
0031
0000
0000
0100
0000
0001
0000
0010
0000
0001
0000
0100
0000
,  // measure 41
0020
0000
0000
1030
0000
0000
0010
0000
0100
0000
0001
0000
0010
0000
0100
0000
,  // measure 42
2000
0000
0000
3100
0000
0000
0010
0000
0001
0000
0100
0000
0001
0000
1000
0000
,  // measure 43
1001
0000
0000
0010
0000
0000
0100
0000
1000
0000
0100
0000
0010
0000
0001
0000
,  // measure 44
0011
0000
0000
0010
0000
0000
0001
0000
0100
0000
0001
0000
1000
0001
0000
0000
,  // measure 45
1001
0000
0000
0010
0000
0000
0100
0000
1000
0000
0100
0000
0010
0000
0001
0000
,  // measure 46
0101
0000
0000
0100
0000
0000
0010
0000
1000
0000
0010
0000
0100
0001
0000
0000
,  // measure 47
0010
0000
0000
0001
0000
0000
1000
0000
0100
0000
0010
0000
0100
0000
1000
0000
,  // measure 48
0100
0000
0000
0010
0000
0000
0001
0000
0100
0000
0001
0000
1000
0000
0001
0000
,  // measure 49
0100
0000
0000
0010
0000
0000
1000
0000
0010
0000
0100
0000
0001
0000
0010
0000
,  // measure 50
0001
0000
0000
0010
0000
0000
0100
0000
1000
0000
0100
0000
0010
0001
0000
0000
,  // measure 51
0011
0000
0000
0000
0101
0000
0000
1000
0001
0000
0010
0000
0100
0000
0000
0000
,  // measure 52
1100
0000
0000
0000
0011
0000
0000
0100
0001
0000
1000
0000
0001
0000
0000
0000
,  // measure 53
1001
0000
0000
0000
0110
0000
0000
1000
0100
0000
0010
0000
0001
0000
0000
0100
,  // measure 54
0001
0000
0000
0000
1001
0000
0000
0100
0010
0000
1000
0000
0010
0100
0000
0000
,  // measure 55
1010
0000
0000
0000
0101
0000
0000
0010
0100
0000
1000
0000
0100
0000
0010
0000
,  // measure 56
0011
0000
0000
0100
0001
0000
1000
0000
0001
0000
0010
0000
0100
0000
1000
0000
,  // measure 57
1100
0000
0000
0010
0001
0000
0100
0000
0001
0000
1000
0000
0010
0000
0100
0000
,  // measure 58
0110
0000
0000
1000
0010
0000
0100
0000
0001
0000
0010
0000
0100
0000
1000
0000
,  // measure 59
2200
0000
0000
0000
,  // measure 60
0000
0000
0000
3300
;

//---------------dance-single - D. Renzetti----------------
#NOTES:
     dance-single:
     D. Renzetti:
     Medium:
     6:
     0.379,0.390,0.000,0.484,0.031,242.000,0.000,54.000,10.000,0.000,0.000,0.379,0.390,0.000,0.484,0.031,242.000,0.000,54.000,10.000,0.000,0.000:
0000
0000
0000
0000
,
0000
0000
0000
0000
,
0000
0000
0000
0000
,
0000
0000
0000
0000
,
1000
0001
1000
0001
,
0100
0010
0100
0010
,
1000
0010
1000
0010
,
0100
0000
0001
0000
0100
0000
0001
0100
,
0020
0000
0000
0000
0000
0100
0000
0100
,
0031
0000
0200
0310
0000
0000
2000
3100
,
0000
0000
0002
0103
0000
0000
2000
3010
,
0000
0000
0200
0301
0000
0001
0010
0100
,
0000
0100
1000
0010
0000
0010
0100
0001
,
0010
0000
0200
1300
0000
0000
0002
0103
,
0000
0000
0020
1030
0000
0000
0002
0013
,
0100
0000
2000
3010
0000
0000
0200
0310
,
0000
0000
0200
0301
0000
0010
0100
1000
,
0001
0001
0001
0001
,
0001
0100
0010
0000
1000
0010
0100
0000
,
0010
0010
0010
0010
,
0010
1000
0100
0000
0020
0000
0032
0000
,
0103
0100
0100
0100
,
0100
0010
1000
0000
0001
0100
0010
0000
,
1000
1000
1000
1000
,
1000
0010
0100
0001
0010
0100
1000
0010
,
0200
0001
0301
0000
0020
0000
0130
0000
,
2000
3001
0200
0301
,
0020
0100
0130
0000
2000
0000
3100
0000
,
0020
0031
0200
0301
,
2000
0000
0000
0200
0000
0000
0000
0000
,
3000
0000
0000
0000
,
0310
0000
0001
0100
0000
0000
0010
1000
,
0000
0002
0000
0000
0000
0000
0000
0000
,
0203
0000
0000
0000
0000
0010
0000
0010
,
1300
0001
0100
0010
0000
0000
2000
3100
,
0000
0000
0002
0103
0000
0000
2000
3010
,
0000
0000
0200
0301
0000
0000
2000
3010
,
0000
0000
1000
0100
0020
0000
0032
0000
,
0103
0000
0020
1030
0000
0000
0200
0310
,
0000
0000
0002
0103
0000
0000
0020
1030
,
0100
0000
0002
0103
0000
0000
2000
3010
,
0000
0000
0200
0310
0000
0000
2000
3001
,
0100
0100
0100
0100
,
0100
0010
1000
0000
0001
0100
0010
0000
,
1000
1000
1000
1000
,
1000
0100
0010
0000
0200
0000
0320
0000
,
0031
0100
0010
1000
,
0100
0000
0010
0000
0001
0000
0100
0010
,
1000
0001
0100
0001
,
1000
0000
0010
0000
0100
0000
0001
1000
,
0020
0130
0002
1003
,
0200
0310
0002
0103
,
0020
0000
1030
0100
0000
0100
0010
0001
,
0100
0000
0010
0000
1000
0000
0100
0010
,
0002
0000
0000
0000
1003
0M00
00M0
0000
0002
0000
0000
0000
1003
0M00
0000
00M0
,
0002
0000
0000
0000
1003
0M00
0000
00M0
0002
0000
0000
0000
1003
0M00
0000
00M0
,
0001
0010
0100
1000
00M0
1000
0100
0010
,
M000
0010
0100
1000
0000
0001
0200
0000
,
0310
0000
0000
0000
;

//---------------dance-single - D. Renzetti----------------
#NOTES:
     dance-single:
     D. Renzetti:
     Easy:
     3:
     0.349,0.430,0.009,0.502,0.000,216.000,1.000,56.000,20.000,0.000,0.000,0.349,0.430,0.009,0.502,0.000,216.000,1.000,56.000,20.000,0.000,0.000:
0000
0000
0000
0000
,
0000
0000
0000
0000
,
0000
0000
0000
0000
,
0000
0000
0000
0000
,
1000
0001
1000
0100
,
0020
0000
M031
0000
,
0100
0010
1000
010M
,
0020
0000
0130
1000
,
0002
0000
0100
0100
,
0103
0010
1000
0100
,
0010
0001
0100
0010
,
1000
0100
0010
0001
,
0100
0010
1000
0100
,
0010
0100
1000
0001
,
0010
0100
0010
0001
,
1000
0010
0100
0001
,
0100
0010
1000
0001
,
0200
0320
2030
3200
,
0320
0032
0203
0320
,
2030
3002
0203
0320
,
2030
3020
0230
0302
,
M023
0000
0230
0000
0320
0000
0032
M000
,
0023
0230
2300
3020
,
2030
3002
0023
0230
,
2300
3002
0203
0302
,
0013
0000
0100
0000
1000
0010
0100
0000
,
0001
0000
0100
0000
0010
1000
0100
0000
,
0010
0000
0001
0000
0100
0010
1000
0000
,
0001
0100
0010
1000
,
0100
0010
0100
0010
,
0001
0100
0010
0100
,
0001
0010
0100
0010
,
0100
100M
0100
0010
,
2002
0000
0000
0M00
0000
00M0
3003
0000
,
0100
0010
1000
0001
,
0010
0100
0010
0001
,
1000
0010
1000
0001
,
0100
0000
0001
M000
0020
0000
0230
0000
,
1300
0010
0100
0001
,
0010
0100
100M
0100
,
0010
0100
1000
0001
,
M010
0001
0010
0100
,
200M
3020
0230
0302
,
0023
0230
2300
3020
,
2030
0000
3200
0000
0320
0000
0032
M000
,
0023
0230
2300
3020
,
0130
0001
0100
0001
,
1000
0010
1000
0010
,
0100
0010
0100
0010
,
1000
0001
1000
0001
,
0010
0000
0100
0000
1000
0001
1000
0000
,
0010
0000
0100
0000
0001
1000
0001
0000
,
0010
0000
0100
0000
1000
0010
1000
0000
,
0100
0010
M001
0010
,
0100
1000
0001
0100
,
0001
M010
0001
1000
,
0001
1000
0010
1000
,
0100
10M0
010M
0010
,
0002
0000
0000
0000
,
0000
M000
0M03
00M0
,
000M
0000
0000
0000
;

//---------------dance-single - D. Renzetti----------------
#NOTES:
     dance-single:
     D. Renzetti:
     Beginner:
     1:
     0.115,0.156,0.000,0.027,0.000,87.000,0.000,3.000,0.000,0.000,0.000,0.115,0.156,0.000,0.027,0.000,87.000,0.000,3.000,0.000,0.000,0.000: // measure 1
0000
0000
0000
0000
,  // measure 2
0000
0000
0000
0000
,  // measure 3
0000
0000
0000
0000
,  // measure 4
0000
0000
0000
0000
,  // measure 5
1000
0000
0000
0000
,  // measure 6
0001
0000
0000
0000
,  // measure 7
0100
0000
0000
0000
,  // measure 8
0010
0000
0000
0000
,  // measure 9
2000
0000
0000
0000
,  // measure 10
3001
0010
0000
0100
,  // measure 11
0000
1000
0000
0001
,  // measure 12
0000
0100
0000
0010
,  // measure 13
0000
1000
0000
0000
,  // measure 14
0100
0000
0000
0000
,  // measure 15
0010
0000
0000
0000
,  // measure 16
0001
0000
0000
0000
,  // measure 17
0010
0000
0000
0000
,  // measure 18
0010
0000
0100
0000
,  // measure 19
1000
0000
0100
0000
,  // measure 20
1000
0000
0100
0000
,  // measure 21
0010
0000
0000
0000
,  // measure 22
0001
0000
1000
0000
,  // measure 23
0010
0000
0100
0000
,  // measure 24
0001
0000
0010
0000
,  // measure 25
0100
0000
0000
0000
,  // measure 26
0010
0001
0000
0100
,  // measure 27
0000
0010
0000
0100
,  // measure 28
0000
0001
0000
0100
,  // measure 29
0000
0010
0000
1000
,  // measure 30
0000
0001
0000
0100
,  // measure 31
0000
0010
0000
1000
,  // measure 32
0010
0000
0000
0000
,  // measure 33
0100
0000
0000
0000
,  // measure 34
0020
0000
0000
0000
,  // measure 35
0130
0000
0000
0000
,  // measure 36
0001
0000
0000
0000
,  // measure 37
1000
0000
0000
0000
,  // measure 38
0000
0000
0100
1000
,  // measure 39
0100
0000
0000
0000
,  // measure 40
0010
0000
0000
0000
,  // measure 41
0001
0000
0000
0000
,  // measure 42
0100
0000
0000
0000
,  // measure 43
0010
0000
0100
0000
,  // measure 44
0001
0000
0010
0000
,  // measure 45
0100
0000
1000
0000
,  // measure 46
0010
0000
0100
0000
,  // measure 47
0001
0010
0000
0100
,  // measure 48
0000
0010
0000
0001
,  // measure 49
0000
0100
0000
0010
,  // measure 50
0000
1000
0000
0100
,  // measure 51
0020
0031
0000
0010
,  // measure 52
0000
0100
0000
1000
,  // measure 53
0000
0100
0000
0010
,  // measure 54
0000
0100
0000
1000
,  // measure 55
0000
0010
0000
0000
,  // measure 56
1000
0000
0000
0000
,  // measure 57
0001
0000
0000
0000
,  // measure 58
0100
0000
0000
0000
,  // measure 59
0010
0000
0000
0000
;

//---------------dance-single - D Renzetti----------------
#NOTES:
     dance-single:
     D Renzetti:
     Challenge:
     10:
     -1.000,-1.000,-1.000,-1.000,-1.000:
// measure 1
0000
0000
0000
0000
,  // measure 2
0000
0000
0000
0000
,  // measure 3
0000
0000
0000
0000
,  // measure 4
0000
0000
0000
0000
,  // measure 5
2000
0000
0000
0002
0000
3000
0100
0000
0203
0000
0000
0020
0000
0300
2000
0030
,  // measure 6
0200
0000
3000
0002
0000
0300
2000
0003
0000
0002
0000
3000
0000
0200
0003
0000
,  // measure 7
2000
0300
0000
0020
0000
3000
0002
0000
0030
2000
0000
0003
0000
0002
3000
0000
,  // measure 8
0020
0000
0003
0200
0000
0030
0002
0000
0300
0020
0000
0003
0100
0030
1000
0020
,  // measure 9
0000
0000
0000
0000
0030
0000
MM0M
00M0
0000
0000
MM1M
0000
00M0
0000
MM1M
0000
,  // measure 10
02M0
0310
1000
0100
0010
0100
0002
0103
,  // measure 11
0020
0130
1000
0010
0100
0010
0002
0013
,  // measure 12
0200
0310
1000
0001
0010
1000
0010
0001
,  // measure 13
0100
0010
1000
0020
0200
0000
0001
0330
,  // measure 14
0200
0310
1000
0010
0001
0010
2000
3100
,  // measure 15
0020
0130
0001
0100
1000
0010
0001
0010
,  // measure 16
0200
0301
0010
0001
0100
0010
0001
0010
,  // measure 17
1000
0000
0100
0000
0010
0000
0001
0000
0020
0000
0200
0000
0000
1000
0330
0000
,  // measure 18
11MM
1M1M
M11M
M1M1
,  // measure 19
MM21
0000
0031
0000
0100
0000
0010
1000
0000
0001
0100
0000
0010
0000
1000
0000
,  // measure 20
1M1M
M1M1
MM11
11MM
,  // measure 21
2MM1
0000
3001
0000
0100
0000
0010
1000
0000
0100
1000
0000
0010
0000
0100
0000
,  // measure 22
M11M
M1M1
MM11
1MM1
,  // measure 23
M21M
0000
0310
0000
1000
0000
0100
0001
0000
0100
1000
0000
0010
0000
0100
0000
,  // measure 24
M1M1
1MM1
1M1M
1MM1
,  // measure 25
12MM
0000
1300
0000
0010
0000
0100
0001
0000
0000
0100
0010
1000
0100
0010
0000
,  // measure 26
0001
0010
2000
0000
3002
0000
0203
0000
1300
0010
0002
0000
2003
0000
3200
0000
,  // measure 27
0310
0100
2000
0000
3002
0000
0023
0000
0130
0010
0002
0000
2003
0000
3200
0000
,  // measure 28
0310
1000
0200
0000
0302
0000
2003
0000
3010
0001
0200
0000
2300
0000
3002
0000
,  // measure 29
0023
0000
0200
0030
0002
0300
0020
0003
2000
0030
0020
3000
0002
0030
0200
0003
,  // measure 30
2000
0300
0200
3000
0002
0300
0020
0003
0000
0000
0001
0000
0100
0000
0002
0000
,  // measure 31
0030
0100
0010
0200
0003
1000
0010
2000
,  // measure 32
0300
0100
0001
0200
3000
0001
1000
0002
,  // measure 33
0300
1000
0100
2000
0000
0010
0000
0010
,  // measure 34
0010
3003
0000
MM0M
00M0
MM1M
00M0
MM1M
,  // measure 35
2000
3100
0001
1000
0010
0001
0200
1300
,  // measure 36
0002
1003
0100
0010
0001
0010
0200
0301
,  // measure 37
0020
0130
0001
0100
1000
0010
0100
0001
,  // measure 38
0010
0001
0202
0000
0010
0000
1010
0303
,  // measure 39
0002
0013
0100
1000
0001
0010
0100
1000
,  // measure 40
0020
0031
0010
0100
0010
1000
0100
0001
,  // measure 41
0200
0310
0100
1000
0001
0100
0001
0010
,  // measure 42
0100
0000
1000
0000
0010
0000
1000
0000
0200
0000
0020
0000
0000
0001
0330
0000
,  // measure 43
M11M
MM11
M1M1
1MM1
,  // measure 44
MM11
0000
0001
0000
1000
0000
0010
0100
0000
0001
0010
0000
0101
0000
0000
0000
,  // measure 45
1M1M
M11M
M1M1
M11M
,  // measure 46
1M1M
0000
0010
0000
0100
0000
0001
1000
0000
0001
0100
0000
0010
0100
0001
0000
,  // measure 47
0110
0001
1010
0100
0011
0001
0110
0010
,  // measure 48
1010
0000
0001
0000
1001
0000
0010
1000
0000
0010
0100
0001
0100
0010
1000
0000
,  // measure 49
1100
0010
0101
0010
1100
0010
1100
0001
,  // measure 50
0010
0001
0100
0000
0110
0000
0000
0010
1000
0000
0001
0000
0100
0010
1000
0100
,  // measure 51
0010
0001
0100
0000
0210
0000
0310
0000
1000
0100
0010
0000
0201
0000
0301
0000
,  // measure 52
0010
0100
1000
0000
0201
0000
0301
0000
1000
0010
0100
0001
0100
0010
1000
0000
,  // measure 53
0001
0100
0010
0000
2100
0000
3100
0000
1000
0010
0100
0001
0010
0001
0100
0010
,  // measure 54
1000
0000
0001
0000
0100
0000
0010
0000
1000
0010
0000
0100
0010
1000
0100
0010
,  // measure 55
0002
0000
0000
0020
0003
0001
0100
0002
,  // measure 56
0030
0100
0010
0200
0003
0010
1000
0020
,  // measure 57
0300
1000
0100
2000
0030
0010
0100
0010
,  // measure 58
3001
0000
0100
0000
1000
0000
0100
0000
0001
0000
0010
0000
1000
0010
0001
0100
,  // measure 59
0020
0000
0000
MM00
000M
0030
0000
0000
;
