#TITLE:Hands Up;
#SUBTITLE:;
#ARTIST:Lagoona;
#TITLETRANSLIT:;
#SUBTITLETRANSLIT:;
#ARTISTTRANSLIT:;
#GENRE:Hands Up;
#CREDIT:;
#BANNER:Hands Up-bn.png;
#BACKGROUND:Hands Up-bg.png;
#LYRICSPATH:;
#CDTITLE:;
#MUSIC:Hands Up.ogg;
#OFFSET:-0.024;
#SAMPLESTART:46.380;
#SAMPLELENGTH:11.860;
#SELECTABLE:YES;
#BPMS:0.000=150.000;
#STOPS:;
#BGCHANGES:0.371=Hands Up.mpg=1.000=1=0=0=StretchNoLoop==CrossFade==,
99999=-nosongbg-=1.000=0=0=0 // don't automatically add -songbackground-;
#KEYSOUNDS:;

//---------------dance-single - K. Ward----------------
#NOTES:
     dance-single:
     K. Ward:
     Hard:
     9:
     0.608,0.554,0.045,0.143,0.624,456.000,5.000,16.000,27.000,0.000,0.000,0.608,0.554,0.045,0.143,0.624,456.000,5.000,16.000,27.000,0.000,0.000:
0000
0000
0000
0000
,
0000
0000
0000
0000
,
0000
0000
0000
0000
,
0000
0000
0000
0000
,
1000
0000
0000
1000
0100
0000
0000
0100
1000
0000
0000
1000
0010
0000
0000
0010
,
0100
0000
0000
0100
0001
0000
0000
0001
0010
0000
0000
0010
0100
0000
0000
0100
,
0010
0000
0000
0010
0001
0000
0000
0001
1000
0000
0000
1000
0001
0000
0000
0001
,
0100
0000
0000
0100
1000
0000
0000
1000
0100
0000
0000
0100
0001
0000
0000
0001
,
1000
0000
0000
1000
0100
0000
0000
0100
0001
0000
0000
0001
0100
0000
0000
0100
,
1000
0000
0000
1000
0010
0000
0000
0010
0001
0000
0000
0001
0010
0000
0000
0010
,
1000
0000
0000
1000
0001
0000
0000
0001
0100
0000
0000
0100
0010
0000
0000
0010
,
1000
0000
0000
1000
0100
0000
0000
0100
0010
0000
0000
0010
0100
0000
0000
0100
,
2000
3100
0002
0013
,
2000
3100
0002
0013
,
0200
0310
0002
0013
,
0200
0310
0002
0013
,
1000
0100
0020
0000
0130
0000
0010
0000
,
0001
0100
0020
0000
0031
0000
0010
0000
,
1000
0100
0020
0000
0130
0100
0010
0000
,
0001
0000
0100
0000
2000
0000
0000
0000
3100
0000
0000
0100
0010
0000
0010
0000
,
1000
0100
1000
0000
0100
0000
0000
0010
0000
0010
0100
0000
1000
0000
0000
0000
,
0001
1000
0001
0000
1000
0000
0000
0010
0000
0010
0100
0000
0001
0000
0000
0000
,
0010
0001
0010
0000
0001
0000
0000
0100
0000
0100
0010
0000
0100
0000
0000
0000
,
0010
1000
0010
0000
1000
0000
0000
0100
0000
0100
0010
0000
0100
0000
0000
0000
,
1001
0000
0010
0000
0010
0000
0000
0001
0000
0001
0010
0000
0001
0000
0000
0000
,
0000
0000
0100
0000
0100
0000
0000
0010
0000
0010
1000
0000
0100
0000
0000
0000
,
0000
0000
0010
0000
0010
0000
0000
0100
0000
0100
0010
0000
0100
0000
0000
0000
,
0000
0000
1000
0000
1000
0000
0000
0010
0000
0010
0100
0000
0010
0000
0000
0000
,
2002
3003
0110
0011
,
1000
0000
0100
0000
0010
0100
0000
1000
0000
0000
0010
0000
0100
0000
0001
0000
,
0010
0000
0001
0000
1000
0001
0000
0010
0000
0000
0001
0000
0100
0000
0010
0000
,
1000
0000
0100
0000
0010
0100
0000
0010
0000
0000
0001
0000
0100
0000
0010
0000
,
1000
0001
0010
0100
1000
0001
0010
0100
,
1000
0000
0100
0000
1000
0100
0000
1000
0000
0000
0010
0000
0100
0000
0001
0000
,
0010
0000
0001
0000
0100
0001
0000
0010
0000
0000
0001
0000
1000
0000
0100
0000
,
0010
0000
0001
0000
0100
0010
0000
0100
0000
0000
0001
0000
0100
0000
0010
0000
,
1000
0100
0010
0001
1000
0100
0010
0001
,
1000
0000
0001
0000
1000
0001
0000
0100
0000
0010
0100
0000
0001
0000
0010
0000
,
0100
0000
1000
0000
0100
1000
0000
0100
0000
0010
0100
0000
1000
0000
0001
0000
,
0100
0000
0010
0000
0100
0010
0000
1000
0000
0100
0010
0000
0100
0000
1000
0000
,
0001
0010
0100
1000
0001
0010
0100
1000
,
0100
0000
0010
0000
0100
0010
0000
0001
0000
1000
0001
0000
0010
0000
0001
0000
,
0100
0000
0010
0000
0100
0010
0000
1000
0000
0100
0010
0000
0100
0000
0010
0000
,
0001
0000
1000
0000
0001
1000
0000
0001
0000
0010
0100
0000
0010
0000
0001
0000
,
1000
0100
0010
0001
1000
0100
0010
0100
,
2002
0000
0000
3003
,
0000
0000
0100
0000
0100
0000
0000
0001
0000
0000
1000
0000
0100
0000
0010
0000
,
0000
0000
0001
0000
0001
0000
0000
0100
0000
0000
0010
0000
0100
0000
0001
0000
,
0000
0000
1000
0000
1000
0000
0000
0001
0000
0000
0010
0000
0100
0000
0010
0000
,
0000
0000
0001
0000
0001
0000
0000
1000
0000
0000
0001
0000
1000
0000
0100
0000
,
0000
0000
0100
0000
0100
0000
0000
0010
0000
0000
0001
0000
0100
0000
0010
0000
,
0000
0000
0100
0000
0100
0000
0000
0001
0000
0000
0010
0000
0100
0000
0010
0000
,
0000
0000
0001
0000
0001
0000
0000
1000
0000
0000
0100
0000
0010
0000
0100
0000
,
1000
0100
1000
0000
0100
1000
0000
0010
0000
0000
0000
0000
00MM
0000
0000
0000
,
0001
0010
0001
0000
0010
0001
0000
0100
0000
0000
0000
0000
0MM0
0000
0000
0000
,
0010
0100
0010
0000
0100
0001
0000
1000
0000
0000
0000
0000
M00M
0000
0000
0000
,
1000
0001
1000
0000
0100
0010
0000
0100
0000
0000
0000
0000
0M0M
0000
0000
0000
,
0001
0010
0001
0000
0010
0001
0000
0100
0000
0000
0000
0000
0MM0
0000
0000
0000
,
0010
0100
0010
0000
0100
0010
0000
1000
0000
0000
0000
0000
MM00
0000
0000
0000
,
0100
0010
0100
0000
0010
0001
0000
1000
0000
0000
0000
0000
M00M
0000
0000
0000
,
1000
0001
1000
0000
0010
0100
0000
0010
0000
0000
0000
0000
0MM0
0000
0000
0000
,
1000
0100
1000
0000
0100
1000
0000
0010
0000
0000
0100
0000
0010
0000
0M00
0000
,
0001
0010
0001
0000
0010
0001
0000
0100
0000
0000
0010
0000
0100
0000
00M0
0000
,
1000
0100
1000
0000
0100
0010
0000
0100
0000
0000
0M10
0000
0001
0000
00M0
0000
,
1000
0001
1000
0000
0010
0100
0000
0010
0000
0000
1000
0000
010M
0000
0010
0000
,
0001
0010
0001
0000
0010
0001
0000
0100
0000
0000
1000
0000
01M0
0000
0M00
0000
,
0010
0100
0010
0000
0100
0010
0000
1000
0000
0000
0001
0000
M010
0000
000M
0000
,
0100
0010
0100
0000
0010
0001
0000
1000
0000
0000
0010
0000
M01M
0000
0000
0000
,
0001
1000
0001
0000
0100
0010
0000
0100
0000
0010
0000
1000
0100
0000
0010
0000
,
0001
0000
0000
0000
;

//---------------dance-single - D. D'Amato----------------
#NOTES:
     dance-single:
     D. D'Amato:
     Challenge:
     11:
     0.859,0.831,0.089,0.036,1.000,660.000,10.000,4.000,0.000,0.000,0.000,0.859,0.831,0.089,0.036,1.000,660.000,10.000,4.000,0.000,0.000,0.000: // measure 1
0000
0000
0000
0000
,  // measure 2
0000
0000
0000
0000
,  // measure 3
0000
0000
0000
0000
,  // measure 4
0000
0000
0000
0000
,  // measure 5
1100
0100
0010
0001
0101
0100
0010
1000
,  // measure 6
1001
0001
0010
0100
0110
0010
0001
0100
,  // measure 7
0101
0001
0100
0010
1010
1000
0100
0010
,  // measure 8
0011
0001
0100
0010
0110
0100
0001
1000
,  // measure 9
1001
0000
0001
0000
0100
0000
0010
1000
0010
0000
1000
0100
0000
0010
0000
0000
,  // measure 10
0100
0000
1000
0000
0100
0000
0010
0001
0010
0000
0001
0100
0000
0010
0000
0000
,  // measure 11
0100
0001
0100
0010
1000
0000
0010
1000
0010
0000
1000
0100
0000
0010
0000
0000
,  // measure 12
0100
1000
0100
0010
0001
0000
0010
0001
0010
0000
0001
0100
0000
0010
0000
0000
,  // measure 13
0100
0010
0100
0000
0001
1000
0000
0100
0000
1000
0001
0000
0001
1000
0000
0000
,  // measure 14
0100
0010
0100
0000
1000
0001
0000
0100
0000
0001
1000
0000
1000
0001
0000
0100
,  // measure 15
0000
0010
1000
0000
0001
0010
0000
0100
0000
0010
0001
0000
1000
0100
0000
0010
,  // measure 16
0000
0100
1000
0000
0001
0100
0000
0010
0000
0100
0001
0000
1000
0100
0000
0000
,  // measure 17
0010
0100
0010
0000
0001
1000
0000
0010
0000
1000
0001
0000
0001
1000
0000
0000
,  // measure 18
0010
0100
0010
0000
1000
0001
0000
0010
0000
0001
1000
0000
1000
0001
0000
0010
,  // measure 19
0000
0100
1000
0000
0001
0100
0000
0010
0000
0100
0001
0000
1000
0010
0000
0100
,  // measure 20
0000
0010
1000
0000
0001
0010
0000
0100
0000
0010
0001
0000
1000
0010
0000
0000
,  // measure 21
0100
0010
0100
0000
0010
0000
0000
1000
0000
0000
0001
0000
0010
0000
0000
0000
,  // measure 22
0100
0010
0100
0000
0010
0000
0000
0001
0000
0000
1000
0000
0010
0000
0000
0100
,  // measure 23
0000
0000
0010
0000
1000
0000
0000
0100
0000
0000
0010
0000
0001
0000
0000
0100
,  // measure 24
0000
0000
0010
0000
1000
0000
0000
0100
0000
0000
0010
0000
0001
0000
0100
0000
,  // measure 25
0020
0000
0000
0000
,  // measure 26
0230
0000
0000
0000
,  // measure 27
0302
0000
2003
0000
,  // measure 28
3001
0000
1000
0001
,  // measure 29
1000
0000
0001
0000
0100
0000
0010
0000
1000
0001
1000
0000
0001
1000
0001
0000
,  // measure 30
0100
0010
0100
0001
1000
0100
0000
0010
0000
0100
1000
0100
0010
0001
0000
0000
,  // measure 31
0010
0100
0010
0001
1000
0010
0000
0100
0000
0010
1000
0010
0100
0001
0000
0010
,  // measure 32
0000
0100
1000
0100
0010
0100
0000
1000
0000
0001
0100
0001
0010
0001
0000
0100
,  // measure 33
0000
0010
0100
0010
1000
0010
0000
0100
0000
0001
0010
0000
0100
0000
1000
0000
,  // measure 34
0100
0010
0100
1000
0001
0100
0000
0010
0000
0100
0001
0100
0010
1000
0000
0000
,  // measure 35
0010
0100
0010
1000
0001
0010
0000
0100
0000
0010
0001
0010
0100
1000
0000
0010
,  // measure 36
0000
0100
0001
0100
0010
0100
0000
0001
0000
1000
0100
1000
0010
1000
0000
0100
,  // measure 37
0000
0010
0100
0010
0001
0010
0000
0100
1000
0000
0001
0100
0000
0001
1000
0000
,  // measure 38
0010
0100
0010
1000
0001
0010
0000
0100
0000
0010
0001
0010
0100
1000
0000
0000
,  // measure 39
0100
0010
0100
1000
0001
0100
0000
0010
0000
0100
0001
0100
0010
1000
0000
0100
,  // measure 40
0000
0010
0001
0010
0100
0010
0000
0001
0000
1000
0010
1000
0100
1000
0000
0010
,  // measure 41
0000
0100
0010
0100
0001
0100
0000
0010
0000
1000
0100
0000
0010
0000
0001
0000
,  // measure 42
0010
0100
0010
0001
1000
0010
0000
0100
0000
0010
1000
0010
0100
0001
0000
0000
,  // measure 43
0100
0010
0100
0001
1000
0100
0000
0010
0000
0100
1000
0100
0010
0001
0000
0100
,  // measure 44
0000
0010
1000
0010
0100
0010
0000
1000
0000
0001
0010
0001
0100
0001
0000
0010
,  // measure 45
0000
0100
0010
0100
1000
0100
0000
0010
0001
0000
1000
0010
0000
1000
0001
0000
,  // measure 46
0100
0000
0010
0000
0100
0000
0000
0001
0000
0000
0100
0000
0000
0000
0001
0000
,  // measure 47
0010
0000
0100
0000
0010
0000
0000
0001
0000
0000
0100
0000
0010
0000
1000
0000
,  // measure 48
0100
0000
0010
0000
0100
0000
0000
1000
0000
0000
0100
0000
0000
0000
1000
0000
,  // measure 49
0010
0000
0100
0000
0010
0000
0000
1000
0000
0000
0100
0000
0010
0000
0001
0000
,  // measure 50
1000
0000
0100
0000
1000
0000
0010
1000
0000
0001
1000
0000
0100
0000
0010
0000
,  // measure 51
0001
0000
0100
0000
0001
0000
0010
0001
0000
1000
0001
0000
0100
0000
0010
0000
,  // measure 52
1000
0001
1000
0000
0010
0000
1000
0001
0000
1000
0001
0000
0100
0000
0001
0000
,  // measure 53
0010
0000
0100
0000
0010
0000
0001
1000
0000
0001
1000
0000
0100
0000
1000
0000
,  // measure 54
0010
0100
0001
1000
0100
0010
0000
0001
1000
0010
0100
0000
0001
1000
0000
0000
,  // measure 55
0100
0010
0001
1000
0010
0100
0000
0001
1000
0100
0010
0000
0001
1000
0000
0000
,  // measure 56
0010
1000
0001
0010
0100
1000
0000
0010
1000
0001
0010
0100
1000
0001
0000
0010
,  // measure 57
0001
1000
0010
0100
0001
1000
0000
0010
1000
0001
0010
0100
1000
0010
0100
0001
,  // measure 58
0010
0100
1000
0001
0100
0010
0000
1000
0001
0010
0100
0000
1000
0001
0000
0000
,  // measure 59
0100
0010
1000
0001
0010
0100
0000
1000
0001
0100
0010
0000
1000
0001
0000
0000
,  // measure 60
0010
0001
1000
0010
0100
0001
0000
0010
0001
1000
0010
0100
0001
1000
0000
0010
,  // measure 61
1000
0001
0010
0100
1000
0001
0000
0010
0001
1000
0010
0100
0001
1000
0010
0000
,  // measure 62
0100
0010
1000
0001
0010
0100
0000
1000
0001
0100
0010
0000
1000
0001
0000
0000
,  // measure 63
0010
0100
1000
0001
0100
0010
0000
1000
0001
0010
0100
0000
1000
0001
0000
0000
,  // measure 64
0100
0001
1000
0100
0010
0001
0000
0100
0001
1000
0100
0010
0001
1000
0000
0100
,  // measure 65
1000
0001
0100
0010
1000
0001
0000
0100
0001
1000
0100
0010
0001
0100
0010
1000
,  // measure 66
0100
0010
0001
1000
0010
0100
0000
0001
1000
0100
0010
0000
0001
1000
0000
0000
,  // measure 67
0010
0100
0001
1000
0100
0010
0000
0001
1000
0010
0100
0000
0001
1000
0000
0000
,  // measure 68
0100
1000
0001
0100
0010
1000
0000
0100
1000
0001
0100
0010
1000
0001
0000
0100
,  // measure 69
0001
1000
0100
0010
0001
1000
0000
0100
1000
0001
0100
0010
1000
0001
0100
0000
,  // measure 70
1001
0000
0000
0000
;

//---------------dance-single - D. D'Amato----------------
#NOTES:
     dance-single:
     D. D'Amato:
     Medium:
     7:
     0.339,0.400,0.107,0.071,0.000,246.000,12.000,8.000,0.000,0.000,48.000,0.339,0.400,0.107,0.071,0.000,246.000,12.000,8.000,0.000,0.000,48.000:
0000
0000
0000
0000
,
0000
0000
0000
0000
,
0000
0000
0000
0000
,
0000
0000
0000
0000
,
1001
0101
1000
0010
,
1001
1100
0001
0010
,
1001
0011
1000
0100
,
1001
1010
0001
1000
,
0110
0000
0001
0000
0010
0001
0100
0000
,
0011
0000
1000
0000
0100
1000
0010
0000
,
1100
0000
0010
0000
0100
1000
0010
0000
,
1001
0000
0100
0000
0010
0001
0100
0000
,
0010
0000
1000
0000
0100
1000
0001
0000
,
0010
0000
0001
0000
0100
0001
1000
0000
,
0010
1000
0001
0000
0010
0001
1000
0000
,
0010
0100
0001
0000
0100
0010
1000
0100
,
0010
0000
0001
0000
0100
0001
1000
0000
,
0010
0000
1000
0000
0100
1000
0001
0000
,
0010
0001
1000
0000
0010
1000
0001
0000
,
0100
0010
1000
0000
0100
0010
0001
0100
,
0020
0000
0000
0000
,
0230
0000
0000
0000
,
0304
0000
4003
0000
,
3400
0000
0340
0000
,
0230
0000
0000
0000
,
0320
0000
0000
0000
,
0034
0000
4003
0000
,
3040
0000
0430
0000
,
0310
0000
1000
0001
,
0100
0010
0010
0000
1000
0000
0001
0000
,
0010
0100
0100
0000
0010
0000
0001
0000
,
0200
0004
0000
0000
0003
0040
0000
0000
,
0030
0004
0000
0000
0303
0000
0001
0010
,
0100
0010
0010
0000
0001
0000
1000
0000
,
0010
0100
0100
0000
0010
0000
1000
0000
,
0200
4000
0000
0000
3000
0040
0000
0000
,
0030
4000
0000
0000
3300
0000
1000
0100
,
0010
0100
0100
0000
1000
0000
0001
0000
,
0100
0010
0010
0000
0100
0000
0001
0000
,
0020
0004
0000
0000
0003
0400
0000
0000
,
0300
0004
0000
0000
0033
0000
0001
0100
,
0010
0100
0100
0000
0001
0000
1000
0000
,
0100
0010
0010
0000
0100
0000
1000
0000
,
0020
4000
0000
0000
3000
0400
0000
0000
,
0300
4000
0000
0000
3030
0000
1000
0010
,
0100
0001
0100
0000
0000
0001
0000
0010
,
0100
1000
0100
0000
0000
1000
0000
0100
,
0010
0001
0010
0000
0000
0001
0000
0100
,
0010
1000
0010
0000
0000
1000
0000
0010
,
0100
0000
0010
0000
1000
0010
1000
1000
,
0100
0000
0010
0000
0001
0010
0001
0001
,
0100
0010
0100
0000
0001
0001
1000
1000
,
0100
0010
0100
0000
1000
1000
0001
0001
,
0400
0000
0340
0000
,
4030
0000
3400
0000
,
0000
0004
0000
0000
0003
0040
0000
0000
,
0030
4000
0000
0000
3300
0000
1000
0100
,
0040
0000
0430
0000
,
4300
0000
3040
0000
,
0000
0004
0000
0000
0003
0400
0000
0000
,
0300
4000
0000
0000
3030
1000
0010
0100
,
0040
0000
0430
0000
,
0304
0000
0043
0000
,
0000
4000
0000
0000
3000
0400
0000
0000
,
0300
0004
0000
0000
0033
0000
0001
0010
,
0400
0000
0340
0000
,
0034
0000
0403
0000
,
0000
4000
0000
0000
3000
0040
0000
0000
,
0030
0004
0000
0000
0303
0001
0100
0010
,
0100
0000
0000
0000
;

//---------------dance-single - D. D'Amato----------------
#NOTES:
     dance-single:
     D. D'Amato:
     Easy:
     4:
     0.316,0.277,0.036,0.339,0.000,206.000,4.000,38.000,0.000,0.000,0.000,0.316,0.277,0.036,0.339,0.000,206.000,4.000,38.000,0.000,0.000,0.000:
0000
0000
0000
0000
,
0000
0000
0000
0000
,
0000
0000
0000
0000
,
0000
0000
0000
0000
,
0100
0001
0100
0001
,
1000
0100
1000
0100
,
0010
0001
0010
0001
,
1000
0010
1000
0010
,
0100
0100
0001
0100
,
0010
0010
1000
0010
,
1000
1000
1000
0100
,
0010
0010
0010
0001
,
0100
0100
0100
0100
,
0010
0010
0010
0010
,
2000
0000
3002
0000
,
2003
0000
3002
0000
,
0013
0010
0010
0010
,
0100
0100
0100
0100
,
2000
0000
3002
0000
,
2003
0000
3002
0000
,
0013
0000
0001
0000
,
0010
0000
0100
0000
,
2000
0000
3020
0000
,
0230
0000
0302
0000
,
0023
0000
0000
0000
,
0230
0000
0000
0000
,
0300
0000
0000
0000
,
0000
0000
0000
0000
,
1001
0000
0110
1001
,
0100
0100
1000
0000
,
0001
0001
0100
0000
,
0020
1030
2000
3100
,
0200
0310
0020
0031
,
0100
0100
0010
0000
,
1000
1000
0100
0000
,
0020
0031
0002
0013
,
0020
0130
0200
1300
,
0010
0010
1000
0000
,
0001
0001
0010
0000
,
0200
1300
2000
3010
,
0020
0130
0200
0301
,
0010
0010
0100
0000
,
1000
1000
0010
0000
,
0200
0301
0002
0103
,
0200
0310
0020
1030
,
0100
0000
0000
0000
,
0010
0000
0000
0000
,
0001
0000
0100
0100
,
1000
0000
0100
0100
,
0010
0000
0000
0000
,
0100
0000
0000
0000
,
1000
0000
0010
0010
,
0001
0000
0010
0010
,
0100
1000
0100
1000
,
0001
0100
0001
0100
,
0002
1000
0100
1003
,
0200
0010
0001
0310
,
0100
0001
0100
0001
,
1000
0100
1000
0100
,
2000
0001
0010
3001
,
0020
0100
1000
0130
,
0010
1000
0010
1000
,
0001
0010
0001
0010
,
0002
1000
0010
1003
,
0020
0100
0001
0130
,
0010
0001
0010
0001
,
1000
0010
1000
0010
,
2000
0001
0100
3001
,
0200
0010
1000
0310
,
1001
0000
0000
0000
;

//---------------dance-double - M.Emirzian----------------
#NOTES:
     dance-double:
     M.Emirzian:
     Easy:
     4:
     0.278,0.277,0.000,0.000,0.000,218.000,0.000,0.000,0.000,0.000,0.000,0.278,0.277,0.000,0.000,0.000,218.000,0.000,0.000,0.000,0.000,0.000:
00000000
00000000
00000000
00000000
,
00000000
00000000
00000000
00000000
,
00000000
00000000
00000000
00000000
,
00000000
00000000
00000000
00000000
,
01000000
00000000
00100000
00000000
,
01000000
00000000
10000000
00000000
,
00100000
00000000
00010000
00000000
,
00001000
00000000
00000010
00000000
,
00000001
00000000
00001000
00000000
,
00000010
00000100
00000001
00000000
,
00000010
00001000
00000100
00000000
,
00010000
00001000
00010000
00000000
,
01000000
10000000
00010000
01000000
,
00100000
10000000
01000000
00100000
,
00010000
00100000
00001000
00010000
,
00000010
00001000
00000100
00001000
,
00000010
00000100
00000001
00000100
,
00000001
00000010
00000001
00000100
,
00000010
00000100
00001000
00010000
,
00100000
00000000
10000000
00000000
01000000
00000000
00100000
00010000
,
00100000
00000000
01000000
00000000
,
10000000
00000000
00010000
00000000
,
01000000
00000000
00001000
00000000
,
00010000
00000000
00000001
00000000
,
00000010
00000000
00000100
00000000
,
00010000
00000000
01000000
00000000
,
10000000
00000000
00100000
00000000
,
01000000
00000000
00001000
00000000
,
00010000
00000000
00000100
00001000
,
00000100
00000010
00000001
00001000
,
00000010
00000100
00000001
00000100
,
00001000
00000100
00000001
00000100
,
00001000
00000100
00001000
00010000
,
01000000
10000000
00100000
10000000
,
01000000
10000000
00100000
10000000
,
01000000
00100000
00001000
00010000
,
01000000
00010000
00001000
00000100
,
00001000
00010000
00100000
00010000
,
00001000
00000010
00000001
00000100
,
00000010
00001000
00000010
00000100
,
00000010
00001000
00000100
00010000
,
00001000
01000000
00001000
00010000
,
00000010
00010000
00001000
00100000
,
00001000
00010000
00000100
00010000
,
00001000
01000000
10000000
01000000
,
00010000
00000000
10000000
00000000
,
01000000
00000000
00010000
00000000
,
00000010
00000000
00001000
00000000
,
00000001
00000000
00000100
00000000
,
00001000
00000000
01000000
00000000
,
00001000
00000000
00100000
00000000
,
10000000
00000000
01000000
00000000
,
00100000
00000000
00000000
00000000
00001000
00000000
00000000
00001000
,
00010000
00001000
00010000
00000100
,
00010000
00000100
00001000
00000010
,
00001000
00000100
00001000
00000010
,
00001000
00000100
00000010
00000001
,
00000100
00000001
00000010
00000001
,
00000100
00000001
00000010
00000100
,
00001000
00010000
00100000
01000000
,
10000000
00010000
01000000
00010000
,
00100000
00010000
01000000
00010000
,
00100000
00010000
10000000
01000000
,
00010000
00001000
00000100
00000001
,
00000010
00000100
00001000
00000001
,
00000010
00001000
00000010
00000001
,
00000010
00001000
00000010
00000001
,
00000010
00001000
00010000
00100000
,
10000000
00000000
01000000
00000000
00100000
00000000
00010000
10000000
,
00010000
00000000
00000000
00000000
;

//---------------dance-double - M.Emirzian----------------
#NOTES:
     dance-double:
     M.Emirzian:
     Medium:
     6:
     0.406,0.400,0.018,0.000,0.000,317.000,2.000,0.000,0.000,0.000,0.000,0.406,0.400,0.018,0.000,0.000,317.000,2.000,0.000,0.000,0.000,0.000:
00000000
00000000
00000000
00000000
,
00000000
00000000
00000000
00000000
,
00000000
00000000
00000000
00000000
,
00000000
00000000
00000000
00000000
,
10000000
01000000
10000000
00100000
,
01000000
00010000
01000000
00000000
00100000
00000000
10000000
00000000
,
00100000
01000000
00010000
00000000
01000000
00010000
00100000
00000000
,
00001000
00010000
00001000
00000100
,
00000001
00001000
00000001
00000000
00000100
00000000
00001000
00000000
,
00000100
00000010
00000100
00000000
00001000
00000000
00010000
00000000
,
00000100
00010000
00000100
00000000
00001000
01000000
00001000
00000000
,
00100000
00010000
01000000
00100000
,
10000000
01000000
00100000
00000000
01000000
00100000
00010000
00000000
,
00100000
01000000
10000000
00000000
10000000
01000000
00100000
00001000
,
00010000
00000000
00000100
00000000
00010000
00001000
01000000
00001000
,
00010000
00000000
00001000
00000000
00010000
00000100
00001000
00000000
,
00000010
00000100
00000000
00000100
00001000
00000100
00000000
00000100
,
00000001
00000100
00000000
00000100
00001000
00000100
00001000
00000000
,
00000010
00000000
00000100
00000000
00001000
00000100
00001000
00000000
,
00010000
00000000
00001000
01000000
00010000
01000000
00100000
00000000
,
01000000
00000000
00010000
00000000
,
10000000
00000000
00001000
00000000
,
00010000
00000000
00000010
00000000
,
00000001
00000100
00001000
00000000
,
01000000
00000000
00100000
00000000
,
10000000
00000000
00010000
00000000
,
00100000
00000000
00001000
00000000
,
00000100
00000000
00000001
00000000
,
00000100
00000000
00000010
00001000
,
00000001
00000100
00000001
00000000
00001000
00000010
00001000
00000000
,
00000100
00010000
00000100
00000000
00010000
00001000
01000000
00001000
,
00010000
00000000
00100000
00000000
10000000
00100000
01000000
00010000
,
10000000
00000000
01000000
00000000
00100000
00010000
00100000
00000000
,
00001000
00010000
00000000
00010000
00000100
00010000
00000000
00010000
,
00001000
00010000
00000000
00010000
00000010
00010000
00001000
00000000
,
00000100
00000000
00000001
00000000
00001000
00000010
00001000
00000000
,
00000100
00000000
00010000
00000100
00010000
00001000
00010000
00000000
,
00100000
00010000
00100000
00000000
10000000
01000000
10000000
00000000
,
00100000
00010000
01000000
00000000
00100000
01000000
00001000
01000000
,
00010000
00000000
00100000
00000000
00001000
00010000
00000010
00010000
,
00001000
00000000
00010000
00000000
00000010
00001000
00000010
00000000
,
00001000
00000100
00000000
00000100
00000010
00000100
00000000
00000100
,
00000001
00000100
00000000
00000100
00000010
00000100
00001000
00000000
,
00000001
00000000
00000100
00000000
00000010
00001000
00000010
00000000
,
00000100
00000000
00001000
00010000
00001000
00010000
01000000
00000000
,
10000000
00100000
10000000
00000000
,
01000000
00000000
00100000
00000000
,
00010000
00010000
00010000
00000000
,
01000000
00000000
00001000
00000000
,
00010000
00010000
00010000
00000000
,
00000100
00000000
00000010
00000000
,
00000001
00000001
00000001
00000000
,
00001100
00000000
00000000
00000000
00000010
00000000
00001000
00000100
,
00001000
00000001
00000010
00000000
00000100
00001000
00000100
00000000
,
00010000
00000100
00010000
00000000
00001000
01000000
00001000
00010000
,
00000100
00000000
00010000
00000000
00001000
00100000
00010000
10000000
,
00100000
00000000
01000000
00000000
00010000
01000000
00100000
00000000
,
10000000
00010000
00000000
00010000
00100000
00010000
00000000
00010000
,
01000000
00010000
00000000
00010000
10000000
00010000
00100000
00000000
,
01000000
00000000
10000000
00000000
00010000
01000000
00010000
00000000
,
00100000
00000000
00001000
00010000
00001000
01000000
00001000
00000000
,
00010000
00000100
00001000
00000000
00000100
00000010
00000100
00000000
,
00001000
00000001
00001000
00000000
00000010
00000100
00000010
00001000
,
00000001
00000000
00001000
00000000
00000010
00001000
00000010
00010000
,
00001000
00000000
01000000
00000000
00100000
00010000
00100000
00000000
,
01000000
00001000
00000000
00001000
00010000
00001000
00000000
00001000
,
00100000
00001000
00000000
00001000
00010000
00001000
00000100
00000000
,
00001000
00000000
00010000
00000000
01000000
10000000
01000000
00000000
,
00100000
00000000
00010000
01000000
00010000
01000000
00100000
00000000
,
10010000
00000000
00000000
00000000
;

//---------------dance-double - M.Emirzian----------------
#NOTES:
     dance-double:
     M.Emirzian:
     Hard:
     9:
     0.575,0.523,0.125,0.089,0.499,427.000,14.000,10.000,0.000,0.000,0.000,0.575,0.523,0.125,0.089,0.499,427.000,14.000,10.000,0.000,0.000,0.000:
00000000
00000000
00000000
00000000
,
00000000
00000000
00000000
00000000
,
00000000
00000000
00000000
10000000
00000000
00010000
01000000
00100000
,
10000000
00000000
00000000
01000000
00000000
00000000
00010000
00000000
00000000
00000000
00001000
00000000
00010000
00000000
00000100
00000000
,
00000010
00000000
00000000
00000100
00001000
00000000
00000000
00000001
00000100
00000000
00000000
00000010
00000000
00000010
00000000
00000000
,
00000100
00000000
00000001
00001000
00000001
00000000
00000100
00000000
00001000
00000000
00000000
00010000
00000000
00010000
00000000
00000000
,
00001000
00000000
00000000
00100000
00001000
00000000
00000000
00010000
00000100
00000000
00000000
00010000
00000000
00010000
00000000
00000000
,
00001000
00000000
00010000
00000000
01000000
00000000
10000000
00000000
00100000
00000000
00000000
10000000
00000000
10000000
00000000
00000000
,
00010000
00000000
00000000
01000000
00100000
00000000
00000000
10000000
00010000
00000000
00000000
01000000
00000000
01000000
00000000
00000000
,
00001000
00000000
00010000
00001000
00010000
00000000
01000000
00000000
00010000
00000000
00000000
00001000
00000000
00001000
00000000
00000000
,
00010000
00000000
00000000
00000010
00001000
00000000
00000000
00000100
00000010
00000000
00000000
00000001
00000000
00000001
00000000
00000000
,
00000100
00000000
00000010
00000000
00001000
00000000
00000100
00000000
00001000
00000000
00000000
00000001
00000000
00000001
00000000
00000000
,
00000000
00000100
00000010
00000000
00000010
00001000
00000000
00000000
00000000
00000100
00001000
00000000
00000100
00010000
00000000
00000000
,
00001000
00000000
00010000
00001000
00010000
00000000
00100000
00000000
10000000
00000000
00010000
00000000
01000000
00000000
00100000
00000000
,
00000000
01000000
00100000
00000000
00100000
10000000
00000000
00000000
00000000
01000000
00100000
00000000
00010000
00100000
00000000
00000000
,
01000000
00100000
00001000
00010000
00100000
00010000
00001000
00000000
,
00000000
00001000
00010000
00000000
00010000
00000100
00000000
00000000
00000000
00001000
00000010
00000000
00000001
00000010
00000000
00000000
,
00001000
00000000
00000001
00000100
00000001
00000000
00001000
00000000
00000100
00000000
00000010
00000000
00000001
00000000
00001000
00000000
,
00000000
00000100
00010000
00000000
00010000
00001000
00000000
00000000
00000000
01000000
00010000
00000000
01000000
00100000
00000000
00000000
,
10000000
00000000
00100000
00000000
01000000
00000000
00001000
00000000
00010000
00000000
00000000
00001000
01000000
00000000
00010000
00000000
,
00100000
00000000
00000000
00000000
01000000
00000000
00000000
01000000
00000000
00000000
00000000
00000000
10000000
00000000
00000000
10000000
,
00000000
00000000
00000000
00000000
00100000
00000000
00000000
00100000
00000000
00000000
00000000
00000000
00010000
00000000
00000000
00010000
,
00000000
00000000
00000000
00000000
00000100
00000000
00000000
00000100
00000000
00000000
00000000
00000000
00000001
00000000
00000000
00000001
,
00000000
00000000
00000000
00000000
00000010
00000000
00000000
00000010
00000000
00000000
00000000
00000000
00000010
00000000
00000000
00000000
,
00020000
00000000
00000000
00001000
00000000
00000000
00130000
00000000
,
02000000
00000000
00000000
00001000
00000000
00000000
03100000
00000000
,
20000000
00000000
00000000
01000000
00000000
00000000
30100000
00000000
,
00010000
10000000
00100000
01000000
,
00010000
00000000
00001000
00010000
,
00000000
00001000
00010000
00000000
00010000
00000100
00000000
00000000
00000000
00001000
00000100
00000000
00000100
00000010
00000000
00000000
,
00000001
00000100
00000010
00001000
00000100
00001000
00000010
00000000
,
00000100
00001000
00000000
00000000
00000101
00000000
00000000
00000000
00000100
00001000
00000000
00000000
00011000
00000000
00000000
00000000
,
00001000
00010000
00000010
00000100
00001000
00010000
00001000
00000000
,
00010000
00001000
00000000
00000000
01000000
00001000
00000000
00000000
00010000
00100000
00000000
00000000
11000000
00000000
00000000
00000000
,
10000000
00100000
10000000
01000000
00100000
00010000
01000000
00000000
,
00000000
00001000
00010000
00000000
00010000
00001000
00000000
00000000
00000000
00100000
01000000
00000000
01000000
10000000
00000000
00000000
,
10000000
00100000
10000000
01000000
00010000
00001000
00000010
00000000
,
00000000
00000001
00001000
00000000
00001000
00000100
00000000
00000000
00000000
00000010
00000001
00000000
00000001
00000100
00000000
00000000
,
00000010
00001000
00000100
00001000
00000001
00000100
00001000
00000000
,
00010000
00001000
00000000
00000000
01001000
00000000
00000000
00000000
00010000
00001000
00000000
00000000
00010010
00000000
00000000
00000000
,
00001000
01000000
00100000
01000000
00001000
00010000
00000100
00000000
,
00010000
00000100
00000000
00000000
00010000
00001000
00000000
00000000
00010000
00000010
00000000
00000000
00011000
00000000
00000000
00000000
,
00001000
01000000
00001000
00010000
00100000
10000000
01000000
00000000
,
00000000
01000000
00100000
00000000
00100000
00010000
00000000
00000000
00000000
01000000
00001000
00000000
00001000
00010000
00000000
00000000
,
00000100
00000000
00010000
00000000
00001000
00000000
01000000
00000000
00001000
00000000
00000000
00010000
00000100
00000000
00002000
00000000
,
00000000
00000000
00000000
00000000
00000010
00000000
00000000
00000001
00000000
00000000
00003010
00000000
00000000
00000000
00000200
00000000
,
00000000
00000000
00000000
00000000
00000001
00000000
00000000
00000010
00000000
00000000
00000301
00000000
00000000
00000000
00000020
00000000
,
00000000
00000000
00000000
00000000
00000100
00000000
00000000
00001000
00000000
00000000
00000130
00000000
00000000
00000000
00020000
00000000
,
00000000
00000000
00000000
00000000
00001000
00000000
00000000
00000100
00000000
00000000
00031000
00000000
00000000
00000000
00002000
00000000
,
00000000
00000000
00000000
00000000
00010000
00000000
00000000
01000000
00000000
00000000
00013000
00000000
00000000
00000000
02000000
00000000
,
00000000
00000000
00000000
00000000
10000000
00000000
00000000
00100000
00000000
00000000
13000000
00000000
00000000
00000000
00200000
00000000
,
00000000
00000000
00000000
00000000
01000000
00000000
00000000
00010000
00000000
00000000
01300000
00000000
00000000
00000000
00010000
00000000
,
10000000
00000000
01000000
00000000
00100000
00000000
00001000
00010000
,
00010100
00000000
00000000
00000000
00000100
00000000
00000000
00000000
00000000
00001000
00000100
00000000
00000100
00000010
00000000
00000000
,
00000001
00000010
00000100
00001000
00000001
00000010
00001000
00000000
,
00010000
00001000
00000000
00000000
00010010
00000000
00000000
00000000
00001000
01000000
00000000
00000000
00011000
00000000
00000000
00000000
,
00001000
00100000
01000000
00100000
00010000
01000000
00100000
00000000
,
10000000
01000000
00000000
00000000
00100000
00010000
00000000
00000000
01000000
00010000
00000000
00000000
10010000
00000000
00000000
00000000
,
01000000
00100000
00001000
00010000
00000010
00001000
00000100
00000000
,
00000000
00001000
00000001
00000000
00000001
00000100
00000000
00000000
00000000
00000100
00000010
00000000
00000010
00010000
00000000
00000000
,
00001000
00010000
00100000
10000000
01000000
10000000
00010000
00000000
,
00000000
01000000
00010000
00000000
00010000
00100000
00000000
00000000
00000000
00100000
00001000
00000000
00001000
00010000
00000000
00000000
,
01000000
00010000
00001000
00000100
00000001
00000100
00000010
00000000
,
00000010
00000100
00000000
00000000
00001100
00000000
00000000
00000000
00010000
00001000
00000000
00000000
00010010
00000000
00000000
00000000
,
00000100
00010000
00001000
01000000
00100000
01000000
00010000
00000000
,
10000000
00100000
00000000
00000000
01000000
00010000
00000000
00000000
00100000
00010000
00000000
00000000
00101000
00000000
00000000
00000000
,
00010000
00001000
00010000
00000100
00000010
00000001
00000100
00000000
,
00000000
00000010
00000100
00000000
00000100
00000001
00000000
00000000
00000000
00000010
00000100
00000000
00000100
00001000
00000000
00000000
,
00000010
00000000
00000100
00000000
00000010
00000000
00001000
00000000
00000100
00000000
00000000
00010000
00001000
00000000
01000000
00000000
,
00011000
00000000
00000000
00000000
;

//---------------dance-double - M.Emirzian----------------
#NOTES:
     dance-double:
     M.Emirzian:
     Challenge:
     11:
     0.806,0.800,0.009,0.018,1.000,630.000,1.000,2.000,0.000,0.000,2.000,0.806,0.800,0.009,0.018,1.000,630.000,1.000,2.000,0.000,0.000,2.000:
00000000
00000000
00000000
00000000
,
00000000
00000000
00000000
00000000
,
00000000
00000000
00000000
00000100
00000000
00001000
00000100
00000010
,
00000001
00000000
00000000
00001000
00000000
00000000
00000010
00000000
00000000
00000000
00001000
00000000
00000010
00000000
00000100
00000000
,
00000001
00000000
00001000
00000001
00000100
00000000
00000010
00001000
00000001
00000000
00001000
00000100
00000000
00000010
00000000
00000100
,
00001000
00000010
00010000
00001000
01000000
00001000
00100000
00010000
,
10000000
00000000
01000000
00100000
00010000
00000000
10000000
01000000
00100000
00000000
00010000
10000000
00000000
00100000
00000000
10000000
,
00010000
00000000
01000000
00000000
00001000
00000000
00010000
00000000
00000100
00000000
00001000
00000010
00000000
00001000
00000000
00001000
,
00000100
00001000
00000100
00000010
00000001
00000000
00001000
00000010
00000100
00000000
00000001
00000100
00000000
00000010
00000000
00000100
,
00000001
00000100
00000010
00001000
00000010
00000000
00001000
00000001
00001000
00000000
00000100
00000010
00000000
00000100
00000000
00001000
,
00000100
00010000
00000100
00010000
00001000
00000000
01000000
00001000
00010000
00000000
00001000
01000000
00000000
00010000
00000000
01000000
,
00001000
00010000
00001000
01000000
00001000
00000000
01000000
00010000
01000000
00000000
00100000
10000000
00000000
00010000
00000000
10000000
,
01000000
10000000
01000000
00000000
01000000
00100000
00000000
00010000
00000000
00100000
00010000
00000000
00010000
10000000
00000000
00100000
,
00000000
01000000
00001000
00000000
00001000
00010000
00000000
00000010
00000000
00010000
00001000
00000000
00001000
00000100
00000000
00000100
,
00000001
00000010
00000100
00001000
00000001
00000100
00001000
01000000
,
00001000
00001000
00010000
00010000
00100000
01000000
00010000
01000000
,
00100000
10000000
01000000
00000000
01000000
00100000
00000000
00010000
00000000
00100000
01000000
00000000
01000000
10000000
00000000
00010000
,
00000000
01000000
00001000
00000000
00001000
00010000
00000000
00000010
00000000
00010000
00001000
00000000
00001000
00100000
00000000
00100000
,
00010000
01000000
00001000
00010000
00000010
00000100
00000001
00000010
,
00000100
00000000
00000100
00000000
00000010
00000000
00000100
00000000
00001000
00000000
00000000
00000010
00010000
00000000
00001000
00000000
,
01000000
00000000
00100000
00000000
10000000
00000000
00000000
01000000
00000000
00000000
00100000
00000000
00010000
00000000
00000000
01000000
,
00000000
00000000
00000010
00000000
00001000
00000000
00000000
00000100
00000000
00000000
00001000
00000000
00000010
00000000
00000000
01000000
,
00000000
00000000
00010000
00000000
00100000
00000000
00000000
00010000
00000000
00000000
01000000
00000000
00000010
00000000
00000000
00001000
,
00000000
00000000
00000001
00000000
00000010
00000000
00000000
00001000
00000000
00000000
00010000
00000000
00100000
00000000
00000000
00000000
,
00020000
00000000
00000000
00001000
00000000
00000000
01030000
00000000
,
20000000
00000000
00000000
00100000
00000000
00000000
00001000
00000000
,
31000000
00100000
00000100
00000010
,
00000001
00000000
00001000
00000000
00000010
00000000
00010000
00000000
00001000
00000000
01000000
00000000
00010000
00000000
01000000
00004000
,
04000000
00000000
00000000
00000000
00000000
00000000
00000000
03003000
,
00000000
01000000
00010000
01000000
00100000
01000000
00000000
00010000
00000000
10000000
01000000
00100000
01000000
00100000
00000000
00010000
,
00000000
01000000
00001000
00000000
00010000
00000010
00000000
00010000
00000000
00001000
01000000
00000000
00001000
00010000
00000000
00000010
,
00000000
00001000
00000001
00001000
00000001
00001000
00000000
00000100
00000000
00001000
00000001
00001000
00000001
00001000
00000000
00000010
,
00000000
00001000
00000000
00001000
00000000
00001000
00000000
00000100
00000000
00001000
00000000
00001000
00000000
00001000
00000000
00000010
,
00000000
00000100
00000001
00000100
00000010
00001000
00000000
00000010
00000000
00010000
00001000
01000000
00001000
00010000
00000000
00100000
,
00000000
01000000
00010000
00000000
10000000
01000000
00000000
00100000
00000000
00001000
00010000
00000000
00001000
00100000
00000000
00001000
,
00000000
01000000
00001000
01000000
00001000
01000000
00000000
00001000
00000000
00010000
00000010
00010000
00000010
00010000
00000000
00001000
,
00000000
01000000
00000000
01000000
00000000
01000000
00000000
00001000
00000000
00010000
00000000
00010000
00000000
00010000
00000000
00000100
,
00000000
00010000
00001000
00010000
00000100
00001000
00000000
00000010
00000000
00001000
00000100
00001000
00000100
00000010
00000000
00000001
,
00000000
00001000
00000010
00000000
00000100
00000001
00000000
00001000
00000000
00000100
00010000
00000000
00001000
00100000
00000000
00001000
,
00000000
00010000
00000010
00001000
00000010
00010000
00000000
00001000
00000000
01000000
00001000
00010000
00001000
01000000
00000000
00001000
,
00000000
00010000
00000000
00001000
00000000
00010000
00000000
00001000
00000000
01000000
00000000
00010000
00000000
01000000
00000000
00001000
,
00000000
00010000
00001000
00100000
00010000
00100000
00000000
01000000
00000000
10000000
00010000
10000000
00100000
01000000
00000000
00010000
,
00000000
01000000
00001000
00000000
00001000
00010000
00000000
00000010
00000000
00000100
00000010
00000000
00000100
00000001
00000000
00000010
,
00000100
00001000
00000001
00000100
00000010
00001000
00000100
00001000
00000001
00000010
00000100
00001000
00000001
00000100
00000010
00001000
,
00000001
00001000
00000100
00001000
00000100
00000010
00000100
00001000
00000100
00010000
00001000
00010000
00001000
01000000
00010000
00100000
,
00010000
00000000
10000000
00000000
00010000
00000000
01000000
00100000
00000000
10000000
00010000
00000000
00000000
00000000
10000000
00000000
,
01000000
00000000
00100000
00000000
00010000
00000000
00100000
00000010
00000000
00001000
00000010
00000000
00000000
00000000
00000100
00000000
,
00000001
00000000
00000100
00000000
00001000
00000000
01000000
00000100
00000000
00010000
00001000
00000000
00000000
00000000
00100000
00000000
,
00001000
00000000
00010000
00000000
00001000
00000000
10000000
00001000
00000000
10000000
00010000
00000000
00000000
00000000
01000000
00000000
,
00100000
00000000
10000000
00000000
01000000
00000000
00100000
00001000
00000000
00001000
00000010
00000000
00000000
00000000
00000001
00000000
,
00000100
00000000
00000010
00000000
00001000
00000000
00000100
01000000
00000000
01000000
00001000
00000000
00000000
00000000
00100000
00000000
,
00010000
00000000
01000000
00000000
00000010
00000000
00010000
00000100
00000000
00000100
00000001
00000000
00000000
00000000
00000100
00000000
,
00001000
00000000
00000001
00000000
00000100
00000000
00000010
00010000
00000000
00001000
01000000
00000000
00000000
00000000
00001000
00000000
,
00010000
00001000
01000000
00010000
01000000
00100000
00000000
10000000
00000000
01000000
00100000
00010000
10000000
01000000
00000000
00100000
,
00000000
00010000
01000000
00000000
00001000
00010000
00000000
00000010
00000000
00100000
00001000
00000000
00010000
00000100
00000000
00010000
,
00000000
00001000
00010000
00000010
00001000
00000010
00000000
00000100
00000000
00000010
00001000
00000001
00000100
00000010
00000000
00010000
,
00000000
00001000
00000000
00000010
00000000
00000010
00000000
00000100
00000000
00000010
00000000
00000001
00000000
00000010
00000000
00010000
,
00000000
00001000
00010000
00001000
01000000
00001000
00000000
00010000
00000000
00000010
00010000
00001000
00010000
00000100
00000000
01000000
,
00000000
00001000
00010000
00000000
00000010
00001000
00000000
00000100
00000000
01000000
00010000
00000000
01000000
00001000
00000000
00010000
,
00000000
00001000
01000000
00010000
01000000
00100000
00000000
10000000
00000000
00010000
00100000
00010000
10000000
00100000
00000000
01000000
,
00000000
00001000
00000000
00010000
00000000
00100000
00000000
10000000
00000000
00010000
00000000
00010000
00000000
00100000
00000000
01000000
,
00000000
10000000
01000000
00100000
00010000
00100000
00000000
00001000
00000000
00010000
00000010
00001000
00000100
00001000
00000000
00000001
,
00000000
00000100
00000010
00000000
00010000
00001000
00000000
00000010
00000000
00000100
00001000
00000000
00000010
00010000
00000000
00001000
,
00000000
00100000
00001000
00010000
00001000
00100000
00000000
00000010
00000000
00010000
00000010
00010000
00001000
01000000
00000000
00000100
,
00000000
00100000
00000000
00010000
00000000
00100000
00000000
00000010
00000000
00010000
00000000
00010000
00000000
01000000
00000000
00000100
,
00000000
00010000
00001000
01000000
00010000
01000000
00000000
00100000
00000000
01000000
00001000
00010000
00000100
00001000
00000000
00000001
,
00000000
00000010
00000100
00000000
00000100
00010000
00000000
00100000
00000000
00010000
00001000
00000000
00001000
01000000
00000000
00100000
,
00000000
01000000
00010000
01000000
00100000
10000000
00000000
01000000
00000000
00100000
00010000
10000000
01000000
00100000
00000000
01000000
,
00000000
00100000
00001000
00010000
00000010
00001000
00000000
00000010
00000000
00000000
00000000
01000000
00001000
00000000
00010000
00000000
,
00010010
00000000
00000000
00000000
;

//---------------dance-single - J. Frederick----------------
#NOTES:
     dance-single:
     J. Frederick:
     Beginner:
     1:
     0.080,0.092,0.036,0.000,0.000,59.000,4.000,0.000,0.000,0.000,0.000,0.080,0.092,0.036,0.000,0.000,59.000,4.000,0.000,0.000,0.000,0.000:
0000
0000
0000
0000
,
0000
0000
0000
0000
,
0000
0000
0000
0000
,
0000
0000
0000
0000
,
1000
0000
0000
0000
,
0001
0000
0000
0000
,
0010
0000
0000
0000
,
0100
0000
0000
0000
,
1000
0000
0000
0000
,
0001
0000
0000
0000
,
0010
0000
0000
0000
,
0100
0000
0000
0000
,
1000
0000
0000
0000
,
0001
0000
0000
0000
,
0100
0000
0000
0000
,
0010
0000
0000
0000
,
1000
0000
0000
0000
,
0001
0000
0000
0000
,
0010
0000
0000
0000
,
0100
0000
0000
0000
,
1001
0000
0000
0000
,
0000
0000
0000
0000
,
0000
0000
0000
0000
,
0000
0000
0000
0000
,
0100
0000
0000
0000
,
0010
0000
0000
0000
,
1000
0000
0000
0000
,
0001
0000
0000
0000
,
0010
0000
0000
0000
,
0100
0000
0000
0000
,
1000
0000
0000
0000
,
0001
0000
0000
0000
,
0100
0000
0000
0000
,
0010
0000
0000
0000
,
0100
0000
0000
0000
,
1000
0000
0000
0000
,
0000
0000
0000
0000
,
0001
0000
0000
0000
,
0010
0000
0000
0000
,
0100
0000
0000
0000
,
0000
0000
0000
0000
,
1000
0000
0000
0000
,
0001
0000
0000
0000
,
0100
0000
0000
0000
,
0000
0000
0000
0000
,
0110
0000
0000
0000
,
1000
0000
0000
0000
,
0001
0000
0000
0000
,
0010
0000
0000
0000
,
0100
0000
0000
0000
,
0001
0000
0000
0000
,
1000
0000
0000
0000
,
0010
0000
0000
0000
,
0100
0000
0000
0000
,
1000
0000
0000
0000
,
0001
0000
0000
0000
,
0010
0000
0000
0000
,
0100
0000
0000
0000
,
1000
0000
0000
0000
,
0001
0000
0000
0000
,
0010
0000
0000
0000
,
0100
0000
0000
0000
,
1000
0000
0000
0000
,
0001
0000
0000
0000
,
0010
0000
0000
0000
,
1000
0000
0000
0000
,
0001
0000
0000
0000
,
0110
0000
0000
0000
,
0000
0000
0000
0000
,
1001
0000
0000
0000
;
