#TITLE:Groovin' Motion;
#SUBTITLE:;
#ARTIST:Sonic Dimension;
#TITLETRANSLIT:;
#SUBTITLETRANSLIT:;
#ARTISTTRANSLIT:;
#GENRE:Disco;
#CREDIT:;
#BANNER:Groovin' Motion-bn.png;
#BACKGROUND:Groovin' Motion-bg.png;
#LYRICSPATH:;
#CDTITLE:;
#MUSIC:Groovin' Motion.ogg;
#OFFSET:-0.851;
#SAMPLESTART:29.520;
#SAMPLELENGTH:11.860;
#SELECTABLE:YES;
#BPMS:0.000=130.012,224.000=91.752;
#STOPS:156.000=0.461
,157.000=0.461
,158.000=0.231
,158.500=0.231
,159.000=0.231
,159.500=0.231;
#BGCHANGES:-1.455=Groovin' Motion.mpg=1.000=1=0=0=StretchNoLoop==CrossFade==,
99999=-nosongbg-=1.000=0=0=0 // don't automatically add -songbackground-;
#KEYSOUNDS:;

//---------------dance-double - M.Emirzian----------------
#NOTES:
     dance-double:
     M.Emirzian:
     Easy:
     3:
     0.145,0.154,0.027,0.018,0.000,107.000,3.000,2.000,0.000,0.000,0.000,0.145,0.154,0.027,0.018,0.000,107.000,3.000,2.000,0.000,0.000,0.000:
00000000
00000000
00000000
00000000
,
00000000
00000000
00000000
00000000
,
00000000
00000000
00000000
00000000
,
00000000
00000000
00000000
00000000
,
00010000
00000000
10000000
00000000
,
01000000
00000000
00010000
00000000
,
00100000
00000000
00001000
00000000
,
00010000
00000000
00000100
00000000
,
00000001
00000000
00000010
00000000
,
00001000
00000000
00000100
00000000
,
00010000
00000000
00001000
00000000
,
01000000
00000000
00100000
00000000
,
10000000
00000000
01000000
00000000
,
00010000
00000000
00100000
00000000
,
00001000
00000000
00010000
00000000
,
00000100
00000000
00001000
00000000
,
00000010
00000000
00000001
00000000
,
00000100
00000000
00000010
00000000
,
00001000
00001000
00000000
00000000
,
00010000
00010000
00000000
00000000
,
01000000
01000000
00000000
00000000
,
00000100
00000100
00000000
00000000
,
00000010
00000000
00000010
00000000
00000000
00000000
00000000
00001100
,
00000000
00000000
00100000
00000000
,
00001000
00010000
00000000
01000000
,
01000000
00000000
10000000
00010000
,
00000000
00001000
00001000
00000000
,
00010000
00000100
00000000
00000010
,
00000010
00000000
00001000
00000001
,
00000000
00000100
00000100
00000000
,
00000010
00001000
00000000
00010000
,
00010000
00000000
00001000
00000000
,
00010000
00000000
01000000
00000000
,
10000000
00000000
01000000
00000000
,
00100000
00000000
00001000
00000000
,
00010000
00000000
00001000
00000000
,
00000100
00000000
00000001
00000000
,
00001000
00000000
00000001
00000000
,
00001000
00000000
00000000
00001000
,
00010000
01000000
10000000
00000000
,
00000000
00000000
01000000
00000000
,
00000000
00000000
00001000
00000000
,
00000000
00000000
00000010
00000000
,
00000000
00000000
00000001
00000000
,
00001000
00000000
00010000
00000000
,
00000100
00000000
00010000
00000000
,
01000000
00000000
00000000
00000000
00010000
00000000
00000000
00011000
,
00000000
00000000
01000000
00000000
,
00100000
00000000
10000000
00000000
,
01000000
00000000
00010000
00000000
,
00100000
00000000
00001000
00000000
,
00000100
00000000
00000001
00000000
,
00000010
00000000
00001000
00000000
,
00000100
00000000
00000001
00000000
,
00001000
00000000
00010000
00000000
,
01000000
00000000
10000000
00000000
,
20020000
00000000
00000000
30030000
;

//---------------dance-double - M.Emirzian----------------
#NOTES:
     dance-double:
     M.Emirzian:
     Medium:
     5:
     0.273,0.257,0.245,0.009,0.000,183.000,27.000,1.000,0.000,0.000,0.000,0.273,0.257,0.245,0.009,0.000,183.000,27.000,1.000,0.000,0.000,0.000:
00000000
00000000
00000000
00000000
,
00000000
00000000
00000000
00000000
,
00000000
00000000
00000000
00000000
,
00000000
00000000
00000000
00000000
,
00001000
00000000
00000000
00000000
00010000
00000000
00000000
01000000
,
00000000
10000000
00010000
10000000
,
10000000
00000000
00000000
00000000
00100000
00000000
00000000
01010000
,
00000000
00001000
00001000
00010000
,
00010000
00000000
00001000
00000000
00000100
00000000
00000000
00001001
,
00000000
00001000
00000100
00000100
,
00000010
00000000
00000010
00000000
00000001
00000000
00000000
00001100
,
00000000
00000010
00000010
00010000
,
00010000
00000000
00001000
00000000
01000000
00000000
00000000
01010000
,
00000000
00100000
00100000
10000000
,
10000000
00000000
01000000
00000000
00100000
00000000
00000000
00110000
,
00000000
00001000
00001000
00010000
,
00010000
00000000
00000100
00000000
00000010
00000000
00000000
00000011
,
00000000
00001000
00001000
00000010
,
00000010
00000000
00000100
00000000
00000001
00000000
00000000
00001100
,
00000000
00010000
00010000
00001000
,
00001000
00000000
00010000
00000000
01000000
00000000
00000000
01100000
,
00000000
00010000
00010000
01000000
,
01000000
00000000
00100000
00000000
10000000
00000000
00000000
11000000
,
00000000
00000000
00001000
00001000
,
00010100
00000000
00001000
00000100
00000010
00000000
00000100
00000010
,
00000001
00000000
00000000
00001100
00000000
00000000
00000000
00000000
,
00000010
00000010
00000010
00000000
,
01000000
00000000
01000000
00000000
01000000
00000000
00100000
10000000
,
00010000
00000000
01000000
00010000
10000000
00000000
01000000
00100000
,
00010000
00000000
00000000
00101000
00000000
00000000
00000000
00000000
,
00010000
00010000
00010000
00000000
,
00001100
00000000
00001010
00000001
,
00000100
00000010
00001000
00000100
,
00010000
00001000
01000000
00010000
,
10000000
10000000
10000000
00000000
,
00010000
00000000
00010000
00000000
00010000
00000000
01000000
00001000
,
00010000
00000100
00000100
00000100
,
00000010
00000001
00000000
00001000
,
00000010
00000000
00000000
00000101
00000000
00000000
00000010
00000000
,
00001000
00000000
00000100
00000000
00010000
00001000
01000000
00010000
,
10000000
00000000
00000000
00000000
00100000
00000000
00000000
10010000
,
00000000
00000000
00100000
00000000
,
00001000
00000000
00000000
00000000
00010000
00000000
00000000
00001100
,
00000000
00000000
00000001
00000001
,
00001000
00000000
00001000
00000000
00000100
00000000
00000000
00010100
,
00000000
00010000
00010000
00001000
,
00001000
00000000
01000000
00000000
00010000
00000000
00000000
10010000
,
00000000
00100000
00100000
00100000
,
00100000
00000000
10000000
00000000
11000000
00000000
00000000
00011000
,
00000000
00000100
00000100
00000010
,
00000010
00000000
00000001
00000000
00000110
00000000
00000000
00010100
,
00000000
00000000
00001000
00000000
00010000
00000000
00001000
01000000
,
00010000
00000000
00100000
00000000
10100000
00000000
00000000
00110000
,
00000000
10000000
10000000
00100000
,
00100000
00000000
01000000
00000000
01001000
00000000
00000000
00011000
,
00000000
00000000
00000010
00000000
00010000
00000000
00001000
00010000
,
00000200
00000000
00000000
00000300
;

//---------------dance-double - M.Emirzian----------------
#NOTES:
     dance-double:
     M.Emirzian:
     Hard:
     7:
     0.462,0.386,0.408,0.217,0.295,288.000,45.000,24.000,0.000,3.000,0.000,0.462,0.386,0.408,0.217,0.295,288.000,45.000,24.000,0.000,3.000,0.000:
00000000
00000000
00000000
00000000
,
00000000
00000000
00000000
00000000
,
11000000
00000000
00000000
00000000
00010000
00000000
10000000
00000000
00010000
00000000
00000000
01000000
00000000
00000000
00100000
00000000
,
00000000
00000000
10000000
00000000
00000000
01000000
00000000
00000000
00100000
00000000
00000000
00010000
00000000
00000000
01000000
00000000
,
00001000
00000000
00000000
00000000
00010000
00000000
00001000
00000000
00010000
00000000
00000000
00000100
00000000
00000000
00001000
00000000
,
00000000
00000000
00000010
00000000
00000000
00001000
00000000
00000000
00000100
00000000
00000000
00000010
00000000
00000000
00000001
00000000
,
00001000
00000000
00000000
00000000
00000010
00000000
00000100
00000000
00000010
00000000
00000000
00001000
00000000
00000000
00001002
00000000
,
00000000
00000000
00000010
00000000
00000000
00000010
00000003
00000000
00000200
00000000
00000000
00001000
00000000
00000000
00001300
00000000
,
00000010
00000000
00000000
00000000
00010000
00000000
00001000
00000000
02000000
00000000
00000000
00010000
00000000
00000000
00100000
00000000
,
03000000
00000000
10000000
00000000
00000000
01000000
00000000
00000000
00110000
00000000
00000000
10010000
00000000
00000000
00100000
00000000
,
01000000
00000000
00000000
00000000
00010000
00000000
10000000
00000000
00010000
00000000
00000000
10000000
00000000
00000000
02000000
00000000
,
00000000
00000000
00100000
00000000
00000000
10000000
03000000
00000000
00020000
00000000
00000000
00100000
00000000
00000000
01000000
00030000
,
00010000
00000000
00000000
00000000
00100000
00000000
00001000
00000000
00020000
00000000
00000000
00000100
00000000
00000000
00031000
00000000
,
00000000
00000000
00010000
00000000
00000000
00000100
00000000
00000000
00001100
00000000
00000000
00010100
00000000
00000000
00000100
00000000
,
00001000
00000000
00000000
00000000
00000010
00000000
00000100
00000000
00000001
00000000
00000000
00001001
00000000
00000000
00000120
00000000
,
00000000
00000000
00000100
00000000
00000000
00001000
00000030
00000000
00000001
00000000
00001000
00000100
00000000
00000000
00001000
00000000
,
00000100
00000000
00010000
00000000
00000100
00000000
00001000
00000000
00000010
00000000
00000000
00010010
00000000
00000000
00011000
00000000
,
00000000
00000000
00010000
00000000
00000000
00001000
00000000
00000000
01001000
00000000
00000000
00010000
00000000
00000000
00100000
00000000
,
00010000
00000000
01000000
00000000
00010000
00000000
00100000
00000000
01000000
00000000
00000000
10000000
00000000
00000000
01100000
00000000
,
00000000
00000000
00010000
00000000
00000000
10000000
00000000
00000000
01000000
00000000
00000000
00100000
00000000
01000000
00100000
00000000
,
00010000
00000000
00000000
00000000
10000000
00000000
00100000
00000000
01000000
00000000
00000000
01001000
00000000
00000000
00011000
00000000
,
00000000
00001000
00010000
00000100
00010000
00000010
00001000
00000000
,
00000101
00000000
00000000
00000000
00000010
00000000
00001000
00000000
00000100
00000000
00000000
00001001
00000000
00000000
00000110
00000000
,
00000000
00000000
00000001
00000000
00000000
00001000
00000000
00000000
00000100
00000000
00001000
00000100
00000000
00000000
00001000
00000000
,
00000010
00000000
00010000
00001000
00020000
00000000
00001000
00032000
,
02000000
00000000
00000000
00000000
00000000
00000000
00100000
03003000
00000000
00000000
00000000
00000000
00000000
00000000
00000000
00000000
,
10000000
00000000
00000000
01000000
00000000
00000000
00010000
00000000
00000000
00000000
00000000
00000000
00011000
00000000
00000000
00000000
,
00001000
00000000
00000000
00000010
00000000
00000000
00000001
00000000
00000100
00000000
00000000
00000000
00000010
00000000
00002000
00000000
,
00000100
00000000
00003001
00000200
00001000
00000000
00000310
00020000
,
00002000
00000000
00000000
00000000
00000000
00000000
00100010
00033000
00000000
00000000
00000000
00000000
00000000
00000000
00000000
00000000
,
00001000
00000000
00000000
00010000
00000000
00000000
00100000
00000000
00000000
00000000
00000000
00000000
10010000
00000000
00000000
00000000
,
02200000
00000000
03311000
00000000
,
10010000
00000000
00000000
00000000
01010000
00000000
00000000
00000000
01001000
00000000
00000000
00001000
00000000
00000000
00010000
00000000
,
00001000
00000000
00000100
00001100
00000000
00000000
00001001
00000000
,
00000010
00000000
00000000
00000110
00000000
00000000
00001100
00000000
00000000
00000000
00000000
00000000
00000002
00000000
00000000
00000000
,
00001000
00000000
00000000
00000103
00000000
00000000
00000010
00000000
00001000
00000000
00000000
00000000
00000100
00000000
00010000
00000000
,
00000010
00000000
00000000
00000000
00011000
00000000
00000000
00000000
00001000
00000000
00000000
00010000
00000000
00000000
00100000
00000000
,
10010000
00000000
00100000
11000000
00000000
00000000
00010000
00000000
,
01010000
00000000
00000000
00100000
00000000
00000000
01001000
00000000
00000000
00000000
00000000
00000000
00010100
00000000
00000000
00001000
,
00000100
00000000
00000011
00000000
00000001
00010000
00001000
10000000
,
01000000
00000000
00000000
00000000
00100000
00000000
00010000
00000000
10000000
00000000
00000000
00100000
00000000
00000000
01000000
00000000
,
00000000
00000000
00010000
00000000
00000000
10000000
00000000
00000000
01000000
00000000
00000000
00010000
00000000
00000000
00001000
00000000
,
00000100
00000000
00000000
00000000
00000001
00000000
00001000
00000000
00000100
00000000
00000000
00000010
00000000
00000000
00000001
00000000
,
00000000
00000000
00000010
00000000
00000000
00001000
00000000
00000000
00010000
00000000
00000000
00100000
00000000
00000000
10000000
00000000
,
01000000
00000000
00000000
00000000
10000000
00000000
00010000
00000000
02000000
00000000
00000000
10000000
00000000
00000000
00010000
00000000
,
03000000
00000000
10000000
00000000
00000000
01000000
00000000
00000000
00110000
00000000
00000000
00101000
00000000
00000000
00010000
00000000
,
00001000
00000000
00000000
00000000
00010000
00000000
00001000
00000000
00000100
00000000
00000000
00000001
00000000
00000000
00000020
00000000
,
00000000
00000000
00000100
00000000
00000000
00000230
00000000
00000000
00001000
00000000
00000000
00001300
00000000
00000000
00000010
00000000
,
00010000
00000000
00000000
00000000
00001000
00000000
00100000
00000000
00020000
00000000
00000000
10000000
00000000
00000000
01030000
00000000
,
00000000
00000000
00100000
00000000
00000000
10000000
00000000
00000000
11000000
00000000
00000000
00110000
00000000
00000000
00100000
00000000
,
00001000
00000000
00000000
00000000
00010000
00000000
00001000
00000000
00000010
00000000
00000000
00000100
00000000
00000000
00002000
00000000
,
00000000
00000000
00000001
00000000
00000000
00003010
00000000
00000000
00000100
00000000
00000000
00000001
00000000
00000000
00000100
00000000
,
00000010
00000000
00010000
00000000
00000010
00000000
00001000
00000000
00000100
00000000
00000000
00011000
00000000
00000000
00001000
00000000
,
00000000
00000000
00010000
00000000
00000000
00100000
00000000
00000000
01100000
00000000
00000000
00010000
00000000
00000000
10000000
00000000
,
01000000
00000000
00000000
00000000
00100000
00000000
00010000
00000000
01000000
00000000
00000000
01001000
00000000
00000000
00011000
00000000
,
00000000
00000000
00010000
00000000
00000000
00001000
00000000
00000000
00000010
00000000
00000000
00000001
00000000
00000000
00000100
00000000
,
00002020
00000000
00000000
00003030
;

//---------------dance-double - M.Emirzian----------------
#NOTES:
     dance-double:
     M.Emirzian:
     Challenge:
     10:
     0.470,0.482,0.426,0.353,0.304,269.000,47.000,39.000,0.000,71.000,0.000,0.470,0.482,0.426,0.353,0.304,269.000,47.000,39.000,0.000,71.000,0.000:
00000000
00000000
00000000
00000000
,
00000000
00000000
00000000
00000000
,
01100000
00000000
00000000
00000000
10000000
00000000
01000000
00000000
00100000
00000000
00000000
00110000
00000000
00000000
00101000
00000000
,
00000000
00000000
00001000
00000000
00000000
01000000
00000000
00000000
00001000
00000000
00000000
00010000
00000000
00000000
00000010
00000000
,
00001010
00000000
00000000
00000000
00000100
00000000
00000010
00000000
00000001
00000000
00000000
00000101
00000000
00000000
00001010
00000000
,
00000000
00000000
00000001
00000000
00000000
00000100
00000000
00000000
00001000
00000000
00000000
01000000
00000000
00000000
00100000
00000000
,
10000000
00000000
00000000
00000000
01000000
00000000
00100000
00000000
00010000
00000000
00000000
00100000
00000000
00000000
00011000
00000000
,
00000000
00000000
00000100
00000000
00000000
00000001
00000000
00000000
00001000
00000000
00000000
00000010
00000000
00000000
00000100
00000000
,
00001001
00000000
00000000
00000000
00000010
00000000
00000100
00000000
00001000
00000000
00000000
00000002
00000000
00000000
00000200
00000000
,
00000000
00000000
00000010
00000000
00000000
00010000
00000000
00000000
00001000
00000000
00000000
00010000
00000000
00000000
00000313
00000000
,
00000000
00000000
00000000
00000000
00010000
00000000
00000100
00000000
00001000
00000000
00000000
00000020
00000000
00000000
00000200
00000000
,
00000000
00000000
00010000
00000000
00000000
00001000
00000000
00000000
01000000
00000000
00000000
00001000
00000000
00000000
00010330
00000000
,
00000000
00000000
00000000
00000000
00001000
00000000
00010000
00000000
00100000
00000000
00000000
02000000
00000000
00000000
00002000
00000000
,
00000000
00000000
00100000
00000000
00000000
00010000
00000000
00000000
10000000
00000000
00000000
00010000
00000000
00000000
03103000
00000000
,
00000000
00000000
00000000
00000000
10000000
00000000
01000000
00000000
00010000
00000000
00000000
00011000
00000000
00000000
01000100
00000000
,
00000000
00000000
00011000
00000000
00000000
00100010
00000000
00000000
00010000
00000000
00001000
00010000
00000000
00000100
00000000
00001000
,
00000100
00000000
00001000
00000001
00000100
00000010
00010000
00001000
,
00000100
00000000
00001000
00000000
00000000
00011000
00000000
00000000
00110000
00000000
00000000
10100000
00000000
00000000
11000000
00000000
,
00100000
00000000
00000000
00000000
00010000
00000000
10000000
00000000
01000000
00000000
00000000
00010000
00000000
00000000
01000000
00000000
,
00000000
00000000
00010000
00000000
00000000
00000100
00000000
00000000
00000010
00000000
00000000
00000001
00000000
00001000
00000010
00000000
,
00000100
00000000
00000000
00000000
00000001
00000000
00000100
00000000
00000010
00000000
00000000
00002000
00000000
00000000
00000200
00000000
,
00000000
00000000
00000010
00000000
00000000
00000001
00000000
00000000
00010000
00000000
00000000
00003310
00000000
00000000
00000000
00000000
,
00001000
00000000
00000000
00000000
00000100
00000000
00010000
00000000
00011000
00000000
00000000
01100000
00000000
00000000
01001000
00000000
,
00000000
00000000
01000000
00000000
00000000
00010000
00000000
00000000
10010000
00000000
00000000
00000000
00000000
00000000
02000000
00000000
,
00200000
00000000
10000000
00010000
10000000
00000000
00001000
00010000
,
03301000
00000000
00000000
02002000
00000000
00000000
00000000
00000000
,
00200000
00000000
00000000
00000020
00000000
00000000
13303030
00000000
00000000
00000000
00000000
00000000
00000000
00000000
00000000
00000000
,
00011000
00000000
00000000
00020000
00002000
00000000
00100000
00000020
,
00233000
00000000
00000100
02000000
00300230
00000000
00010000
00001000
,
03010300
00000000
00000000
00002200
00000000
00000000
00000000
00000000
,
00020000
00000000
00000000
00000020
00000000
00000000
00133330
00000000
00000000
00000000
00000000
00000000
00000000
00000000
00000000
00000000
,
02100210
00000000
00000000
00000000
00010000
00001000
03010300
00000000
,
00000000
00000000
00000000
00000000
02002000
00000000
00000000
00000000
10000000
00000000
00000000
00100000
00000000
00000000
00010000
00000000
,
03103000
00000000
00000000
00110000
00000000
00000000
00000000
00000000
,
01110000
00000000
00000000
00001000
00000000
00000000
00001110
00000000
00000000
00000000
00000000
00000000
00001001
00000000
00000000
00000000
,
00000110
00000000
00000000
00010100
00000000
00000000
01001000
00000000
00010000
00000000
00000000
00000000
00001000
00000000
01000000
00000000
,
00000200
00000000
00000000
00000000
00020000
00000000
00000000
00000000
00100000
00000000
00000000
00000010
00000000
00000000
00001000
00000000
,
00030301
00000000
00000000
00001000
00000000
00000000
00000000
00000000
,
01110000
00000000
00000000
00111000
00000000
00000000
00011100
00000000
00000000
00000000
00000000
00000000
00000000
00000000
00000000
00020000
,
00002000
00000000
00100010
00000000
01000000
00100000
00000100
00033010
,
00000000
00000000
00000000
00000000
00000000
00000000
00000000
00000000
10000000
00000000
00000000
01000000
00000000
00000000
00010000
00000000
,
00000000
00000000
00000100
00000000
00000000
00000001
00000000
00000000
00000010
00000000
00000000
00010000
00000000
00000000
00100000
00000000
,
10000000
00000000
00000000
00000000
00001000
00000000
00010000
00000000
00000010
00000000
00000000
00000001
00000000
00000000
00000100
00000000
,
00000000
00000000
00010000
00000000
00000000
01000000
00000000
00000000
10000000
00000000
00100000
01000000
00000000
00010000
00000000
10000000
,
01000000
00000000
00000000
00000000
00100000
00000000
00010000
00000000
00101000
00000000
00000000
00011000
00000000
00000000
00010100
00000000
,
00000000
00000000
00010000
00000000
00000000
00000100
00000000
00000000
00001000
00000000
00000000
00000010
00000000
00000000
00000100
00000000
,
00000001
00000000
00000000
00000000
00001000
00000000
00000100
00000000
00000010
00000000
00000000
00001001
00000000
00000000
00000110
00000000
,
00000000
00000000
00010000
00000000
00000000
00001000
00000000
00000000
01000000
00000000
00000000
00010000
00000000
00000000
00100000
00000000
,
01100000
00000000
00000000
00000000
10000000
00000000
00100000
00000000
01000000
00000000
00000000
00020000
00000000
00000000
20000000
00000000
,
00000000
00000000
01000000
00000000
00000000
00100000
00030000
00000000
00002000
00000000
00000000
01000000
00000000
00000000
30103000
00000000
,
00000000
00000000
00000000
00000000
01000000
00000000
00100000
00000000
00001000
00000000
00000000
00010000
00000000
00000000
00001000
00000000
,
00000000
00000000
01000000
00000000
00000000
00000100
00000000
00000000
00010000
00000000
00000000
00001000
00000000
00010000
00000100
00000000
,
00001100
00000000
00000000
00000000
00000001
00000000
00000100
00000000
00000010
00000000
00000000
00020000
00000000
00000000
00002000
00000000
,
00000000
00000000
01000000
00000000
00000000
00100000
00000000
00000000
10000000
00000000
00000000
00133000
00000000
00000000
00000000
00000000
,
00011000
00000000
00000000
00000000
01000000
00000000
00100000
00000000
10000000
00000000
00000000
01100000
00000000
00000000
00110000
00000000
,
00000000
02000000
00000000
00000000
00200000
00000000
00000000
00000000
,
03311010
00000000
00000000
00000000
;

//---------------dance-single - M.Emirzian----------------
#NOTES:
     dance-single:
     M.Emirzian:
     Easy:
     3:
     0.145,0.154,0.027,0.018,0.000,107.000,3.000,2.000,0.000,0.000,0.000,0.145,0.154,0.027,0.018,0.000,107.000,3.000,2.000,0.000,0.000,0.000:
0000
0000
0000
0000
,
0000
0000
0000
0000
,
0000
0000
0000
0000
,
0000
0000
0000
0000
,
0001
0000
1000
0000
,
0100
0000
0001
0000
,
0010
0000
1000
0000
,
0001
0000
0100
0000
,
0001
0000
0010
0000
,
1000
0000
0100
0000
,
0001
0000
1000
0000
,
0100
0000
0010
0000
,
1000
0000
0100
0000
,
0001
0000
0010
0000
,
1000
0000
0001
0000
,
0100
0000
1000
0000
,
0010
0000
0001
0000
,
0100
0000
0010
0000
,
1000
1000
0000
0000
,
0001
0001
0000
0000
,
0100
0100
0000
0000
,
0100
0100
0000
0000
,
0010
0000
0010
0000
0000
0000
0000
1100
,
0000
0000
0010
0000
,
1000
0001
0000
0100
,
0100
0000
1000
0001
,
0000
1000
1000
0000
,
0001
0100
0000
0010
,
0010
0000
1000
0001
,
0000
0100
0100
0000
,
0010
1000
0000
0001
,
0001
0000
1000
0000
,
0001
0000
0100
0000
,
1000
0000
0100
0000
,
0010
0000
1000
0000
,
0001
0000
1000
0000
,
0100
0000
0001
0000
,
1000
0000
0001
0000
,
1000
0000
0000
1000
,
0001
0100
1000
0000
,
0000
0000
0100
0000
,
0000
0000
1000
0000
,
0000
0000
0010
0000
,
0000
0000
0001
0000
,
1000
0000
0001
0000
,
0100
0000
0001
0000
,
0100
0000
0000
0000
0001
0000
0000
1001
,
0000
0000
0100
0000
,
0010
0000
1000
0000
,
0100
0000
0001
0000
,
0010
0000
1000
0000
,
0100
0000
0001
0000
,
0010
0000
1000
0000
,
0100
0000
0001
0000
,
1000
0000
0001
0000
,
0100
0000
1000
0000
,
2002
0000
0000
3003
;

//---------------dance-single - M.Emirzian----------------
#NOTES:
     dance-single:
     M.Emirzian:
     Medium:
     5:
     0.273,0.257,0.245,0.009,0.000,183.000,27.000,1.000,0.000,0.000,0.000,0.273,0.257,0.245,0.009,0.000,183.000,27.000,1.000,0.000,0.000,0.000:
0000
0000
0000
0000
,
0000
0000
0000
0000
,
0000
0000
0000
0000
,
0000
0000
0000
0000
,
1000
0000
0000
0000
0001
0000
0000
0100
,
0000
1000
0001
1000
,
1000
0000
0000
0000
0010
0000
0000
0101
,
0000
1000
1000
0001
,
0001
0000
1000
0000
0100
0000
0000
1001
,
0000
1000
0100
0100
,
0010
0000
0010
0000
0001
0000
0000
1100
,
0000
0010
0010
0001
,
0001
0000
1000
0000
0100
0000
0000
0101
,
0000
0010
0010
1000
,
1000
0000
0100
0000
0010
0000
0000
0011
,
0000
1000
1000
0001
,
0001
0000
0100
0000
0010
0000
0000
0011
,
0000
1000
1000
0010
,
0010
0000
0100
0000
0001
0000
0000
1100
,
0000
0001
0001
1000
,
1000
0000
0001
0000
0100
0000
0000
0110
,
0000
0001
0001
0100
,
0100
0000
0010
0000
1000
0000
0000
1100
,
0000
0000
1000
1000
,
0101
0000
1000
0100
0010
0000
0100
0010
,
0001
0000
0000
1100
0000
0000
0000
0000
,
0010
0010
0010
0000
,
0100
0000
0100
0000
0100
0000
0010
1000
,
0001
0000
0100
0001
1000
0000
0100
0010
,
0001
0000
0000
1010
0000
0000
0000
0000
,
0001
0001
0001
0000
,
1100
0000
1010
0001
,
0100
0010
1000
0100
,
0001
1000
0100
0001
,
1000
1000
1000
0000
,
0001
0000
0001
0000
0001
0000
0100
1000
,
0001
0100
0100
0100
,
0010
0001
0000
1000
,
0010
0000
0000
0101
0000
0000
0010
0000
,
1000
0000
0100
0000
0001
1000
0100
0001
,
1000
0000
0000
0000
0010
0000
0000
1001
,
0000
0000
0010
0000
,
1000
0000
0000
0000
0001
0000
0000
1100
,
0000
0000
0001
0001
,
1000
0000
1000
0000
0100
0000
0000
0101
,
0000
0001
0001
1000
,
1000
0000
0100
0000
0001
0000
0000
1001
,
0000
0010
0010
0010
,
0010
0000
1000
0000
1100
0000
0000
1001
,
0000
0100
0100
0010
,
0010
0000
0001
0000
0110
0000
0000
0101
,
0000
0000
1000
0000
0001
0000
1000
0100
,
0001
0000
0010
0000
1010
0000
0000
0011
,
0000
1000
1000
0010
,
0010
0000
0100
0000
1100
0000
0000
1001
,
0000
0000
0010
0000
0001
0000
1000
0001
,
0200
0000
0000
0300
;

//---------------dance-single - M.Emirzian----------------
#NOTES:
     dance-single:
     M.Emirzian:
     Hard:
     7:
     0.462,0.386,0.408,0.217,0.295,288.000,45.000,24.000,0.000,3.000,0.000,0.462,0.386,0.408,0.217,0.295,288.000,45.000,24.000,0.000,3.000,0.000:
0000
0000
0000
0000
,
0000
0000
0000
0000
,
1100
0000
0000
0000
0001
0000
1000
0000
0001
0000
0000
0100
0000
0000
0010
0000
,
0000
0000
1000
0000
0000
0100
0000
0000
0010
0000
0000
0001
0000
0000
0100
0000
,
1000
0000
0000
0000
0001
0000
1000
0000
0001
0000
0000
0100
0000
0000
1000
0000
,
0000
0000
0010
0000
0000
1000
0000
0000
0100
0000
0000
0010
0000
0000
0001
0000
,
1000
0000
0000
0000
0010
0000
0100
0000
0010
0000
0000
1000
0000
0000
1002
0000
,
0000
0000
0010
0000
0000
0010
0003
0000
0200
0000
0000
1000
0000
0000
1300
0000
,
0010
0000
0000
0000
0001
0000
1000
0000
0200
0000
0000
0001
0000
0000
0010
0000
,
0300
0000
1000
0000
0000
0100
0000
0000
0011
0000
0000
1001
0000
0000
0010
0000
,
0100
0000
0000
0000
0001
0000
1000
0000
0001
0000
0000
1000
0000
0000
0200
0000
,
0000
0000
0010
0000
0000
1000
0300
0000
0002
0000
0000
0010
0000
0000
0100
0003
,
0001
0000
0000
0000
0010
0000
1000
0000
0002
0000
0000
0100
0000
0000
1003
0000
,
0000
0000
0001
0000
0000
0100
0000
0000
1100
0000
0000
0101
0000
0000
0100
0000
,
1000
0000
0000
0000
0010
0000
0100
0000
0001
0000
0000
1001
0000
0000
0120
0000
,
0000
0000
0100
0000
0000
1000
0030
0000
0001
0000
1000
0100
0000
0000
1000
0000
,
0100
0000
0001
0000
0100
0000
1000
0000
0010
0000
0000
0011
0000
0000
1001
0000
,
0000
0000
0001
0000
0000
1000
0000
0000
1100
0000
0000
0001
0000
0000
0010
0000
,
0001
0000
0100
0000
0001
0000
0010
0000
0100
0000
0000
1000
0000
0000
0110
0000
,
0000
0000
0001
0000
0000
1000
0000
0000
0100
0000
0000
0010
0000
0100
0010
0000
,
0001
0000
0000
0000
1000
0000
0010
0000
0100
0000
0000
1100
0000
0000
1001
0000
,
0000
1000
0001
0100
0001
0010
1000
0000
,
0101
0000
0000
0000
0010
0000
1000
0000
0100
0000
0000
1001
0000
0000
0110
0000
,
0000
0000
0001
0000
0000
1000
0000
0000
0100
0000
1000
0100
0000
0000
1000
0000
,
0010
0000
0001
1000
0002
0000
1000
2003
,
0200
0000
0000
0000
0000
0000
0010
3300
0000
0000
0000
0000
0000
0000
0000
0000
,
1000
0000
0000
0100
0000
0000
0001
0000
0000
0000
0000
0000
1001
0000
0000
0000
,
1000
0000
0000
0010
0000
0000
0001
0000
0100
0000
0000
0000
0010
0000
2000
0000
,
0100
0000
3001
0200
1000
0000
0310
0002
,
2000
0000
0000
0000
0000
0000
0110
3003
0000
0000
0000
0000
0000
0000
0000
0000
,
1000
0000
0000
0001
0000
0000
0010
0000
0000
0000
0000
0000
1001
0000
0000
0000
,
0220
0000
1331
0000
,
1001
0000
0000
0000
0101
0000
0000
0000
1100
0000
0000
1000
0000
0000
0001
0000
,
1000
0000
0100
1100
0000
0000
1001
0000
,
0100
0000
0000
0110
0000
0000
1010
0000
0000
0000
0000
0000
0002
0000
0000
0000
,
1000
0000
0000
0013
0000
0000
0100
0000
1000
0000
0000
0000
0010
0000
0001
0000
,
0100
0000
0000
0000
1001
0000
0000
0000
1000
0000
0000
0001
0000
0000
0010
0000
,
1001
0000
0010
1100
0000
0000
0001
0000
,
0101
0000
0000
0010
0000
0000
1100
0000
0000
0000
0000
0000
0011
0000
0000
1000
,
0010
0000
0101
0000
0001
1000
0010
1000
,
0100
0000
0000
0000
0010
0000
1000
0000
0001
0000
0000
0010
0000
0000
0100
0000
,
0000
0000
1000
0000
0000
0001
0000
0000
0100
0000
0000
1000
0000
0000
0010
0000
,
0001
0000
0000
0000
0001
0000
0010
0000
0001
0000
0000
0100
0000
0000
0001
0000
,
0000
0000
0100
0000
0000
0010
0000
0000
1000
0000
0000
0010
0000
0000
0001
0000
,
0100
0000
0000
0000
0001
0000
1000
0000
0200
0000
0000
0001
0000
0000
1000
0000
,
0300
0000
0001
0000
0000
0100
0000
0000
1010
0000
0000
0011
0000
0000
1000
0000
,
0001
0000
0000
0000
1000
0000
0001
0000
0100
0000
0000
0001
0000
0000
0200
0000
,
0000
0000
0010
0000
0000
0320
0000
0000
0001
0000
0000
0031
0000
0000
0100
0000
,
1000
0000
0000
0000
0001
0000
0010
0000
2000
0000
0000
0001
0000
0000
3100
0000
,
0000
0000
0010
0000
0000
0001
0000
0000
0101
0000
0000
1010
0000
0000
0010
0000
,
0001
0000
0000
0000
1000
0000
0001
0000
0100
0000
0000
0010
0000
0000
0002
0000
,
0000
0000
1000
0000
0000
0103
0000
0000
0010
0000
0000
1000
0000
0000
0010
0000
,
0100
0000
1000
0000
0100
0000
0001
0000
0010
0000
0000
1001
0000
0000
0001
0000
,
0000
0000
1000
0000
0000
0010
0000
0000
0110
0000
0000
1000
0000
0000
0001
0000
,
0100
0000
0000
0000
0010
0000
1000
0000
0100
0000
0000
0101
0000
0000
1001
0000
,
0000
0000
1000
0000
0000
0001
0000
0000
0100
0000
0000
1000
0000
0000
0010
0000
,
0202
0000
0000
0303
;

//---------------dance-single - M.Emirzian----------------
#NOTES:
     dance-single:
     M.Emirzian:
     Challenge:
     10:
     0.463,0.482,0.426,0.344,0.304,266.000,47.000,38.000,0.000,65.000,0.000,0.463,0.482,0.426,0.344,0.304,266.000,47.000,38.000,0.000,65.000,0.000:
0000
0000
0000
0000
,
0000
0000
0000
0000
,
0110
0000
0000
0000
1000
0000
0100
0000
0010
0000
0000
0011
0000
0000
1010
0000
,
0000
0000
1000
0000
0000
0100
0000
0000
1000
0000
0000
0001
0000
0000
0010
0000
,
1010
0000
0000
0000
0100
0000
0010
0000
0001
0000
0000
0101
0000
0000
1010
0000
,
0000
0000
0001
0000
0000
0100
0000
0000
1000
0000
0000
0100
0000
0000
0010
0000
,
1000
0000
0000
0000
0100
0000
0010
0000
0001
0000
0000
0010
0000
0000
1001
0000
,
0000
0000
0100
0000
0000
0001
0000
0000
1000
0000
0000
0010
0000
0000
0100
0000
,
1001
0000
0000
0000
0010
0000
0100
0000
1000
0000
0000
0002
0000
0000
0200
0000
,
0000
0000
0010
0000
0000
1000
0000
0000
0010
0000
0000
1000
0000
0000
0313
0000
,
0000
0000
0000
0000
1000
0000
0100
0000
0010
0000
0000
0020
0000
0000
0200
0000
,
0000
0000
1000
0000
0000
0001
0000
0000
1000
0000
0000
0001
0000
0000
1330
0000
,
0000
0000
0000
0000
0001
0000
1000
0000
0010
0000
0000
2000
0000
0000
0002
0000
,
0000
0000
0010
0000
0000
0100
0000
0000
0010
0000
0000
0100
0000
0000
3013
0000
,
0000
0000
0000
0000
0010
0000
1000
0000
0100
0000
0000
0101
0000
0000
1010
0000
,
0000
0000
0101
0000
0000
1010
0000
0000
0100
0000
0001
0100
0000
0010
0000
0001
,
0010
0000
0001
1000
0010
1000
0100
0001
,
0010
0000
0001
0000
0000
0101
0000
0000
0110
0000
0000
1010
0000
0000
1001
0000
,
0010
0000
0000
0000
0100
0000
1000
0000
0001
0000
0000
0100
0000
0000
0001
0000
,
0000
0000
0100
0000
0000
0010
0000
0000
1000
0000
0000
0001
0000
0100
1000
0000
,
0010
0000
0000
0000
0001
0000
0010
0000
1000
0000
0000
0200
0000
0000
0020
0000
,
0000
0000
1000
0000
0000
0001
0000
0000
1000
0000
0000
0331
0000
0000
0000
0000
,
0100
0000
0000
0000
0010
0000
1000
0000
1100
0000
0000
0011
0000
0000
0101
0000
,
0000
0000
0001
0000
0000
1000
0000
0000
1010
0000
0000
0000
0000
0000
0002
0000
,
0020
0000
0100
1000
0100
0000
0100
1000
,
0133
0000
0000
0202
0000
0000
0000
0000
,
0020
0000
0000
2000
0000
0000
3333
0000
0000
0000
0000
0000
0000
0000
0000
0000
,
1100
0000
0000
2000
0200
0000
0010
2000
,
3320
0000
0001
0002
3230
0000
1000
0010
,
1303
0000
0000
0220
0000
0000
0000
0000
,
2000
0000
0000
0002
0000
0000
3333
0000
0000
0000
0000
0000
0000
0000
0000
0000
,
1212
0000
0000
0000
1000
0010
1303
0000
,
0000
0000
0000
0000
0022
0000
0000
0000
0100
0000
0000
1000
0000
0000
0100
0000
,
1033
0000
0000
1100
0000
0000
0000
0000
,
1101
0000
0000
0010
0000
0000
1110
0000
0000
0000
0000
0000
0011
0000
0000
0000
,
1100
0000
0000
0110
0000
0000
1001
0000
0010
0000
0000
0000
1000
0000
0001
0000
,
0200
0000
0000
0000
0020
0000
0000
0000
1000
0000
0000
0001
0000
0000
1000
0000
,
0331
0000
0000
1000
0000
0000
0000
0000
,
1011
0000
0000
1110
0000
0000
0111
0000
0000
0000
0000
0000
0000
0000
0000
0020
,
0200
0000
1001
0000
0001
1000
0001
1330
,
0000
0000
0000
0000
0000
0000
0000
0000
0100
0000
0000
0001
0000
0000
0010
0000
,
0000
0000
0001
0000
0000
1000
0000
0000
0100
0000
0000
0010
0000
0000
1000
0000
,
0100
0000
0000
0000
0100
0000
0010
0000
0100
0000
0000
1000
0000
0000
0001
0000
,
0000
0000
0010
0000
0000
0001
0000
0000
0100
0000
1000
0001
0000
0010
0000
0100
,
0001
0000
0000
0000
1000
0000
0010
0000
1100
0000
0000
0110
0000
0000
0011
0000
,
0000
0000
0010
0000
0000
0001
0000
0000
0100
0000
0000
1000
0000
0000
0001
0000
,
1000
0000
0000
0000
0100
0000
0001
0000
1000
0000
0000
0110
0000
0000
1001
0000
,
0000
0000
0010
0000
0000
0100
0000
0000
0001
0000
0000
0010
0000
0000
1000
0000
,
1001
0000
0000
0000
0100
0000
1000
0000
0001
0000
0000
0020
0000
0000
0200
0000
,
0000
0000
0001
0000
0000
1000
0030
0000
0002
0000
0000
1000
0000
0000
0313
0000
,
0000
0000
0000
0000
1000
0000
0010
0000
0001
0000
0000
0010
0000
0000
0001
0000
,
0000
0000
1000
0000
0000
0001
0000
0000
0010
0000
0000
0001
0000
0010
0100
0000
,
0101
0000
0000
0000
0010
0000
0100
0000
1000
0000
0000
0020
0000
0000
0002
0000
,
0000
0000
1000
0000
0000
0100
0000
0000
1000
0000
0000
0133
0000
0000
0000
0000
,
0011
0000
0000
0000
1000
0000
0100
0000
1000
0000
0000
0110
0000
0000
0101
0000
,
0000
0020
0000
0000
0200
0000
0000
0000
,
1331
0000
0000
0000
;

//---------------dance-single - Blank----------------
#NOTES:
     dance-single:
     Blank:
     Beginner:
     1:
     0.093,0.102,0.018,0.018,0.000,68.000,2.000,2.000,0.000,0.000,0.000,0.093,0.102,0.018,0.018,0.000,68.000,2.000,2.000,0.000,0.000,0.000:
0000
0000
0000
0000
,
0000
0000
0000
0000
,
0000
0000
0000
0000
,
0000
0000
0000
0000
,
0001
0000
0000
0000
,
1000
0000
0100
0000
,
0010
0000
0000
0000
0000
0000
0000
0100
,
0000
0000
0000
0000
,
1000
0000
0010
0000
,
0001
0000
0000
0000
,
1000
0000
0100
0000
,
1000
0000
0000
0000
,
0010
0000
0001
0000
,
0010
0000
0000
0000
,
0100
0000
0000
0000
,
0010
0000
0100
0000
,
1001
0000
0000
0000
,
0010
0000
0100
0000
,
1000
0000
0000
0000
,
0001
0000
0010
0000
,
0001
0000
0000
0000
,
0100
0000
1000
0000
,
0100
0000
0000
0000
,
0001
0000
0001
0000
,
0001
0000
0000
0000
,
1000
0000
0000
0000
,
0100
0000
0000
0000
,
0010
0000
0000
0000
,
0100
0000
0000
0000
,
1000
0000
0000
0000
,
0100
0000
0000
0000
,
0010
0000
0000
0000
,
0000
0001
0000
0000
,
0000
1000
0000
0000
,
0000
0001
0000
0000
,
0000
0100
0000
0000
,
0010
0000
0010
0000
,
0010
0000
0000
0000
,
0100
0000
0100
0000
,
0100
0000
0000
0000
,
0100
0000
0000
0000
,
0000
0000
0000
0000
,
1000
0000
0100
0000
,
0010
0000
0000
0000
,
0001
0000
0000
0000
,
0000
0000
0000
0000
,
0001
0000
0010
0000
,
0100
0000
0000
0000
,
1000
0100
1000
0000
,
0000
0000
0000
0000
,
0001
0100
0001
0000
,
0000
0000
0000
0000
,
0010
0000
0100
0000
,
0010
0000
0000
0000
,
1000
0000
0100
0000
,
0010
0000
0000
0000
,
2002
3003
0000
0000
;

//---------------dance-single - N. Colley----------------
#NOTES:
     dance-single:
     N. Colley:
     Edit:
     9:
     0.460,0.489,0.326,0.208,0.181,295.000,36.000,23.000,22.000,13.000,2.000: // measure 1
0000
0000
0000
0000
,  // measure 2
0000
0000
0000
0000
,  // measure 3
0000
0000
0000
0000
,  // measure 4
0000
0000
0000
0000
,  // measure 5
0100
0000
0000
0000
0110
0000
0000
0000
0100
0000
0000
0001
0000
0000
0010
0000
,  // measure 6
0000
0000
0100
0000
0000
0010
0000
0000
0001
0000
0000
0100
0000
0000
0010
0000
,  // measure 7
1000
0000
0000
0000
0001
0000
0000
0000
0101
0000
0000
1100
0000
0000
2002
0000
,  // measure 8
0000
0000
3003
M00M
,  // measure 9
0010
0100
0001
0010
0001
0100
0010
1000
,  // measure 10
0100
1000
0010
0100
0001
0010
0001
0000
,  // measure 11
1000
0100
1000
0010
0100
0010
1000
0100
,  // measure 12
1000
0001
0010
0100
0010
0001
0100
0000
,  // measure 13
0010
1000
0001
0010
0001
1000
0010
1000
,  // measure 14
0001
0100
0010
0001
1000
0100
0001
0000
,  // measure 15
1000
0000
0000
0000
0001
0000
0000
0000
1100
0000
0000
0011
0000
0000
0102
0000
,  // measure 16
0040
0003
0000
0000
0000
0000
0030
0000
,  // measure 17
0100
0000
1000
0000
0010
0000
1000
0000
0100
0000
0010
0000
0001
0000
0100
0001
,  // measure 18
0000
0001
0010
0000
0100
0000
0010
0000
0001
0000
0100
0000
0110
0000
0010
0000
,  // measure 19
0100
0000
0001
0000
0010
0000
0100
0000
0010
0000
0001
0000
0100
0000
0010
0100
,  // measure 20
0000
0100
0010
0000
1000
0000
0100
0000
0010
0000
0100
0000
0110
0000
0100
0000
,  // measure 21
1000
0000
0010
0000
0100
0000
0001
0000
0010
0000
0100
0000
0010
0000
0001
0100
,  // measure 22
0000
0100
0010
0000
1000
0000
0001
0000
0010
0000
0100
0000
0110
0000
0100
0000
,  // measure 23
1000
0000
0010
0000
0100
0000
0001
0000
0101
0000
0000
0011
0000
0000
2002
0000
,  // measure 24
0000
0000
3003
M00M
,  // measure 25
0200
0002
1000
0310
,  // measure 26
2000
0000
0000
0010
3003
0000
M0MM
0000
,  // measure 27
0100
0000
0000
0001
0000
0000
0010
0000
0000
0000
0000
0000
0100
0000
0000
0000
,  // measure 28
0012
0000
0000
0010
0000
0000
0010
0000
0103
0000
0000
0000
0101
0000
0000
0000
,  // measure 29
0002
0000
2000
0000
0010
3000
0200
0000
,  // measure 30
0010
0000
0000
1000
0303
0000
MM0M
0000
,  // measure 31
0010
0000
0000
0010
0000
0000
0100
0000
0000
0000
0000
0000
0001
0000
0000
0000
,  // measure 32
0011
0000
00MM
0000
1000
0100
1000
0100
,  // measure 33
0020
0200
1000
0301
,  // measure 34
0002
0000
0000
1000
0033
0000
M0MM
0000
,  // measure 35
0100
0000
0000
1000
0000
0000
0010
0000
0000
0000
0000
0000
0100
0000
0000
0000
,  // measure 36
2010
0000
0000
0010
0000
0000
0010
0000
3100
0000
0000
0000
1100
0000
0000
0000
,  // measure 37
2001
0000
0200
0000
0010
0000
0001
0300
,  // measure 38
0002
0000
0000
0010
3003
0000
M0MM
0000
,  // measure 39
0100
0000
0000
0100
0000
0000
0001
0000
0000
0000
0000
0000
0010
0000
0000
0000
,  // measure 40
1001
0000
0111
0000
1010
1100
0011
0101
,  // measure 41
1001
0000
0000
0000
0100
0000
0000
0000
0010
0000
0000
0100
0000
0000
1000
0000
,  // measure 42
0000
0000
0100
0000
0000
0010
0000
0000
0001
0000
0000
0100
0000
0000
0001
0000
,  // measure 43
0010
0000
0000
0000
0100
0000
0000
0000
1000
0000
0000
0010
0000
0000
0100
0000
,  // measure 44
0000
0000
0010
0000
0000
1000
0000
0000
0100
0000
0000
0010
0000
0100
0000
1000
,  // measure 45
0100
0000
0010
0000
0001
0000
0100
0000
0010
0000
1000
0100
0000
1000
0100
0000
,  // measure 46
0010
0001
0100
1000
0100
0002
0010
0013
,  // measure 47
0100
0000
1000
0000
0010
0000
1000
0000
1100
0000
0000
0011
0000
0000
2MM2
0000
,  // measure 48
0000
0000
3003
M00M
,  // measure 49
1001
0000
0001
0000
1000
0000
0100
0000
0001
0000
0100
0000
1000
0000
0010
0100
,  // measure 50
0000
0100
0001
0000
0010
0000
0100
0000
1000
0000
0010
0000
0110
0000
0100
0000
,  // measure 51
0001
0000
0010
0000
1000
0000
0010
0000
0001
0000
0100
0000
0010
0000
1000
0100
,  // measure 52
0000
0100
1000
0000
0010
0000
0100
0000
0001
0000
0010
0000
0110
0000
0100
0000
,  // measure 53
1000
0000
0010
0000
1000
0000
0100
0000
0010
0000
0001
0000
0100
0000
0010
0100
,  // measure 54
0000
0100
0010
0000
1000
0000
0100
0000
0001
0000
0100
0000
0110
0000
0100
0000
,  // measure 55
1000
0000
0010
0000
0100
0000
0001
0000
0011
0000
0000
0110
0000
0000
2100
0000
,  // measure 56
0000
0000
0001
0000
0000
0010
0000
0000
3001
0000
0000
0100
0000
0010
0000
0100
,  // measure 57
0004
0000
0000
0003
;
