#TITLE:Got to Have You;
#SUBTITLE:;
#ARTIST:Nightfly;
#TITLETRANSLIT:;
#SUBTITLETRANSLIT:;
#ARTISTTRANSLIT:;
#GENRE:;
#CREDIT:;
#BANNER:;
#BACKGROUND:;
#LYRICSPATH:;
#CDTITLE:;
#MUSIC:Got To Have You.ogg;
#OFFSET:0.000;
#SAMPLESTART:30.720;
#SAMPLELENGTH:11.860;
#SELECTABLE:YES;
#BPMS:0.000=125.000;
#STOPS:;
#BGCHANGES:0.000=Got To Have You.MPG=1.000=0=0=1===CrossFade==,;
#KEYSOUNDS:;

//---------------dance-single - D. D'Amato----------------
#NOTES:
     dance-single:
     D. D'Amato:
     Challenge:
     9:
     0.569,0.535,0.196,0.020,0.407,384.000,20.000,2.000,18.000,0.000,0.000:
0000
0000
0000
0000
,
0000
0000
0000
0000
,
0000
0000
0000
0000
,
0000
0000
0000
0000
,
2002
0000
0000
3003
,
1000
0000
0001
0000
0010
0000
0000
0000
0100
1000
0000
0000
0001
0000
0000
0000
,
0100
0000
0010
0000
1000
0000
0000
0000
0100
0010
0000
0000
0001
0000
0100
0000
,
0001
0000
1000
0000
0010
0000
0000
0000
0100
0001
0000
0000
1000
0000
0000
0000
,
0100
0000
0010
0000
0001
0000
0000
0000
0100
0010
0000
0000
1000
0000
0100
0000
,
1000
0000
0001
0000
0100
0000
0000
0000
0010
1000
0000
0000
0001
0000
0000
0000
,
0010
0000
0100
0000
1000
0000
0000
0000
0010
0100
0000
0000
0001
0000
0010
0000
,
0001
0000
1000
0000
0100
0000
0010
0001
0000
0001
0100
0000
0010
1000
0000
1000
,
0100
0010
0100
1000
0001
0000
0100
0000
0010
0000
0100
0000
0001
0000
1010
0000
,
0001
0100
0010
1001
0100
0010
0001
M000
,
0100
0010
0100
0001
1000
0000
0100
0000
0010
0000
0100
0000
1000
0000
0011
0000
,
1000
0100
0010
1001
0100
0010
1000
000M
,
0010
0100
0010
1000
0001
0000
0010
0000
0100
0000
0010
0000
0001
0000
1100
0000
,
0001
0010
0100
1001
0010
0100
0001
M000
,
0010
0100
0010
0001
1000
0000
0010
0000
0100
0000
0010
0000
1000
0000
0101
0000
,
1000
0000
0010
0000
0100
0000
0010
1000
0000
1000
0100
0000
0010
0001
0000
0001
,
0100
0000
0000
0100
0001
0000
0000
0001
1000
0100
1000
0000
0001
0000
0100
0000
,
0010
0000
0000
0010
1000
0000
0000
1000
0001
0010
0001
0000
1000
0000
0100
0000
,
0010
0000
0000
0010
0001
0000
0000
0001
1000
0010
1000
0000
0001
0000
0010
0000
,
0100
0000
0010
0000
0001
0010
0100
0000
1000
0000
0010
0000
1000
0010
0100
0000
,
0010
0000
0000
0010
1000
0000
0000
1000
0001
0010
0001
0000
1000
0000
0010
0000
,
0100
0000
0000
0100
0001
0000
0000
0001
1000
0100
1000
0000
0001
0000
0010
0000
,
0100
0000
0000
0100
1000
0000
0000
1000
0001
0100
0001
0000
1000
0000
0100
0000
,
0010
0000
0100
0000
1000
0100
0010
0001
0000
0001
0100
0000
0010
1000
0000
1000
,
0001
1000
0001
0100
0010
0000
M000
0000
00M0
0000
0M00
0000
000M
0000
0110
0000
,
M000
00M0
0M00
1001
00M0
0M00
000M
0000
,
1000
0001
1000
0010
0100
0000
0001
0000
0010
0000
0M00
0000
1000
0000
0110
0000
,
0001
00M0
0100
1001
0010
0M00
1000
0000
,
0001
1000
0001
0100
0010
0000
1000
0000
0010
0000
0100
0000
0001
0000
0110
0000
,
1000
0010
0100
1001
0010
0100
0001
0000
,
1000
0001
1000
0010
0100
0000
0001
0000
0010
0000
0100
0000
1000
0000
0110
0000
,
0001
0010
0100
1001
0010
0100
1000
0010
,
1000
0001
1000
0100
0010
0000
0001
0000
0010
0000
0100
0000
1000
0000
0110
0000
,
0001
0010
0100
1001
0010
0100
0001
0010
,
0001
1000
0001
0010
0100
0000
1000
0000
0010
0000
0100
0000
0001
0000
0110
0000
,
1000
0010
0100
1001
0010
0100
1000
0010
,
0100
0000
0001
0000
0100
0000
0010
0100
0010
0000
0100
0000
0001
0000
0000
0001
,
1000
0000
0000
1000
0010
0000
0000
0010
0100
0000
0000
0100
0001
0000
0010
0000
,
0100
0000
1000
0000
0100
0000
0010
0100
0010
0000
0100
0000
1000
0000
0000
1000
,
0001
0000
0000
0001
0100
0000
0000
0100
0010
0000
0000
0010
1000
0000
0100
0000
,
0010
0000
0001
0000
0010
0000
0100
0010
0100
0000
0010
0000
0001
0000
0000
0001
,
1000
0000
0000
1000
0100
0000
0000
0100
0010
0000
0000
0010
0001
0000
0100
0000
,
0010
0000
1000
0000
0010
0000
0100
0010
0100
0000
0010
0000
1000
0000
0000
1000
,
0001
0000
0000
0001
0010
0000
0000
0010
0100
0000
0000
0100
1000
0000
0010
0000
,
0100
0000
0010
0000
1000
0000
0000
0000
0001
0000
0000
0100
0001
0000
0010
0000
,
0100
0000
0010
0000
0001
0000
0000
0000
1000
0000
0000
0010
1000
0000
0100
0000
,
0010
0000
0100
0000
1000
0000
0000
0000
0001
0000
0000
0010
0001
0000
0100
0000
,
0010
0000
0100
0000
0001
0000
0000
0000
1000
0000
0000
0100
1000
0000
0010
0000
,
M00M
0000
0000
0000
;

//---------------dance-single - D. D'Amato----------------
#NOTES:
     dance-single:
     D. D'Amato:
     Hard:
     7:
     0.415,0.407,0.392,0.127,0.000,243.000,40.000,13.000,0.000,0.000,0.000: // measure 1
0000
0000
0000
0000
,  // measure 2
0000
0000
0000
0000
,  // measure 3
0000
0000
0000
0000
,  // measure 4
0000
0000
0000
0000
,  // measure 5
2002
0000
0000
3003
,  // measure 6
0100
0000
0010
0000
0100
1000
0010
0000
,  // measure 7
0100
0000
0010
0000
0100
0001
0010
0100
,  // measure 8
0010
0000
0100
0000
0010
0001
0100
0000
,  // measure 9
0010
0000
0100
0000
0010
1000
0100
0010
,  // measure 10
0100
0000
0010
0001
0100
0000
0010
1000
,  // measure 11
0100
0000
0010
0001
0100
0010
1000
0100
,  // measure 12
0010
0000
0100
1000
0020
0000
0130
0000
,  // measure 13
0110
0100
0001
1000
0001
0000
0000
0110
,  // measure 14
0001
0000
0000
1010
0001
0000
1000
0000
,  // measure 15
0110
0010
0001
1000
0001
0000
0000
0110
,  // measure 16
0001
0000
0000
1100
0001
0000
1000
0000
,  // measure 17
0110
0010
1000
0001
1000
0000
0000
0110
,  // measure 18
1000
0000
0000
0101
1000
0000
0001
0000
,  // measure 19
0110
0100
1000
0001
1000
0000
0000
0110
,  // measure 20
1000
0000
0000
0011
2000
0000
3001
0000
,  // measure 21
1001
0000
0100
0000
0010
0001
0100
0001
,  // measure 22
1000
1010
0100
0010
,  // measure 23
1001
0000
0100
0000
0010
1000
0100
1000
,  // measure 24
0001
0011
0100
0010
,  // measure 25
1001
0000
0010
0000
0100
1000
0010
1000
,  // measure 26
0001
0101
0010
0100
,  // measure 27
1001
0000
0010
0000
0100
0001
0010
0001
,  // measure 28
1000
1100
0020
0130
,  // measure 29
0110
0010
0100
0000
0000
0000
0000
0110
,  // measure 30
0000
0000
0000
1001
0000
0000
0000
0000
,  // measure 31
0110
0100
0010
1000
0001
0000
0010
0110
,  // measure 32
0100
0000
1000
1001
0001
0000
0110
0000
,  // measure 33
1001
0001
0100
0010
0100
0000
0000
1001
,  // measure 34
0010
0000
0000
1010
0100
0000
0010
0000
,  // measure 35
1001
1000
0100
0010
0100
0000
0000
1001
,  // measure 36
0010
0000
0000
0011
0100
0000
0010
0000
,  // measure 37
1001
1000
0010
0100
0010
0000
0000
1001
,  // measure 38
0100
0000
0000
0101
0010
0000
0100
0000
,  // measure 39
1001
0001
0010
0100
0010
0000
0000
1001
,  // measure 40
0100
0000
0000
1100
0010
0000
0100
0000
,  // measure 41
0010
0001
1000
0001
0010
0100
0010
0000
,  // measure 42
0002
0103
2000
3100
,  // measure 43
0010
1000
0001
1000
0010
0100
0010
0000
,  // measure 44
2000
3010
0002
0013
,  // measure 45
0100
1000
0001
1000
0100
0010
0100
0000
,  // measure 46
2000
3010
0002
0013
,  // measure 47
0100
0001
1000
0001
0100
0010
0100
0000
,  // measure 48
0002
0103
2000
3100
,  // measure 49
0010
0000
0001
0000
0100
0010
1000
0000
,  // measure 50
0100
0000
0010
0000
0100
0010
0001
0000
,  // measure 51
0100
0000
0010
0000
0100
0010
1000
0000
,  // measure 52
0100
0010
0001
0000
0100
0000
0010
1000
;

//---------------dance-single - D. D'Amato----------------
#NOTES:
     dance-single:
     D. D'Amato:
     Medium:
     5:
     0.291,0.305,0.275,0.049,0.000,175.000,28.000,5.000,0.000,0.000,0.000:
0000
0000
0000
0000
,
0000
0000
0000
0000
,
0000
0000
0000
0000
,
0000
0000
0000
0000
,
2002
0000
0000
3003
,
0001
0010
0100
0010
,
0001
0000
0010
0000
0100
1000
0001
0000
,
1000
0010
0100
0010
,
1000
0000
0010
0000
0100
0001
1000
0000
,
0001
0000
1000
0000
0100
0000
1000
0010
,
0100
0000
0001
0010
0100
0000
1000
0100
,
0010
0002
0203
0310
,
0010
1000
0100
0000
0000
0000
0000
1010
,
0000
0000
0000
0101
0000
0000
0010
0000
,
0100
0001
0010
0000
0000
0000
0000
1100
,
0000
0000
0000
0011
0000
0000
0100
0000
,
0010
0001
0100
0000
0000
0000
0000
0011
,
0000
0000
0000
1100
0000
0000
0010
0000
,
0100
1000
0010
0000
0000
0000
0000
0101
,
0000
0000
0000
1010
0000
0000
0100
0000
,
1001
0100
0010
0000
,
0101
1000
1010
0001
,
0101
0010
1000
0000
,
1001
0010
0100
0000
,
0011
1000
1100
0001
,
0011
0100
1000
0000
,
1001
0010
0100
0000
,
0011
1100
0020
0130
,
0010
0001
0100
0000
0000
0000
0000
0010
,
0000
0000
0000
0100
0000
0000
0010
0000
,
0100
0001
0010
0000
0000
0000
0000
0100
,
0000
0000
0000
0010
0000
0000
0100
0000
,
0010
1000
0100
0000
0000
0000
0000
1001
,
0000
0000
0000
0110
0000
0000
0001
0000
,
0100
0001
0010
0000
0000
0000
0000
1001
,
0000
0000
0000
0110
0000
0000
0001
0000
,
0010
0001
0100
0000
0000
0000
0000
1001
,
0000
0000
0000
0110
0000
0000
1000
0000
,
0100
1000
0010
0000
0000
0000
0000
1001
,
0000
0000
0000
0110
0000
0000
1000
0000
,
0010
0000
1000
0000
0100
1000
1000
0000
,
0001
0010
1000
0100
,
1000
0000
0010
0000
0001
0100
0100
0000
,
0010
1000
0100
0001
,
0100
0000
0001
0000
0010
0001
0001
0000
,
1000
0100
0001
0010
,
0001
0000
0010
0000
1000
0010
0010
0000
,
0100
0001
0010
1000
,
0010
0010
0100
0100
,
1000
0000
0100
0000
0001
0000
0100
1000
,
0010
0010
0100
0100
,
0001
0000
0100
0000
1000
0000
0100
0001
;

//---------------dance-single - D. D'Amato----------------
#NOTES:
     dance-single:
     D. D'Amato:
     Easy:
     2:
     0.161,0.178,0.049,0.039,0.000,106.000,5.000,4.000,0.000,0.000,0.000:
0000
0000
0000
0000
,
0000
0000
0000
0000
,
0000
0000
0000
0000
,
0000
0000
0000
0000
,
2002
0000
0000
3003
,
0000
0010
0000
1000
,
0000
0010
0000
0100
,
0000
0001
0000
0100
,
0000
1000
0010
0100
,
0000
0010
0000
0100
,
0000
1000
0000
0100
,
0010
0002
2000
3003
,
0010
0100
0000
0000
,
0000
0000
0000
0001
,
1000
0100
0000
0000
,
0000
0000
0000
1000
,
0001
0100
0000
0000
,
0000
0000
0000
1000
,
0001
0100
0000
0000
,
0000
0000
0000
0100
,
0010
1000
0000
0101
,
0000
1000
1000
0010
,
1000
0100
0000
0011
,
0000
0100
0100
1000
,
0100
0001
0000
1010
,
0000
0001
0001
0100
,
0001
0010
0000
1100
,
0000
0010
0010
0100
,
0010
0001
0000
0000
,
0000
0000
0000
0100
,
0010
1000
0000
0000
,
0000
0000
0000
0100
,
0010
0001
0000
0000
,
0000
0000
0000
0100
,
0010
1000
0000
0000
,
0000
0000
0000
0001
,
0010
0100
0000
0000
,
0010
0000
0000
1000
,
0010
0100
0000
0000
,
0010
0000
0000
1000
,
0010
0010
0000
1000
,
0000
0010
1000
1000
,
0001
0001
0000
0010
,
0000
0001
0010
0010
,
0100
0100
0000
0001
,
0000
0100
0001
0001
,
1000
1000
0000
0100
,
0000
1000
0100
0100
,
0100
0000
0010
0000
,
0001
0000
1000
0000
,
0100
0000
0010
0000
,
1000
0000
0001
0100
;
