#TITLE:Get Away;
#SUBTITLE:;
#ARTIST:E-Rotic;
#TITLETRANSLIT:;
#SUBTITLETRANSLIT:;
#ARTISTTRANSLIT:;
#GENRE:Dance;
#CREDIT:;
#BANNER:Get Away-bn.png;
#BACKGROUND:Get Away-bg.png;
#LYRICSPATH:;
#CDTITLE:;
#MUSIC:Get Away.ogg;
#OFFSET:-1.270;
#SAMPLESTART:48.480;
#SAMPLELENGTH:11.820;
#SELECTABLE:YES;
#BPMS:0.000=146.000;
#STOPS:;
#BGCHANGES:-2.974=Get Away.mpg=1.000=1=0=0=StretchNoLoop==CrossFade==,
99999=-nosongbg-=1.000=0=0=0 // don't automatically add -songbackground-;
#KEYSOUNDS:;

//---------------dance-single - K. Ward + W. Smith----------------
#NOTES:
     dance-single:
     K. Ward + W. Smith:
     Challenge:
     9:
     0.686,0.706,0.151,0.382,0.542,481.000,17.000,43.000,22.000,4.000,0.000,0.686,0.706,0.151,0.382,0.542,481.000,17.000,43.000,22.000,4.000,0.000: // measure 1
0000
0000
0000
0000
,  // measure 2
0000
0000
0000
0000
,  // measure 3
0000
0000
0000
0000
,  // measure 4
0000
0000
0000
0000
0000
0000
0000
0000
0000
0000
0000
0000
0000
0001
1000
0001
,  // measure 5
1000
0000
0001
0000
1000
0000
0100
1000
0000
0000
0001
0000
0000
0010
0100
0010
,  // measure 6
0100
0000
0010
0000
0001
0000
0010
0001
0000
0000
0000
0000
0000
1000
0100
1000
,  // measure 7
0100
0000
1000
0000
0010
0000
0100
0001
0000
0000
0010
0000
0000
0100
0010
0100
,  // measure 8
0010
0000
0100
0000
1000
0000
1000
0100
0000
0000
0000
0000
M00M
0000
0000
0000
,  // measure 9
0001
0010
0001
0000
0001
0100
0001
0000
0001
1000
0001
0000
0001
0100
0001
0000
,  // measure 10
0001
0010
0001
0000
0001
1000
0001
0000
0001
0010
0001
0000
0001
1000
0001
0000
,  // measure 11
0100
0010
0100
0000
0100
0001
0100
0000
0100
0010
0100
0000
0100
0001
0100
0000
,  // measure 12
2002
0000
0000
0000
0000
0010
3003
M00M
,  // measure 13
1100
0000
0100
0000
0010
0000
0010
0100
0000
0000
1000
0000
0000
0000
0010
0100
,  // measure 14
0010
0000
0100
0000
0001
0000
0010
0002
0000
0000
0000
0000
0003
0000
1000
0001
,  // measure 15
1000
0000
0100
0000
0010
0000
0001
0010
0000
0000
0100
0000
0000
0000
0010
0100
,  // measure 16
0010
0000
0100
0000
0010
0000
0001
0020
0000
0000
0000
0000
0130
0000
0000
0000
,  // measure 17
1001
0000
0100
0000
0010
0000
0010
1000
0000
0000
0010
0000
0000
0000
0100
0010
,  // measure 18
0100
0000
0001
0000
0010
0000
0001
0020
0000
0000
0000
0000
0030
0000
0001
1000
,  // measure 19
0001
0000
0100
0000
0010
0000
1000
0010
0000
0000
0100
0000
0000
0000
0001
1000
,  // measure 20
0001
0000
0010
0000
0100
0000
1000
0100
0000
0000
0000
0000
2002
0000
0000
0000
,  // measure 21
0020
3003
1000
0230
,  // measure 22
1000
1000
0010
0300
,  // measure 23
0200
2300
3020
0032
,  // measure 24
1003
0100
1000
0100
0001
0100
0010
0000
,  // measure 25
2002
0000
0010
3003
,  // measure 26
0200
2300
3020
0032
,  // measure 27
1003
0100
0000
0000
1001
0000
0M00
0000
M001
0010
0000
0000
1M01
0000
0000
0000
,  // measure 28
001M
0000
1000
0000
0100
0000
0001
0000
0100
0000
1000
0000
0001
0000
1000
0001
,  // measure 29
1000
0000
0220
0000
0330
0MM0
1001
0000
,  // measure 30
1000
0000
0010
0000
0100
0000
0010
1000
0000
0010
0100
0010
1000
0000
0100
0000
,  // measure 31
0010
0000
0001
0000
1000
0000
0001
0010
0000
0001
1000
0001
0010
0000
0100
0000
,  // measure 32
0100
0000
1000
0000
0001
0000
1000
0100
0000
1000
0001
1000
0100
0000
0010
0000
,  // measure 33
0001
0100
1000
0100
0001
1000
0100
0000
,  // measure 34
0100
0000
0010
0000
0100
0000
0010
0001
0000
0010
0100
0010
0001
0000
0100
0000
,  // measure 35
0010
0000
1000
0000
0001
0000
1000
0010
0000
1000
0001
1000
0010
0000
0100
0000
,  // measure 36
0100
0000
0001
0000
1000
0000
0001
0100
0000
0001
1000
0001
0100
0000
0010
0000
,  // measure 37
1000
0000
0100
0000
0001
0000
0100
0000
1000
0000
0001
0000
1000
0000
0001
1000
,  // measure 38
0001
0000
0010
0000
0100
0000
0010
0200
0000
0000
1000
0000
0300
0000
0010
0100
,  // measure 39
0010
0000
0100
0000
0001
0000
1000
0002
0000
0000
0000
0000
0003
0000
0100
0010
,  // measure 40
0100
0000
0010
0000
0001
0000
0010
0200
0000
0000
0010
0000
0300
0000
1000
0100
,  // measure 41
1000
0000
0100
0000
0010
0000
0001
0020
0000
0000
0000
0000
0030
0000
0001
1000
,  // measure 42
0001
0000
0010
0000
0100
0000
0010
0200
0000
0000
1000
0000
0300
0000
0010
0100
,  // measure 43
0010
0000
0100
0000
0001
0000
1000
0002
0000
0000
0000
0000
0003
0000
0100
0010
,  // measure 44
0100
0000
0010
0000
1000
0000
0100
0020
0000
0000
0001
0000
0030
0000
1000
0010
,  // measure 45
1000
0000
0001
0000
0100
0000
0010
0200
0000
0000
0000
0000
0310
0000
0000
0000
,  // measure 46
2001
0000
0000
0000
0100
0000
0000
0010
3000
0000
0100
0000
0001
0000
0010
0000
,  // measure 47
0200
0000
0000
0000
0001
0000
0000
1000
0300
0000
0010
0000
0100
0000
0001
0000
,  // measure 48
1000
0100
1000
0010
1000
0001
1000
0100
1000
0010
0100
0001
1000
0001
0010
0100
,  // measure 49
1000
0001
0100
0001
0010
0001
1000
0001
0100
0010
1000
0001
1000
0100
0010
0002
,  // measure 50
2000
0000
0000
0000
0000
0010
3003
M00M
,  // measure 51
0001
0100
0001
0000
0010
0000
0100
0000
1000
0001
1000
0000
0010
0000
0200
0000
,  // measure 52
0000
0301
2001
0000
31M0
0000
0100
1000
,  // measure 53
0010
1000
0010
0000
0100
0000
0001
0000
0010
0001
0010
0000
0100
0000
2000
0000
,  // measure 54
0000
3010
0100
1000
0M02
0000
0013
1000
,  // measure 55
0100
1000
0100
0000
0010
0000
0001
0000
1000
0001
1000
0000
0010
0000
0200
0000
,  // measure 56
0000
0301
1002
0000
0M13
0000
0001
0010
,  // measure 57
0001
0100
0001
0000
1000
0000
0010
0000
1010
0000
0000
0000
0000
0000
M11M
0000
,  // measure 58
0000
0000
0001
0000
0010
0000
1000
0000
0010
0000
0000
0000
0001
1000
0100
1000
,  // measure 59
0010
0000
0100
0000
0001
0000
0010
0200
0000
0000
1300
0000
0000
0010
0100
0010
,  // measure 60
1000
0000
0100
0000
0010
0000
0001
1000
0000
0000
M000
0000
0001
0100
0010
0100
,  // measure 61
0001
0000
1000
0000
0100
0000
0010
0002
0000
0000
0103
0000
0000
0001
1000
0001
,  // measure 62
0010
0000
0100
0000
1000
0000
0001
0100
0000
0000
0M00
0000
0001
1000
0100
0010
,  // measure 63
0001
0000
0010
0000
0100
0000
1000
0200
0000
0000
0310
0000
0000
0001
0100
0010
,  // measure 64
1000
0000
0010
0000
0100
0000
0001
0100
0000
0000
0M00
0000
0001
0010
0100
0010
,  // measure 65
0001
0000
0100
0000
1000
0000
0100
0020
0000
0000
1030
0000
0000
0000
0001
0000
,  // measure 66
0101
0000
0000
0000
1000
0000
0000
0000
1100
0000
0000
0001
0010
0000
0100
0000
,  // measure 67
1001
M00M
0000
0000
;

//---------------dance-single - J. Frederick----------------
#NOTES:
     dance-single:
     J. Frederick:
     Beginner:
     1:
     0.094,0.088,0.080,0.000,0.000,65.000,9.000,0.000,0.000,0.000,0.000,0.094,0.088,0.080,0.000,0.000,65.000,9.000,0.000,0.000,0.000,0.000:
0000
0000
0000
0000
,
0000
0000
0000
0000
,
1000
0000
0000
0000
,
0001
0000
0000
0000
,
0110
0000
0000
0000
,
1000
0000
0000
0000
,
0001
0000
0000
0000
,
0010
0000
0000
0000
,
0110
0000
0000
0000
,
0100
0000
0000
0000
,
1000
0000
0000
0000
,
1001
0000
0000
0000
,
0010
0000
0000
0000
,
0100
0000
0000
0000
,
1000
0000
0000
0000
,
0001
0000
0000
0000
,
0010
0000
0000
0000
,
0100
0000
0000
0000
,
1000
0000
0000
0000
,
0001
0000
0000
0000
,
0110
0000
0000
0000
,
1000
0000
0000
0000
,
0001
0000
0000
0000
,
0010
0000
0000
0000
,
1000
0000
0000
0000
,
0100
0000
0000
0000
,
0010
0000
0000
0000
,
0001
0000
0000
0000
,
1001
0000
0000
0000
,
0010
0000
0000
0000
,
0100
0000
0000
0000
,
1000
0000
0000
0000
,
0100
0000
0000
0000
,
0010
0000
0000
0000
,
0001
0000
0000
0000
,
0100
0000
0000
0000
,
0010
0000
0000
0000
,
1001
0000
0000
0000
,
0100
0000
0000
0000
,
0010
0000
0000
0000
,
1000
0000
0000
0000
,
0001
0000
0000
0000
,
0100
0000
0000
0000
,
0010
0000
0000
0000
,
1001
0000
0000
0000
,
0100
0000
0000
0000
,
0010
0000
0000
0000
,
1000
0000
0000
0000
,
0001
0000
0000
0000
,
0100
0000
0000
0000
,
0110
0000
0000
0000
,
0010
0000
0000
0000
,
1000
0000
0000
0000
,
0001
0000
0000
0000
,
0100
0000
0000
0000
,
0010
0000
0000
0000
,
1000
0000
0000
0000
,
0001
0000
0000
0000
,
0100
0000
0000
0000
,
0010
0000
0000
0000
,
1000
0000
0000
0000
,
0001
0000
0000
0000
,
0100
0000
0000
0000
,
0010
0000
0000
0000
,
1000
0000
0000
0000
,
0001
0000
0000
0000
,
1001
0000
0000
0000
;

//---------------dance-single - J. Frederick----------------
#NOTES:
     dance-single:
     J. Frederick:
     Easy:
     4:
     0.296,0.296,0.311,0.107,0.000,186.000,35.000,12.000,0.000,0.000,0.000,0.296,0.296,0.311,0.107,0.000,186.000,35.000,12.000,0.000,0.000,0.000:
0000
0000
0000
0000
,
0000
0000
0000
0000
,
1000
0000
0001
0000
,
0100
0000
0010
0000
,
1001
0000
0000
0000
,
0010
0100
0010
0000
,
0110
0000
0000
0000
,
1000
0001
1000
0000
,
1000
0000
0100
0000
,
0010
0001
0100
0000
,
0010
0000
1000
0000
,
2002
0000
0000
3003
,
1001
0100
0010
0000
,
1100
0010
0001
0000
,
0101
0010
1000
0000
,
1001
1001
1001
0000
,
0110
0001
1000
0000
,
1010
0100
0001
0000
,
0011
0100
1000
0000
,
1010
0100
1001
0000
,
1000
0100
0010
0000
,
0001
0100
0010
0000
,
1000
0010
0100
0001
,
0010
0001
1000
1000
,
0100
0010
0001
0000
,
0100
0010
1000
0000
,
0001
0010
0001
0100
,
0010
1000
0010
0100
,
0220
0000
0000
0330
,
0110
1000
1001
0000
,
0010
0100
0010
0001
,
1001
0100
0110
0000
,
1000
0001
1000
0001
,
0011
0100
1100
0000
,
0100
0010
0001
0100
,
0101
0010
1010
0000
,
2002
0000
0000
3003
,
0010
0100
0010
0000
,
1000
0100
0010
0000
,
0001
0100
0001
0000
,
1000
0010
0100
0000
,
0001
0010
0100
0000
,
1000
0100
0010
0000
,
0001
0100
0010
0000
,
2002
0000
0000
3003
,
0010
0100
1000
0000
,
0100
0010
0001
0000
,
0100
0001
1000
0000
,
0010
0100
1000
0000
,
2002
0000
0000
3003
,
1001
0100
0101
0000
,
0010
1000
0010
0100
,
0110
0001
0110
0000
,
1000
0100
0010
0001
,
1001
0010
0110
0000
,
1000
0010
0100
0001
,
1001
0100
0110
0000
,
1000
0001
0100
0010
,
1000
0010
0100
0000
,
0001
0010
0100
0000
,
1000
0100
0010
0000
,
0001
0100
0010
0000
,
1000
0010
0100
0000
,
0001
0010
0100
0000
,
1000
0100
0010
0000
,
0001
0100
0010
0000
,
2002
0000
0000
3003
;

//---------------dance-single - J. Frederick----------------
#NOTES:
     dance-single:
     J. Frederick:
     Medium:
     6:
     0.453,0.415,0.337,0.089,0.000,309.000,38.000,10.000,12.000,0.000,0.000,0.453,0.415,0.337,0.089,0.000,309.000,38.000,10.000,12.000,0.000,0.000:
0000
0000
0000
0000
,
0000
0000
0000
0000
,
0000
0000
0000
0000
,
0000
0000
0000
0000
,
0010
0100
0001
0010
0100
0000
0M00
0000
,
1000
0100
0010
0001
0100
0000
0M00
0000
,
1000
0010
0100
0001
0010
0000
00M0
0000
,
0001
1000
0100
0010
0100
0000
0M00
0000
,
1000
0010
0100
0001
0010
0000
00M0
0000
,
0001
1000
0010
0100
0010
0000
00M0
0000
,
1000
0010
0100
0001
0010
0000
0100
0000
,
2002
0000
0000
3003
,
1001
0000
0110
0000
1000
0010
1000
0000
,
1010
0000
0101
0000
0010
0001
0010
0000
,
0011
0000
0110
0000
1000
0100
0010
0000
,
1001
0000
0110
0000
1000
0010
0100
0000
,
1010
0000
0101
0000
0010
0001
1000
0000
,
1100
0000
0011
0000
0100
0001
1000
0000
,
0110
0000
1001
0000
0010
0100
0010
0000
,
2002
0000
0000
3003
,
1001
0000
1000
0000
0010
0100
0010
0000
,
1000
0000
0100
0000
0010
0001
0100
0000
,
0001
0000
1000
0000
0010
0100
0001
0000
,
0010
0100
1000
0000
1000
0100
0010
0000
,
0001
0000
0100
0000
0001
1000
0010
0000
,
0100
0000
0010
0000
1000
0010
0001
0000
,
0010
0000
0100
0000
0001
0010
0100
0000
,
1000
0100
0010
0001
0100
0001
1000
0000
,
2002
0000
0000
3003
,
1001
0110
1000
0010
,
0100
0001
0010
0000
0100
1000
0100
0000
,
0011
1000
1001
0100
,
0010
0100
0010
0000
1000
0010
1000
0000
,
1010
0100
0101
0010
,
0100
0010
0100
0000
1000
0010
1000
0000
,
1001
0010
0110
1000
,
0001
0100
0001
0000
1000
0100
1000
0000
,
0010
0100
0010
1000
0010
0000
0100
0000
,
0001
0010
0100
1000
0100
0000
0M00
0000
,
0010
0001
0100
0001
1000
0000
0001
0000
,
0100
0010
1000
0010
0100
0000
0M00
0000
,
0001
0010
0100
1000
0100
0000
0010
0000
,
0001
0100
0001
1000
0010
0000
00M0
0000
,
0100
0010
1000
0001
0010
0000
0100
0000
,
1000
0100
0010
0001
1001
0000
1001
0000
,
0100
0010
1000
0010
,
0100
0001
0010
0100
,
1000
0100
0010
0001
,
0100
0001
1000
0001
0010
0001
0100
0001
,
2002
0000
0000
3003
,
1001
0100
0110
1000
,
0010
1000
0010
0000
0100
0001
0100
0000
,
0101
0010
0110
1000
,
0100
0010
0001
0000
0001
0100
0010
0000
,
0110
1000
1001
0010
,
0100
1000
0100
0000
0100
0010
0001
0000
,
1001
0100
0110
1000
,
0010
0100
0001
0000
0010
0100
1000
0000
,
0100
1000
0001
0010
0001
0000
0100
0000
,
0001
1000
0010
0100
0001
0000
000M
0000
,
0010
0100
1000
0100
0010
0000
0001
0000
,
0100
0001
1000
0010
0100
0000
0M00
0000
,
0010
1000
0001
0010
0100
0000
1000
0000
,
0100
0010
0001
0100
0001
0000
000M
0000
,
1000
0010
0100
0001
0010
0000
0100
0000
,
1000
0100
0010
0001
1000
0000
0001
0000
,
2002
0000
0000
3003
;

//---------------dance-single - ----------------
#NOTES:
     dance-single:
     :
     Hard:
     8:
     0.516,0.530,0.320,0.284,0.124:
0000
0000
0000
0000
,
0000
0000
0000
0000
,
0000
0000
0000
0000
,
0000
0000
0000
0000
,
1001
0000
0001
0000
1000
0000
0001
2000
0000
3000
0100
0000
0000
0000
0000
0000
,
0010
0000
0010
0000
0100
0000
1000
0001
0000
0000
0000
0000
0000
0000
0000
0000
,
0110
0000
0100
0000
0010
0000
0100
0020
0000
0030
1000
0000
0000
0000
0000
0000
,
0001
0000
0001
0000
1000
0000
0100
0010
0000
0000
0000
0000
0000
0000
0000
0000
,
0001
0100
0010
1000
0100
0000
1100
0000
,
1000
0100
0010
0001
0001
0000
0000
0000
,
0001
0010
1000
0010
0100
0000
0110
0000
,
2002
0000
0000
0000
3003
0100
0010
0000
,
0100
0000
0001
0000
1000
0000
0100
0000
0010
0000
0000
1000
0001
0000
0000
0000
,
0010
0000
1000
0000
0001
0000
0100
0000
0010
0000
0000
0001
1000
0000
0000
0000
,
0100
0000
0001
0000
1000
0000
0100
0000
0010
0000
0000
1000
0001
0000
0000
0000
,
0010
1000
0000
0000
0001
1000
0000
0000
0100
1000
0000
0000
0001
1000
0000
0000
,
0100
0000
0001
0000
1000
0000
0100
0000
0010
0000
0000
1000
0001
0000
0000
0000
,
0010
0000
1000
0000
0001
0000
0100
0000
0010
0000
0000
0001
1000
0000
0000
0000
,
0100
0000
0001
0000
1000
0000
0100
0000
0010
0000
0000
1000
0001
0000
0000
0000
,
1100
0011
0120
MM0M
,
1000
0000
0100
0000
0031
0010
0200
0000
,
1000
0000
0001
0000
1300
0100
0001
0000
,
0100
0010
1000
0000
0010
0001
0100
0000
,
0010
0100
0001
0100
1000
0100
0001
0000
,
0011
1100
0101
1010
,
0001
0100
0010
1000
0010
0100
0001
0000
,
1000
0100
0000
0020
0000
0030
0000
0000
0001
0100
0000
0020
0000
0030
1000
0000
,
1000
0000
0001
0100
0010
0000
0110
0000
,
2020
0000
3030
M1M0
,
1010
0000
0100
0010
0100
0000
1000
0002
,
0000
1000
0103
0000
0010
0000
0100
0000
,
1100
0000
0010
0001
0010
0000
1000
0200
,
0300
0010
0001
0100
0010
0000
1000
0000
,
0110
0000
1000
0100
1000
0000
0001
2000
,
0000
0001
3100
0000
1000
0000
0010
0000
,
1001
0000
0001
0100
0001
0000
1000
0200
,
0300
0010
0001
0100
0020
0000
0030
0000
,
1001
0000
0001
0000
1000
0000
0001
2000
0000
3000
0100
0000
0000
0000
0000
0000
,
0010
0000
0010
0000
0100
0000
1000
0001
0000
0000
0000
0000
0000
0000
0000
0000
,
0110
0000
0100
0000
0010
0000
0100
0020
0000
0030
1000
0000
0000
0000
0000
0000
,
0001
0000
0001
0000
1000
0000
0100
0010
0000
0000
0000
0000
0000
0000
0000
0000
,
0001
0100
0010
1000
0100
0000
1100
0000
,
1000
0100
0010
0001
0001
0000
0000
0000
,
0001
0010
1000
0010
0100
0000
0110
0000
,
2002
0000
0000
0000
3003
0100
0010
0000
,
0012
1000
0010
0103
,
2100
0001
0100
3010
,
1000
0100
0010
0001
1000
0100
0010
0001
,
0100
0010
1000
0001
0100
0010
1000
0001
,
1001
M2MM
M0MM
M3MM
,
1010
0000
0100
0010
0100
0000
1000
0002
,
0000
1000
0103
0000
0010
0000
0100
0000
,
1100
0000
0010
0001
0010
0000
1000
0200
,
0300
0010
0001
0100
0010
0000
1000
0000
,
0110
0000
1000
0100
1000
0000
0001
2000
,
0000
0001
3100
0000
1000
0000
0010
0000
,
1001
0000
0001
0100
0001
0000
1000
0200
,
0300
0010
0001
0100
0020
0000
0030
0000
,
1001
0000
0001
0000
1000
0000
0001
2000
0000
3000
0100
0000
0000
0000
0000
0000
,
0010
0000
0010
0000
0100
0000
1000
0001
0000
0000
0000
0000
0000
0000
0000
0000
,
0110
0000
0100
0000
0010
0000
0100
0020
0000
0030
1000
0000
0000
0000
0000
0000
,
0001
0000
0001
0000
1000
0000
0100
0010
0000
0000
0000
0000
0000
0000
0000
0000
,
0001
0100
0010
1000
0100
0000
1100
0000
,
1000
0100
0010
0001
0001
0000
0000
0000
,
0001
0010
1000
0010
0100
0000
0110
0000
,
2002
0000
0000
0000
0000
0000
3003
0000
1001
0000
0000
0100
0010
0000
1000
0001
,
2000
0000
3000
M000
0000
0000
0000
0000
;
