#TITLE:Feels Just Like That Night;
#SUBTITLE:;
#ARTIST:Eskimo & Icebird;
#TITLETRANSLIT:;
#SUBTITLETRANSLIT:;
#ARTISTTRANSLIT:;
#GENRE:Pop;
#CREDIT:;
#BANNER:Feels Just Like That Night-bn.png;
#BACKGROUND:Feels Just Like That Night-bg.png;
#LYRICSPATH:;
#CDTITLE:;
#MUSIC:Feels Just Like That Night.ogg;
#OFFSET:0.088;
#SAMPLESTART:33.360;
#SAMPLELENGTH:11.800;
#SELECTABLE:YES;
#BPMS:0.000=135.010;
#STOPS:;
#BGCHANGES:0.359=Feels Just Like That Night.mpg=1.000=1=0=0=StretchNoLoop==CrossFade==,
99999=-nosongbg-=1.000=0=0=0 // don't automatically add -songbackground-;
#KEYSOUNDS:;

//---------------dance-single - J. Frederick----------------
#NOTES:
     dance-single:
     J. Frederick:
     Beginner:
     1:
     0.082,0.000,0.057,0.000,0.000:
0000
0000
0000
0000
,
0000
0000
0000
0000
,
0000
0000
1000
0000
,
0000
0000
0001
0000
,
0000
0000
0010
0000
,
0000
0000
0100
0000
,
0000
0000
1000
0000
,
0000
0000
0001
0000
,
0000
0000
0100
0000
,
0000
0000
0110
0000
,
0000
0000
1000
0000
,
0000
0000
0001
0000
,
0000
0000
0010
0000
,
0000
0000
0100
0000
,
0000
0000
0010
0000
,
0000
0000
1000
0000
,
0000
0000
0001
0000
,
0000
0000
0000
0000
,
0000
0000
0110
0000
,
0000
0000
0100
0000
,
0000
0000
1000
0000
,
0000
0000
0001
0000
,
0000
0000
0100
0000
,
0000
0000
0010
0000
,
0000
0000
1000
0000
,
0000
0000
0001
0000
,
0000
0000
0100
0000
,
0000
0000
0000
0000
,
0010
0010
0010
0000
,
0000
0000
0100
0000
,
0000
0000
1000
0000
,
0000
0000
0001
0000
,
0000
0000
0010
0000
,
0000
0000
0010
0000
,
0000
0000
1000
0000
,
0000
0000
0001
0000
,
0000
0000
0110
0000
,
0000
0000
0100
0000
,
0000
0000
0010
0000
,
0000
0000
1000
0000
,
0000
0000
1001
0000
,
0000
0000
0001
0000
,
0000
0000
0100
0000
,
0000
0000
0010
0000
,
0000
0000
1000
0000
,
0000
0000
0001
0000
,
0000
0000
0100
0000
,
0000
0000
0010
0000
,
0000
0000
1000
0000
,
0000
0000
0001
0000
,
0000
0000
0100
0000
,
0000
0000
0010
0000
,
0000
0000
1001
0000
,
0000
0000
0100
0000
,
0000
0000
0010
0000
,
0000
0000
1001
0000
,
0000
0000
0100
0000
;

//---------------dance-single - J. Frederick----------------
#NOTES:
     dance-single:
     J. Frederick:
     Easy:
     4:
     0.282,0.000,0.246,0.284,0.000:
0000
0000
0000
0000
,
0000
0000
0000
0000
,
0000
0000
1000
0001
,
0010
0100
1000
0000
,
0001
0000
0100
0010
,
1000
0010
0100
0000
,
0001
0000
0010
0100
,
1000
0100
0010
0000
,
0001
0000
0100
0010
,
0100
0010
2002
0000
,
0000
3003
0010
0100
,
1000
0000
0001
0000
,
0100
0000
0010
1000
,
0001
0000
0010
0000
,
0100
1000
0100
0000
,
0010
0001
0100
0000
,
0010
1000
0020
0000
,
0000
0000
0200
0330
,
0110
0110
1000
0001
,
0010
0100
1000
0100
,
0010
0001
0200
0300
,
0020
0030
2002
0000
,
0000
3003
0010
0100
,
1000
0100
0010
0001
,
0100
0010
2000
3000
,
0002
0003
0220
0000
,
0000
0330
2002
0000
,
0000
0000
0000
3003
,
1001
1001
0100
0010
,
1000
0010
0200
0000
,
0000
0300
0001
0010
,
0100
1000
0200
0000
,
0000
0300
0010
0001
,
0100
0010
2000
0000
,
0000
3000
0001
0010
,
0100
1000
0020
0000
,
0000
0030
0110
1000
,
0001
0010
0100
0000
,
1000
0000
0010
0100
,
0001
0010
0100
0000
,
0000
0000
1001
1001
,
0100
0010
0110
0110
,
1000
0010
1010
1010
,
0100
0001
0101
0101
,
0010
0100
0110
0110
,
1000
0100
1100
1100
,
0010
0100
1001
1001
,
0010
0100
2002
0000
,
0000
3003
0100
0010
,
1000
0001
0020
0030
,
0200
0300
1000
0001
,
0100
0010
2000
3000
,
0002
0003
0010
0100
,
1000
0100
0020
0030
,
0002
0003
0100
0010
,
1000
0010
0220
0000
,
0000
0330
2002
0000
,
0000
0000
3003
0000
;

//---------------dance-double - J. Frederick----------------
#NOTES:
     dance-double:
     J. Frederick:
     Easy:
     3:
     0.205,0.000,0.104,0.142,0.000:
00000000
00000000
00000000
00000000
,
00000000
00000000
00000000
00000000
,
00000000
00000000
10000000
00000000
,
01000000
00000000
00100000
00000000
,
00010000
00000000
00001000
00000000
,
00000010
00000000
00000100
00000000
,
00000002
00000003
00000010
00000000
,
00000100
00000000
00000001
00000000
,
00000010
00000000
00001000
00000000
,
00010000
00000000
00022000
00000000
,
00000000
00033000
00010000
00000000
,
00100000
00000000
01000000
00000000
,
10000000
00000000
01000000
00000000
,
00100000
00000000
00010000
00000000
,
01000000
10000000
00200000
00300000
,
01000000
00010000
00002000
00003000
,
00000010
00000100
00000202
00000000
,
00000000
00000000
00000000
00000303
,
00001001
00001001
00000010
00000000
,
00001000
00000000
00000100
00000000
,
00000001
00000000
00000010
00000001
,
00000010
00000000
00001000
00000010
,
00001000
00000000
00010000
00000000
,
00100000
00000000
01000000
00000000
,
10000000
00000000
01000000
10000000
,
01000000
00000000
00100000
01000000
,
00100000
01000000
02200000
00000000
,
00000000
00000000
00000000
03300000
,
01100000
01100000
10000000
00000000
,
01000000
00000000
00100000
00010000
,
00100000
00000000
01000000
00000000
,
10000000
00000000
01000000
00100000
,
00010000
00000000
00001000
00000000
,
00000010
00000000
00000100
00000001
,
00000010
00000000
00000001
00000000
,
00000100
00000000
00000010
00001000
,
00000010
00000000
00000100
00000000
,
00000001
00000000
00000010
00001000
,
00010000
00000000
00100000
00000000
,
01000000
00000000
20020000
00000000
,
00000000
30030000
10010000
00000000
,
01000000
00100000
10000000
00000000
,
01000000
00000000
00100000
00000000
,
00010000
00000000
00001000
00000000
,
00000100
00000000
00000001
00000010
,
00000001
00000000
00000100
00000000
,
00000010
00000000
00001000
00000001
,
00000200
00000300
00000010
00001000
,
00000010
00001000
00000010
00000000
,
00000100
00000001
00001000
00000000
,
00010000
00000000
00100000
01000000
,
10000000
00000000
00100000
00000000
,
01000000
10000000
11000000
00000000
,
01000000
00100000
00010000
00000000
,
00001000
00000000
00000010
00000000
,
00000100
00000000
00002002
00000000
,
00000000
00003003
00000020
00000000
,
00000000
00000000
00000030
00000000
;

//---------------dance-single - J. Frederick----------------
#NOTES:
     dance-single:
     J. Frederick:
     Medium:
     5:
     0.333,0.000,0.142,0.113,0.000:
0000
0000
0000
0000
,
0000
0000
0000
0000
,
0000
0000
0010
0001
,
0010
1000
0100
0010
,
0001
0100
0010
1000
,
0010
0100
0001
0010
,
0100
1000
0100
0010
,
0001
0100
0010
1000
,
0010
0100
0010
1000
,
0001
1000
2002
0000
,
0000
3003
0100
0010
,
1000
0010
1000
0000
0010
0000
0100
0000
,
0001
0010
0100
1000
,
0100
0010
0001
0000
0100
0000
0001
0000
,
1000
0000
0010
0000
0100
0000
0000
0010
,
0000
0000
1000
0000
0001
0000
0000
0010
,
0000
0100
2002
0000
,
0000
0000
0000
3003
,
1001
1001
0100
0010
,
1000
0000
0010
0000
0100
0001
0000
0010
,
0000
0100
1000
0000
0100
0000
0010
0000
,
0001
0100
0001
1000
,
0010
0100
0001
0010
,
0100
0000
1000
0000
0100
0010
0000
0001
,
0000
0100
0001
0000
1000
0000
0010
0000
,
0100
0000
0010
0000
0100
0010
0100
0010
,
0000
0010
0100
0000
0220
0000
0000
0000
,
0000
0000
0000
0330
,
1001
0000
1001
0000
1000
0000
0001
1000
,
0001
0000
0010
0000
0100
1000
0000
1000
,
0000
0000
0100
0000
0010
0000
0001
0100
,
0001
0000
1000
0010
0100
0010
0000
0100
,
0000
0000
0001
0000
1000
0000
0100
0010
,
0001
0000
0100
0000
0001
1000
0000
1000
,
0000
0000
0010
0000
0100
0000
0010
1000
,
0001
0000
0010
0100
1000
0010
0000
0100
,
0000
0001
0010
0000
0100
0000
1000
0100
,
0010
0000
0001
0000
0100
0001
0000
1000
,
0000
0001
0100
0000
0010
0000
1000
0000
,
0010
0100
2002
0000
,
0000
0000
3003
0000
1001
0000
0010
0100
,
1000
0000
0100
0000
0010
0001
0000
0100
,
0000
0001
1000
0000
0010
0000
0100
0000
,
0010
1000
0001
0010
,
0100
0110
0110
1000
,
0010
0000
0100
0000
0001
0010
0000
0100
,
0000
1000
0100
0000
0010
0000
0001
0000
,
0100
0010
1000
0010
,
0100
0010
0100
0000
0110
0000
1000
0000
,
0001
0010
0100
0000
1000
0100
0000
0010
,
0000
0001
0100
0000
0001
0000
1000
0000
,
0010
0100
0010
1000
,
0001
1000
0001
0000
1001
0000
0010
0000
,
0100
1000
0100
0000
0010
0001
0000
0001
,
0000
0100
0010
0000
1000
0000
0010
0000
,
0100
0001
0220
0000
,
0000
0000
0000
0330
2002
0000
0000
0000
,
0000
0000
3003
0000
;

//---------------dance-single - J. Frederick----------------
#NOTES:
     dance-single:
     J. Frederick:
     Hard:
     8:
     0.537,0.000,0.265,0.180,0.052:
0000
0000
0000
0000
,
0000
0000
0000
0000
,
0000
0000
0000
0000
0010
1000
0001
0000
,
0010
0100
1000
0100
0010
0000
0001
0000
,
0100
0010
1000
0010
0200
0000
0301
0000
,
0010
0100
1000
0100
0010
0000
0001
0000
,
0100
0001
1000
0001
0100
0000
0010
0000
,
1000
0010
0001
0010
1000
0000
0100
0000
,
0010
0001
0100
0001
1000
0000
0001
0000
,
0100
0010
0000
0100
0000
0010
0000
0220
,
0000
0000
0330
0000
1001
0000
0010
0100
,
1000
0000
0100
0000
0010
0000
0001
0000
0100
0000
0000
0M00
0001
0000
1000
0000
,
0010
0000
0100
0000
0001
0000
0010
0000
0100
0000
0000
0M00
1000
0000
0100
0000
,
0010
0000
0001
0000
0100
0000
0001
0000
1000
0000
0000
M000
0010
0000
0100
0000
,
0001
0010
0001
1000
1MM2
0000
0003
M12M
,
0000
0000
0030
0000
11MM
0000
0000
0000
M21M
0000
0000
0000
0300
0000
0021
MM00
,
0000
0000
0030
0000
M1M1
0000
0000
0000
1000
0000
0002
0000
0000
0003
0200
0000
,
0000
0300
0020
0000
0000
0030
0200
0000
0000
0300
0020
0000
0000
0030
0100
0000
,
0110
0000
1001
0000
0010
0100
1000
0100
,
0010
0001
0100
0001
1000
0010
0100
0010
,
0001
0010
1000
0100
0010
0001
0010
0100
,
1000
0100
0010
0001
0100
0001
1000
0010
,
0100
0010
0100
0010
0110
0000
0110
0000
,
1000
0010
0100
0001
0010
0100
1000
0100
,
0010
0001
0100
0001
1000
0010
0100
0010
,
0001
0010
0100
0010
1000
1000
0100
0010
,
0000
0010
0001
0100
0020
2000
0000
0000
,
0000
0000
0000
0000
0000
0000
0000
3030
,
1001
0000
0100
0000
1001
0000
0000
0000
1001
0000
0000
0000
0100
0000
0010
0100
,
0010
1000
0010
0100
0001
0010
0000
0110
,
0000
0000
1000
0100
1000
0000
0100
0000
0000
0000
0010
0000
0001
0000
0100
0001
,
0100
0001
1000
0010
0100
0010
0000
1010
,
0000
0000
0010
0100
0010
0000
0100
0000
0000
0000
0001
0000
0010
0000
0100
0000
,
0010
0100
1000
0100
0010
0001
0000
0011
,
0000
0000
0001
0100
0001
0000
1000
0000
0000
0000
0010
0000
0100
0000
0010
0000
,
1000
0001
0010
0100
1000
0100
0000
1001
,
0000
0000
0001
0100
0001
0000
0100
0000
0000
0000
0001
0000
1000
0000
0010
0000
,
0100
0010
1000
0001
0010
0100
0000
1100
,
0000
0000
0100
0010
0100
0000
0010
0000
0000
0000
0001
0000
0100
0000
0001
0000
,
1000
0010
0100
0010
0220
0000
0000
0000
,
0000
0000
0000
0000
0000
0330
0000
0000
1001
0000
1000
0000
0010
0000
0100
0000
,
0001
0010
0100
1000
0100
0010
0001
0100
,
0001
1000
0010
0100
0010
0001
0010
1000
,
0100
0010
0001
0010
0100
1000
0100
0010
,
0001
1000
0001
1000
1001
0000
1001
0000
,
1000
0010
0100
0001
0010
0100
1000
0100
,
0010
0001
0100
0001
1000
0010
0100
0010
,
0001
0010
1000
0100
0010
0001
0010
0100
,
1000
0100
0010
0100
0110
0000
0110
0000
,
1000
0010
0100
0001
0010
0001
1000
0100
,
0010
0001
1000
0010
0001
0010
1000
0100
,
0010
0001
0100
0001
1000
0010
0100
0001
,
0010
0100
1000
0100
1100
0000
1100
0000
,
0010
0001
0100
0001
1000
0010
0100
0010
,
0001
0010
1000
0100
0000
0100
0010
0002
,
0000
0000
0000
0003
1000
0010
0100
0010
,
0000
1000
0001
0010
0200
0020
0000
0000
,
0000
0000
0330
0000
;

//---------------dance-single - J. Frederick----------------
#NOTES:
     dance-single:
     J. Frederick:
     Challenge:
     11:
     0.859,0.000,0.284,0.180,0.931: // measure 1
0000
0000
0000
0000
,  // measure 2
0000
0000
0000
0000
,  // measure 3
0000
0000
0000
0000
1000
0001
0010
0100
,  // measure 4
1000
0100
0010
0001
0100
0001
1000
0010
,  // measure 5
0100
0010
0001
0010
1000
0100
0010
0001
,  // measure 6
0010
0001
0100
0001
1000
0001
0010
0100
,  // measure 7
1000
0010
0100
0010
0100
0001
0010
0001
,  // measure 8
1000
0010
0001
0010
1000
0100
0010
0001
,  // measure 9
0010
0100
1000
0100
0010
0001
0100
0001
,  // measure 10
1000
0010
0100
2M02
0000
0M10
0000
0M10
,  // measure 11
0000
0000
0M20
0000
0000
0000
3M33
0000
1001
0000
0100
0010
1000
0000
0010
1000
,  // measure 12
0001
0000
0010
0100
1000
0000
0100
0010
0001
0000
0100
0001
1000
0000
0010
0100
,  // measure 13
0010
0000
1000
0001
0010
0000
0100
1000
0100
0000
0010
0001
0100
0000
0001
1000
,  // measure 14
0010
0000
0100
0010
1000
0000
0001
0010
0100
0000
1000
0100
0010
0000
0001
0100
,  // measure 15
0001
0000
1000
0010
0100
0010
0000
0000
0110
0000
0000
1000
0010
0000
0201
0000
,  // measure 16
0300
0000
0011
0000
1200
0000
0300
0000
0011
0000
0000
0100
0001
0000
1002
0000
,  // measure 17
0003
0000
0100
0010
0100
0010
0000
0000
1001
0000
M11M
0000
0000
0000
1MM1
0000
,  // measure 18
0000
11MM
0000
MM11
0000
M1M1
0000
1MM1
,  // measure 19
1001
0000
0100
0000
2002
0000
0000
0000
3013
0000
0010
1000
0100
0010
0100
1000
,  // measure 20
0010
0100
0001
1000
0100
1000
0010
0100
0001
0010
0100
1000
0100
0010
0001
0100
,  // measure 21
0010
0100
0001
1000
0100
0010
0001
0100
0010
1000
0010
0100
0001
1000
0100
0010
,  // measure 22
0100
1000
0100
0010
0001
0010
0100
1000
0010
0100
0010
1000
0001
0010
0001
0100
,  // measure 23
0010
1000
0100
1000
0010
0100
0001
1000
0100
0000
0010
0001
0100
0001
0010
0100
,  // measure 24
1000
0100
0010
0001
0100
0001
1000
0100
0010
0100
0010
0001
0010
0100
0010
0001
,  // measure 25
0100
0010
1000
0010
0100
0001
1000
0100
0010
0100
1000
0001
0100
0010
1000
0100
,  // measure 26
1000
0010
1000
0001
1000
0100
0010
0100
1000
0000
0100
0000
0010
0000
0100
0000
,  // measure 27
0000
0000
0100
0000
1000
0100
0000
0000
1100
0000
0000
0000
0011
0000
0100
0001
,  // measure 28
0100
0001
1000
0010
0100
0010
0000
0010
,  // measure 29
0110
0000
1000
0000
0220
0000
0000
0330
1001
0000
0000
0000
0100
0000
0010
1000
,  // measure 30
0010
0100
0001
0010
0100
1000
0000
0110
,  // measure 31
0000
0000
0010
0001
0010
0000
0002
0000
0000
0000
0103
0000
0010
0000
1000
0010
,  // measure 32
1000
0010
0100
0001
0010
0100
0000
1100
,  // measure 33
0000
0000
0100
0010
0001
0000
0200
0000
0000
0000
0301
0000
1000
0000
0010
0100
,  // measure 34
0010
1000
0100
0010
0001
0100
0000
1001
,  // measure 35
0000
0000
1000
0010
1000
0000
0020
0000
0000
0000
0130
0000
0001
0000
0010
0100
,  // measure 36
1000
0100
0010
0001
0100
0001
0000
1100
,  // measure 37
0000
0000
0100
0010
0100
0000
2000
0000
0000
0000
3010
0000
0100
0000
0001
0010
,  // measure 38
0100
1000
0100
0010
0001
0100
0000
0110
,  // measure 39
0000
0000
1000
0010
0100
0000
0020
0000
0000
0000
0031
0000
0010
0000
0100
0010
,  // measure 40
1000
0100
0010
0001
0100
0001
0000
1100
,  // measure 41
0000
0000
0100
0010
0000
0000
0000
0000
2002
0000
0000
0000
0000
0000
0000
0000
,  // measure 42
0000
0000
0000
0000
3003
0000
0000
0000
1001
0000
0100
0010
1000
0001
0010
0100
,  // measure 43
0010
0001
0100
0010
1000
0010
0100
0001
1000
0100
0010
0001
0010
0100
0010
0001
,  // measure 44
0100
0010
1000
0100
0010
0100
1000
0001
0100
0010
1000
0001
0010
0100
1000
0010
,  // measure 45
0100
0001
1000
0100
0010
0001
0010
0100
1000
0100
0010
0001
0100
0010
0100
0001
,  // measure 46
0010
0100
1000
0010
1000
0100
0010
0001
0100
0000
0010
1000
0100
0010
0100
1000
,  // measure 47
0010
0100
0001
1000
0100
0010
0001
0100
0010
1000
0100
0010
0001
0100
0010
1000
,  // measure 48
0010
0100
0001
0010
0100
1000
0010
0100
0001
1000
0001
0010
0100
0010
0001
1000
,  // measure 49
0010
0100
0010
1000
0001
0010
0100
1000
0100
0000
1000
0000
0010
0000
0100
0000
,  // measure 50
0000
0000
0100
0000
0001
0000
0010
0000
0100
0000
0100
0010
0001
0100
0010
0100
,  // measure 51
0001
1000
0100
0010
0100
0010
0001
0100
0010
1000
0100
0010
0001
0100
0010
0100
,  // measure 52
0001
0010
0100
1000
0001
0100
0010
1000
0010
0100
0001
0100
0010
0100
0001
0100
,  // measure 53
0010
1000
0100
0010
0001
1000
0100
0010
0100
1000
0010
0100
0001
0100
0010
1000
,  // measure 54
0100
0010
0001
1000
0001
0100
0001
1000
0001
0000
0100
0010
0100
0001
0010
0100
,  // measure 55
1000
0100
0010
0001
0100
0001
1000
0100
0010
0100
0010
0001
0010
0100
1000
0010
,  // measure 56
0100
0010
1000
0001
0010
0100
0010
0001
0100
0010
1000
0001
0010
0100
0010
0001
,  // measure 57
0100
0010
1000
0001
0010
0100
0010
0001
0100
0010
0100
0000
0010
0000
1000
0000
,  // measure 58
0000
0100
0010
0001
0200
0020
0000
0000
,  // measure 59
0000
0000
0330
0000
;

//---------------dance-double - Sigma----------------
#NOTES:
     dance-double:
     Sigma:
     Challenge:
     10:
     0.698,0.000,0.454,0.548,0.359: // measure 1
00000000
00000000
00000000
00000000
,  // measure 2
00000000
00000000
00000000
00000000
,  // measure 3
00000000
00000000
00000000
00000000
00000010
00010000
00001000
00000010
,  // measure 4
00000001
00001000
00000010
00000100
00001000
00010000
00100000
20000000
,  // measure 5
00000000
31000000
00010000
01000000
00200000
00300000
00101000
00000000
,  // measure 6
00010000
00001000
00000010
00000002
00000000
00000203
00000000
00000320
,  // measure 7
00000000
00000000
00000230
00000000
00000001
00000000
00000300
0000000M
00000010
00000000
00000100
00000000
00001010
00000000
00000010
00000000
,  // measure 8
00010000
00001000
00011000
00010000
00100000
10000000
10010000
01000000
,  // measure 9
00100000
00010000
20000000
30000000
01100000
01000000
00010000
10000000
,  // measure 10
10010000
00010000
01000000
00010000
01000000
00002000
00000000
00023000
,  // measure 11
00000000
00000000
00030100
00000000
00002100
00000000
00000000
00000000
00003100
00000000
00000010
00000001
00001000
00000000
00000010
00001000
,  // measure 12
00000010
00000000
00010000
00001000
00010000
00000000
01000000
10000000
01000000
00000000
10000000
00010000
01000000
00000000
00100000
10000000
,  // measure 13
00010000
00000000
10000000
01000000
00100000
01000000
00100000
00001000
00010000
00000000
00000100
00000010
00000001
00000000
00000100
00000010
,  // measure 14
00000100
00000000
00000001
00001000
00000100
00000000
00001000
00000100
00000010
00000000
00000001
00000100
00000010
00000000
00000100
00001000
,  // measure 15
00010000
00000000
01000000
00100000
00010000
00000000
10000000
00200000
20000000
00000000
00000000
000000M0
00000000
00000M00
31310000
00000000
,  // measure 16
0000000M
00M000M0
00000000
0000M000
02000000
00000000
00000M00
00000000
000020M0
00M00000
M0000000
000000M0
00000000
00000000
0311300M
00000000
,  // measure 17
00000000
00000000
00001100
00000000
00001000
00000100
00000010
00000002
,  // measure 18
00000000
00020000
00000003
00002000
00030000
20000000
00003000
31000000
,  // measure 19
00110000
00000000
00000000
00000000
01001000
00000000
00000000
00000000
01000000
00000000
00001000
00010000
00000100
00000000
00001000
00000100
,  // measure 20
00000010
00000000
00000001
00001000
00000100
00000000
00000010
00000001
00001000
00000000
00000010
00000000
00010000
00000000
00002000
00000000
,  // measure 21
00000000
00203000
00010000
00320000
00000000
01030000
00100000
20100000
,  // measure 22
00000000
31000000
00010000
00001000
00000010
00000001
00000100
00002000
,  // measure 23
00000000
00000000
00003100
00000000
00000001
00000000
00020001
00000000
00000000
00030000
00001000
01000000
00010000
00000000
01000000
00100000
,  // measure 24
10000000
00000000
00010000
10000000
01000000
00000000
01000000
00100000
00010000
00000000
01000000
00001000
01000000
00000000
00001000
00010000
,  // measure 25
00000100
00000000
00001000
00000100
00000010
00000000
00000012
00000000
00000000
00000000
00001003
00000000
00000100
00000000
00002000
00000000
,  // measure 26
00000000
00003100
00012000
00000000
00013000
01000000
10000000
00100000
,  // measure 27
00000000
01000000
00010000
00000000
02000200
00000000
00000000
00000300
,  // measure 28
M00MM00M
00M00M00
M0M00M0M
000MM000
M0M00MMM
00000000
00000000
00000000
00000100
00000000
00000100
00000000
03000000
00000000
00000000
00000000
,  // measure 29
00011000
00000000
00000000
00000000
00000101
00000000
00000000
00000000
00001020
00000000
00000000
00000000
00001030
00000000
00000100
00000010
,  // measure 30
00000100
00000010
00000001
00001000
00000010
00020000
00030000
00101000
,  // measure 31
00000000
00000000
00110000
00000000
01000000
10000000
01000000
00000000
10000000
00000000
00010000
00000000
00100000
00000000
00010000
01000000
,  // measure 32
00100000
01000000
00001000
00010000
00000100
00000110
00000010
00000002
,  // measure 33
00000000
00000000
00000103
00000010
00001000
00000000
00020020
00000000
00030000
00000000
00010030
00000000
01000000
00000000
10000000
00010000
,  // measure 34
00100000
00001000
00010000
00001000
01000000
01001000
00000000
00010020
,  // measure 35
00000000
00000000
00001030
00000010
00001000
00000000
00002100
00000000
00000000
00000000
00003100
00000000
00000110
00000000
00000010
00000001
,  // measure 36
00000010
00000100
00001000
00000100
00010000
00011000
00000000
01020000
,  // measure 37
00000000
00000000
01030000
00100000
10000000
00000000
20010000
00000000
00000000
00000000
31000000
00000000
00100000
00000000
00010000
00100000
,  // measure 38
00001000
00010000
00000100
00000010
00000001
00001001
00000000
00001020
,  // measure 39
00000000
00000000
00010030
00001000
00010000
00000000
00102000
00000000
00000000
00000000
10003000
00000000
00010000
00000000
01000000
00010000
,  // measure 40
01000000
01000000
00011000
00011000
00010000
00000200
00000000
00000320
,  // measure 41
00000000
00000000
00000031
00001000
00000001
00000000
00000202
00000000
000M00M0
00000000
00000000
00000000
00000000
00000000
00000000
00000000
,  // measure 42
00000000
00000000
00000000
00000000
00001010
00000000
00000303
00000000
00000101
00000000
00000010
00001000
00000001
00000000
00001000
00000100
,  // measure 43
00010000
00000000
00001000
00100000
01000000
00000000
10000000
00010000
01000000
00000000
00100000
00000000
10000000
00000000
02000000
00000000
,  // measure 44
00000000
00100000
03100000
00001000
00010000
00000010
00001000
00000100
,  // measure 45
00000000
00000000
00000011
00000000
00000001
00000000
00000100
00000000
00000000
0000000M
00000100
00000000
00000010
00000000
00020000
00000000
,  // measure 46
00000000
00000000
00031000
01000000
00100000
00000000
20100000
00000000
00000000
00000000
31000000
00100000
00010000
00000000
00010000
01000000
,  // measure 47
00001000
00000000
00010000
00000010
00001000
00000000
00001000
00000001
00001000
00000000
00000010
00000000
00000100
00000000
00002000
00000000
,  // measure 48
00000000
00003100
00000100
00000020
00000000
00001030
00000100
00010000
,  // measure 49
00101000
00000000
02020000
00000000
00000000
00000000
00000000
030300MM
,  // measure 50
00000000
00000000
00000MM0
00000000
00000MM0
00000000
00000000
00000000
00101000
00000000
00100000
00001000
00010000
00000000
00000010
00000100
,  // measure 51
00000010
00000000
00001000
00000001
00000100
00000000
00000010
00010000
00001000
00000000
10000000
00010000
10000000
00000000
01000000
00100000
,  // measure 52
00010000
00000000
10000000
00001000
01000000
00000000
00100000
01000000
00001000
00000000
00010000
00000100
00010000
00000000
00000100
00000010
,  // measure 53
00000001
00000000
00001000
00000010
00001000
00000000
00000010
00010000
00002000
00000000
00000000
00000000
00013000
00000000
00000200
00000000
,  // measure 54
00000000
00000000
00001300
00000000
00001100
00000000
00001000
00000100
00010000
00000000
01000000
10000000
00010000
00000000
00100000
01000000
,  // measure 55
00100000
00000000
00001000
01000000
00010000
00000000
00100000
00010000
00100000
00000000
02010000
00000000
00000000
00000000
03200000
00000000
,  // measure 56
00000000
10300000
01000000
00210000
00000000
00301000
00010000
00002000
,  // measure 57
00000000
00013000
0001M000
00000100
00000010
00000001
00001000
00000002
,  // measure 58
00000000
00001003
00000100
00000000
00101000
00000000
00000000
00000000
;

//---------------dance-double - x0_000----------------
#NOTES:
     dance-double:
     x0_000:
     Hard:
     8:
     0.481,0.462,0.085,0.132,0.151: // measure 1
00000000
00000000
00000000
00000000
,  // measure 2
00000000
00000000
00000000
00000000
,  // measure 3
00000000
00000000
00000000
00000000
10000000
00010000
01000000
00000000
,  // measure 4
00001000
00000000
00010000
00000000
00000100
00001000
00000010
00000000
,  // measure 5
00000100
00000000
00000001
00000000
00001000
00000100
00000010
00000000
,  // measure 6
00000100
00000000
00010000
00000000
00001000
01000000
00100000
00000000
,  // measure 7
01000000
00000000
00010000
00000000
00100000
00001000
00010000
00000000
,  // measure 8
00000100
00000000
00001000
00000000
00000010
00010000
00001000
00000000
,  // measure 9
00100000
00000000
01000000
00000000
10000000
00100000
01000000
00000000
,  // measure 10
00010000
00100000
00022000
00000000
,  // measure 11
00000000
00000000
00000000
00000000
00033000
00000000
00000000
00000000
00001001
00000000
00000000
00000001
00000100
00000000
00000000
00000100
,  // measure 12
00001000
00000000
00000000
00001000
00010000
00000000
00000000
00010000
01000000
00000000
00000000
01000000
10000000
00000000
00000000
10000000
,  // measure 13
00100000
00000000
01000000
00000000
00010000
00000000
00000000
00010000
00100000
00000000
00000000
00100000
01000000
00000000
00000000
01000000
,  // measure 14
00010000
00000000
00000000
00010000
00001000
00000000
00000000
00001000
00000100
00000000
00000000
00000100
00000001
00000000
00000000
00000001
,  // measure 15
00000010
00000000
00000100
00000000
00000010
00000000
00000000
00000010
00001000
00000000
00000000
00001000
00010000
00000000
00000000
00010000
,  // measure 16
00100000
00000000
00000000
00100000
10000000
00000000
00000000
10000000
01000000
00000000
00000000
01000000
00010000
00000000
00000000
00010000
,  // measure 17
00001000
00010000
00100000
00000000
00022000
00000000
00000000
00000000
,  // measure 18
00000000
00000000
00000000
00000000
,  // measure 19
00100000
00000000
00033010
00000000
00010000
00000010
00001000
00000100
,  // measure 20
00010000
00000010
00001000
00000100
00000010
00000100
00000000
00010M00
,  // measure 21
00000000
000M1000
00100000
0001M000
00000000
010M0000
00000000
0M001000
,  // measure 22
00000000
0001M000
01000000
100M0000
00000000
M1000000
00000000
0M010000
,  // measure 23
00000000
000M1000
00000000
0000M010
00000100
000010M0
00000010
00010000
,  // measure 24
00000100
00001000
00000010
00010000
00001000
00100000
00000000
01M00000
,  // measure 25
00000000
0M100000
00001000
00M10000
00000000
001M0000
10000000
01M00000
,  // measure 26
00100000
00001000
00010000
01000000
00100000
00001000
00010000
01000000
,  // measure 27
00100000
00001000
00010000
00000100
00000220
00000000
00000000
00000000
,  // measure 28
00000000
00000000
00000000
00000330
,  // measure 29
00000011
00000000
00000000
00000000
00000101
00000000
00000000
00000000
00010010
00000000
00000000
00000000
00010000
00000000
00001000
00100000
,  // measure 30
00001000
01000000
00010000
10000000
01000000
00010000
000M0000
01000000
,  // measure 31
0M000000
00000000
00100000
00001000
00100000
00000000
00020000
00000000
00000000
00000000
01030000
00000000
00001000
00000000
00010000
00000100
,  // measure 32
00010000
00000010
00001000
00000100
00000010
00000100
00000M00
00010000
,  // measure 33
000M0000
00000000
00001000
01000000
00001000
00000000
00020000
00000000
00000000
00000000
00030100
00000000
00001000
00000000
00000010
00000100
,  // measure 34
00000010
00010000
00001000
00100000
01000000
00100000
00M00000
00010000
,  // measure 35
000M0000
00000000
01000000
00100000
01000000
00000000
00020000
00000000
00000000
00000000
10030000
00000000
01000000
00000000
10000000
00100000
,  // measure 36
10000000
00010000
01000000
00001000
00010000
00000100
00000M00
00001000
,  // measure 37
0000M000
00000000
00000001
00000100
00000001
00000000
00000020
00000000
00000000
00000000
00001030
00000000
00010000
00000000
00001000
00100000
,  // measure 38
00001000
01000000
00010000
00100000
00001000
00010000
000M0000
00000010
,  // measure 39
000000M0
00000000
00010000
00001000
00010000
00000000
00000200
00000000
00000000
00000000
00001300
00000000
00000010
00000000
00010000
00001000
,  // measure 40
00010000
01000000
00100000
00010000
01000000
00100000
00M00000
10000000
,  // measure 41
M0000000
00000000
01000000
00100000
01000000
00000000
00010000
00000000
00002000
00000000
00000000
00000000
00000000
00000000
00000000
00000000
,  // measure 42
00000000
00000000
00013000
00000000
00000010
00000100
00000001
00001000
,  // measure 43
00000010
00000100
00000001
00001000
00000100
00010000
00000000
000M1000
,  // measure 44
00000000
0100M000
00010000
0M100000
00000000
01M00000
00000000
1M000000
,  // measure 45
00000000
M0100000
01000000
00M01000
00000000
0001M000
00000000
000M0100
,  // measure 46
00000000
00001M00
00000000
0000M010
00010000
00001000
00100000
01000000
,  // measure 47
00010000
00001000
00100000
01000000
00100000
00010000
00000000
100M0000
,  // measure 48
00000000
M0100000
01000000
00001000
00010000
00000100
00000010
00001000
,  // measure 49
00010000
00000100
00000010
00000001
00000100
00000010
00010000
00001000
,  // measure 50
00000100
00001000
00010000
00100000
01000000
00001000
00100000
00010000
,  // measure 51
01000000
00001000
00100000
00010000
01000000
00100000
00000000
00M10000
,  // measure 52
00000000
000M1000
00000010
0000M100
00000000
00001M00
00000000
0000M001
,  // measure 53
00000000
0000010M
00000010
00010M00
00000000
00000000
00010000
00001000
,  // measure 54
000M0000
0100M000
00000000
0M100000
10000000
00010000
01000000
00100000
,  // measure 55
10000000
00010000
01000000
00100000
10000000
01000000
00000000
0M010000
,  // measure 56
00000000
000M1000
00000100
00000001
00000010
00000100
00010000
00001000
,  // measure 57
00000010
00000100
00010000
00001000
00022000
00000000
00000000
00000000
,  // measure 58
00000000
00000000
01033100
00000000
;

//---------------dance-double - x0_000----------------
#NOTES:
     dance-double:
     x0_000:
     Medium:
     5:
     0.337,0.361,0.058,0.374,0.000: // measure 1
00000000
00000000
00000000
00000000
,  // measure 2
00000000
00000000
00000000
00000000
,  // measure 3
00000000
00000000
00000000
00000000
,  // measure 4
00000000
00000000
00000000
00000000
,  // measure 5
00000001
00000000
00000100
00000010
00000000
00000000
00010010
00000000
,  // measure 6
00001000
00000000
00010000
00000100
00000000
00000000
00011000
00000000
,  // measure 7
00001000
00000000
00100000
00010000
00000000
00000000
11000000
00000000
,  // measure 8
00010000
00000000
10000000
00100000
00000000
00000000
01010000
00000000
,  // measure 9
10000000
01000000
10000000
01000000
,  // measure 10
00100000
00001000
00010000
00000010
,  // measure 11
00001000
00000100
00001000
00000100
,  // measure 12
00000010
00000000
00000001
00000000
00000100
00000010
00000100
00000010
,  // measure 13
00010000
00001000
00010000
00001000
,  // measure 14
01000000
00010000
10000000
01000000
,  // measure 15
00100000
00001000
00100000
00001000
,  // measure 16
00010000
00000000
00000100
00000000
00001000
00000010
00001000
00000010
,  // measure 17
00000100
00000001
00000100
00000001
,  // measure 18
00001000
00000100
00010000
00001000
,  // measure 19
01000000
00100000
01000000
00100000
,  // measure 20
10000000
00000000
00010000
00000000
00100000
01000000
00100000
01000000
,  // measure 21
00100000
00001000
00100000
00001000
,  // measure 22
00010000
00000010
00001000
00000100
,  // measure 23
00001000
00000001
00001000
00000001
,  // measure 24
00002002
00000000
00000000
00003003
,  // measure 25
00002000
00000000
00000000
00003200
00000000
00000000
00020300
00000000
,  // measure 26
00032000
00000000
00000000
02003000
00000000
03200000
00000000
00000000
,  // measure 27
10300000
01000000
10000000
00010000
,  // measure 28
01000000
00001000
00010000
00000100
,  // measure 29
00002000
00000000
00000000
00003020
00000000
00000000
00000230
00000000
,  // measure 30
00000302
00000000
00000000
00002003
00000000
00003200
00000000
00000000
,  // measure 31
00010300
00001000
00100000
01000000
,  // measure 32
00100000
00010000
10000000
00100000
,  // measure 33
02000000
00000000
00000000
03002000
00000000
00000000
00023000
00000000
,  // measure 34
00030200
00000000
00000000
00002300
00000000
00003020
00000000
00000000
,  // measure 35
00000130
00000001
00001000
00000100
,  // measure 36
00000010
00000100
00010000
00001000
,  // measure 37
02000000
00000000
00000000
03020000
00000000
00000000
00230000
00000000
,  // measure 38
02300000
00000000
00000000
23000000
00000000
30020000
00000000
00000000
,  // measure 39
01030000
00001000
00010000
00000100
,  // measure 40
00001000
00000000
00000010
00000000
00010000
00001000
00010000
00001000
,  // measure 41
00010000
00000100
00010000
00000100
,  // measure 42
00001000
00000010
00001000
00000010
,  // measure 43
00010000
00001000
00010000
00001000
,  // measure 44
00100000
00000000
01000000
00100000
00000000
00000000
00000000
00000000
,  // measure 45
00010000
01000000
00010000
01000000
,  // measure 46
00001000
00010000
00001000
00010000
,  // measure 47
00000100
00000010
00000100
00000010
,  // measure 48
00000001
00000000
00001000
00000001
00000000
00000000
00000000
00000000
,  // measure 49
00000200
00000000
00000000
00000320
00000000
00000000
00020030
00000000
,  // measure 50
00032000
00000000
00000000
00203000
00000000
02300000
00000000
00000000
,  // measure 51
03100000
00010000
01000000
00100000
,  // measure 52
10000000
01000000
00100000
00001000
,  // measure 53
00020000
00000000
00000000
00030020
00000000
00000000
00002030
00000000
,  // measure 54
00003200
00000000
00000000
00000320
00000000
00000032
00000000
00000000
,  // measure 55
00000103
00000010
00010000
00001000
,  // measure 56
00100000
01000000
00100000
00010000
,  // measure 57
01100000
00000000
00000000
00000000
,  // measure 58
20000000
00000000
00000000
00000000
,  // measure 59
30000000
00000000
00000000
00000000
;
