#TITLE:Dynamite;
#SUBTITLE:;
#ARTIST:E-Rotic;
#TITLETRANSLIT:;
#SUBTITLETRANSLIT:;
#ARTISTTRANSLIT:;
#GENRE:Dance;
#CREDIT:;
#BANNER:Dynamite-bn.png;
#BACKGROUND:Dynamite-bg.png;
#LYRICSPATH:;
#CDTITLE:;
#MUSIC:Dynamite.ogg;
#OFFSET:-0.034;
#SAMPLESTART:28.340;
#SAMPLELENGTH:11.840;
#SELECTABLE:YES;
#BPMS:0.000=149.990;
#STOPS:;
#BGCHANGES:0.062=Dynamite.mpg=1.000=1=0=0=StretchNoLoop==CrossFade==,
99999=-nosongbg-=1.000=0=0=0 // don't automatically add -songbackground-;
#KEYSOUNDS:;

//---------------dance-single - K. Ward----------------
#NOTES:
     dance-single:
     K. Ward:
     Easy:
     3:
     0.214,0.307,0.130,0.158,0.000,130.000,14.000,17.000,6.000,0.000,0.000,0.214,0.307,0.130,0.158,0.000,130.000,14.000,17.000,6.000,0.000,0.000:
0000
0000
0000
0000
,
0000
0000
0000
0000
,
0000
0000
0000
0000
,
0010
0000
0000
0000
,
1000
0000
0000
0010
0000
0000
0000
0000
,
0001
0000
0000
0010
0000
0000
0000
0000
,
1000
0000
0000
0010
0000
0000
0000
0000
,
0100
0100
0100
0000
,
1000
0000
0000
0000
,
0001
0000
0000
0000
,
1000
0000
0000
0000
,
0100
0100
0100
0000
,
0001
0000
0000
0000
,
1000
0000
0000
0000
,
0001
0000
0000
0000
,
0220
0000
0330
0000
,
1001
0000
0000
0000
,
1000
0000
0001
0000
0000
1001
0000
0000
,
0010
0010
0010
0000
,
0001
0000
0100
0000
,
1000
0000
1000
0000
1000
0000
0000
0001
,
0000
0000
0000
1000
0000
0000
0000
0000
,
0001
0001
0001
0000
,
1001
M00M
0000
0000
,
0100
0000
0100
0000
0100
0000
0000
0010
,
0000
0000
0000
0010
0000
0000
0000
0000
,
0002
0000
0000
0003
0000
0000
0000
0000
,
2000
0000
0000
3000
0000
0000
0000
0000
,
0002
0000
0000
0003
0000
0000
0000
0000
,
0100
0010
0100
0010
,
2000
0000
0000
3000
0000
0000
0000
0000
,
0002
0000
0000
0003
0000
0000
0000
0000
,
2000
0000
0000
3000
0000
0000
0000
0000
,
0100
0010
0100
0010
,
0100
0100
0100
0100
,
0200
0000
0300
0000
,
1001
0000
0000
0000
,
1000
1000
1000
0000
,
0110
0000
0000
0000
,
0001
0001
0001
0000
,
0110
0000
0000
0000
,
1000
0001
1000
0000
,
0100
0000
0010
0000
,
0100
0M10
0100
00M0
,
1001
0000
0000
0000
,
0010
0000
0100
0000
0000
0110
0000
0000
,
1000
1000
1000
0000
,
0100
0000
0010
0000
,
0001
0000
0001
0000
0001
0000
0000
0100
,
0000
0000
0000
0010
0000
0000
0000
0000
,
1000
1000
1000
0000
,
0110
0MM0
0000
0000
,
0001
0000
1000
0000
0001
0000
0000
0100
,
0000
0000
0000
0100
0000
0000
0000
0000
,
2000
0000
0000
3000
0000
0000
0000
0000
,
0002
0000
0000
0003
0000
0000
0000
0000
,
2000
0000
0000
3000
0000
0000
0000
0000
,
0100
0010
0100
0010
,
0002
0000
0000
0003
0000
0000
0000
0000
,
2000
0000
0000
3000
0000
0000
0000
0000
,
0200
0000
0000
0300
0000
0000
0000
0000
,
0001
0100
0010
0100
,
1001
0010
1001
0100
,
2002
0000
3003
0000
,
0010
1000
0100
0010
,
0001
1000
0010
0100
,
1001
0000
0000
0000
;

//---------------dance-single - K. Ward----------------
#NOTES:
     dance-single:
     K. Ward:
     Challenge:
     9:
     0.555,0.589,0.354,0.140,0.098,364.000,38.000,15.000,145.000,0.000,0.000,0.555,0.589,0.354,0.140,0.098,364.000,38.000,15.000,145.000,0.000,0.000: // measure 1
0000
0000
0000
0000
,  // measure 2
0000
0000
0000
0000
,  // measure 3
0000
0000
0000
0MM0
,  // measure 4
M11M
0000
0MM0
M00M
0000
2001
0MM0
3000
,  // measure 5
0001
0100
1000
0200
0000
0310
1000
0100
,  // measure 6
0010
0001
0010
0200
0000
1300
0001
1000
,  // measure 7
0100
0010
0001
0020
0000
0130
1000
0010
,  // measure 8
0001
0000
0000
0000
0010
0000
0000
0000
0100
0010
0100
0010
0100
0000
0001
0000
,  // measure 9
1001
0000
1000
0000
0100
0000
0010
0000
0100
0000
0010
0100
0000
0000
0000
0000
,  // measure 10
1000
0001
1000
0000
0001
0000
0001
0000
0100
0000
0001
0100
0000
0000
0000
0000
,  // measure 11
0001
0000
0100
0000
1000
0000
0100
0000
0001
0000
1000
0001
0000
0000
0000
0000
,  // measure 12
0010
0000
0100
0000
1000
0000
0100
0000
0010
0000
0100
1000
0000
0000
0M00
000M
,  // measure 13
0002
0000
0100
0000
0103
0000
0M00
0000
0010
0000
0100
0010
0000
0000
0M00
M000
,  // measure 14
2000
0000
0100
0000
3100
0000
0M00
0000
0010
0000
0100
0010
0000
0000
0M00
000M
,  // measure 15
0002
0000
1000
0000
1003
0000
M000
0000
0100
0000
0010
0100
0000
0000
00M0
0000
,  // measure 16
0001
0100
1000
0100
0001
0010
0100
0010
,  // measure 17
2002
0000
3003
M00M
,  // measure 18
10MM
0001
MM10
0000
01MM
0010
MM01
0000
,  // measure 19
00MM
0100
M000
0M10
000M
1000
00M0
M100
,  // measure 20
000M
0M10
0000
00M1
0000
1M0M
0001
1001
,  // measure 21
0000
M10M
0000
0M10
0000
10M0
0M00
M001
,  // measure 22
0000
0M1M
M000
01M0
0000
0M10
M100
001M
,  // measure 23
0M00
10M1
0000
010M
M000
0M01
0000
1M0M
,  // measure 24
0000
1100
0000
MM1M
0000
0M11
0000
010M
,  // measure 25
0000
1MM0
0000
M100
0000
0101
0000
0M1M
,  // measure 26
0000
01M0
0000
1M00
0000
0110
0000
0MM0
,  // measure 27
0001
1000
0001
0100
0000
0110
0000
1000
,  // measure 28
1000
0000
0100
0000
0010
0000
0100
0000
0000
0000
0110
0000
0000
0000
0001
0010
,  // measure 29
0001
0010
0100
0010
0000
0101
0000
0000
,  // measure 30
1000
0100
0001
0000
1000
0100
0001
0000
,  // measure 31
0100
0010
0100
1000
0000
1010
0000
0001
,  // measure 32
0001
0000
0100
0000
1000
0000
0100
0000
0000
0000
0011
0000
0000
0000
1000
0010
,  // measure 33
1000
0100
0010
0100
0000
1001
0000
0000
,  // measure 34
1000
0100
0010
0000
1000
0100
0001
0000
,  // measure 35
0100
0010
0100
1000
0100
0010
0100
1000
,  // measure 36
0200
0010
1000
0310
,  // measure 37
1001
0000
1000
0000
0100
0000
0010
0000
0001
0000
0010
0100
0000
0000
M000
0000
,  // measure 38
0001
0000
0100
0000
0010
0000
0001
0000
0010
0000
0100
0010
0000
0000
0M00
0000
,  // measure 39
1000
0000
0100
0000
0010
0000
0100
0000
0010
0000
0001
0010
0000
0000
0M00
0000
,  // measure 40
1000
0000
0100
0000
0001
0000
0100
0000
1000
0000
0100
1000
0000
0000
0M00
0000
,  // measure 41
0010
0100
M001
0010
010M
1000
1100
0000
,  // measure 42
MM10
0100
0001
0010
010M
0010
0101
0000
,  // measure 43
1M0M
0100
0010
MM01
0010
010M
0210
0000
,  // measure 44
13M0
0100
0001
0100
1000
0100
0010
0100
,  // measure 45
2002
0000
3003
M00M
,  // measure 46
01MM
0010
MM01
0000
001M
0100
10M0
0M00
,  // measure 47
M000
0001
0M00
M01M
0000
01M0
000M
1M00
,  // measure 48
00M0
M001
0000
010M
0000
MM10
0110
0010
,  // measure 49
0000
1MM0
0000
M001
0000
001M
MM00
10M0
,  // measure 50
0000
M010
0000
0MM1
0000
M01M
0100
0010
,  // measure 51
M000
011M
0000
10M0
0M00
M010
0000
M1M0
,  // measure 52
0000
1100
0000
MM1M
0000
M011
0000
10M0
,  // measure 53
0000
M10M
0000
0M10
0000
1010
0000
M0M1
,  // measure 54
0000
010M
0000
M110
0000
1001
0000
M00M
,  // measure 55
0010
0100
0010
0001
0000
1001
0000
0100
,  // measure 56
0010
0000
0001
0000
0010
0000
0100
0000
0000
0000
0011
0000
0000
0000
1000
0100
,  // measure 57
1000
0001
0010
0100
0000
1100
0000
0000
,  // measure 58
0001
0100
1000
0000
0001
0100
1000
0000
,  // measure 59
0100
0001
1000
0100
0000
0101
0000
0010
,  // measure 60
0010
0000
0100
0000
1000
0000
0100
0000
0000
0000
0110
0000
0000
0000
0001
1000
,  // measure 61
0001
1000
0100
0010
0000
1100
0000
0000
,  // measure 62
0100
0010
0001
0000
0100
1000
0100
0000
,  // measure 63
0001
1000
0010
1000
0100
1000
0010
1000
,  // measure 64
0001
0010
0100
1000
0001
0010
0100
1000
,  // measure 65
0010
0001
0010
0100
1000
0100
0001
0010
,  // measure 66
0110
1000
0110
0001
0110
1000
0100
0010
,  // measure 67
2002
0000
3003
0000
;

//---------------dance-single - J. Frederick----------------
#NOTES:
     dance-single:
     J. Frederick:
     Beginner:
     1:
     0.104,0.154,0.140,0.019,0.000,61.000,15.000,2.000,0.000,0.000,0.000,0.104,0.154,0.140,0.019,0.000,61.000,15.000,2.000,0.000,0.000,0.000:
0000
0000
0000
0000
,
0000
0000
0000
0000
,
1000
0000
0000
0000
,
2002
3003
0000
0000
,
1000
0000
0000
0000
,
0001
0000
0000
0000
,
0010
0000
0000
0000
,
0100
0000
0000
0000
,
1000
0000
0000
0000
,
0100
0000
0000
0000
,
0010
0000
0000
0000
,
0001
0000
0000
0000
,
1000
0000
0000
0000
,
0100
0000
0000
0000
,
0010
0000
0000
0000
,
0001
0000
0000
0000
,
1001
0000
0000
0000
,
0100
0000
0000
0000
,
0010
0000
0000
0000
,
1000
0000
0000
0000
,
0001
0000
0000
0000
,
0010
0000
0000
0000
,
0100
0000
0000
0000
,
1000
0000
0000
0000
,
0001
0000
0000
0000
,
0100
0000
0000
0000
,
0110
0000
0000
0000
,
1001
0000
0000
0000
,
0110
0000
0000
0000
,
0000
0000
0000
0000
,
1001
0000
0000
0000
,
0110
0000
0000
0000
,
1001
0000
0000
0000
,
0000
0000
0000
0000
,
1000
0000
0000
0000
,
0000
0000
0000
0000
,
0001
0000
0000
0000
,
0010
0000
0000
0000
,
0100
0000
0000
0000
,
1000
0000
0000
0000
,
0001
0000
0000
0000
,
0010
0000
0000
0000
,
0100
0000
0000
0000
,
1000
0000
0000
0000
,
1001
0000
0000
0000
,
0100
0000
0000
0000
,
0010
0000
0000
0000
,
1000
0000
0000
0000
,
0001
0000
0000
0000
,
1000
0000
0000
0000
,
0100
0000
0000
0000
,
0010
0000
0000
0000
,
0001
0000
0000
0000
,
1000
0000
0000
0000
,
1001
0000
0000
0000
,
0110
0000
0000
0000
,
1001
0000
0000
0000
,
0000
0000
0000
0000
,
0010
0000
0000
0000
,
0100
0000
0000
0000
,
1000
0000
0000
0000
,
0001
0000
0000
0000
,
1001
0000
0000
0000
,
0110
0000
0000
0000
,
1000
0000
0000
0000
,
0001
0000
0000
0000
,
1001
0000
0000
0000
;

//---------------dance-single - J. Frederick----------------
#NOTES:
     dance-single:
     J. Frederick:
     Medium:
     6:
     0.530,0.465,0.391,0.093,0.000,346.000,42.000,10.000,0.000,0.000,0.000,0.530,0.465,0.391,0.093,0.000,346.000,42.000,10.000,0.000,0.000,0.000:
0000
0000
0000
0000
,
0000
0000
0000
0000
,
0000
0000
0000
0000
,
1001
0000
0100
0010
0000
0010
0100
0010
,
1010
0000
0101
0000
0010
0100
1000
0000
,
1100
0000
0011
0000
0100
0001
1000
0000
,
1001
0000
0110
0000
1000
0010
1000
0000
,
1010
0000
0101
0000
0010
0100
1000
0100
,
0010
0000
0001
0000
0100
0010
1000
0000
,
0001
0010
0100
1000
0100
0010
0001
0000
,
0100
0000
0010
0000
1000
0010
0100
0000
,
0001
0010
0001
0100
0001
0010
0001
0000
,
1000
0010
0100
0000
0100
0010
1000
0000
,
1000
0100
0010
0001
0010
0100
1000
0000
,
1000
0010
0100
0000
0100
0001
0010
0000
,
0010
0001
0100
0001
1000
0010
0100
0000
,
0110
2002
0000
3003
,
1001
1001
1001
1001
,
0100
0010
1000
0010
0100
0000
0001
0010
,
0000
0010
0000
0100
0000
0100
1000
0010
,
0000
0010
0100
0001
0010
0000
0001
1000
,
0000
0001
0000
1000
0000
0001
0000
0100
,
0010
1000
0010
0100
0001
0000
0010
0100
,
0000
0100
1000
0100
0000
0010
0001
0100
,
0000
0001
1000
0010
0100
0000
0010
1000
,
0000
0010
0000
0100
0000
0001
0000
0000
,
0010
0100
1000
0100
0000
0100
0010
0001
,
0100
0001
1000
0001
0000
0001
0100
0010
,
1000
0010
0100
0001
0000
0001
0010
0100
,
1100
0011
0101
1001
,
0100
0010
1000
0010
0000
0010
0100
0001
,
0010
0001
1000
0001
0000
0001
0010
0100
,
1000
0100
0010
0001
0000
0001
0100
0010
,
0110
1010
0101
0011
,
1000
0001
1000
0000
0001
0000
1000
0000
,
0001
1000
0001
1000
,
1001
0000
0110
0000
1000
0010
1000
0000
,
0001
0010
0100
1000
0100
0010
0001
0000
,
0100
0000
0001
0000
1000
0010
0100
0000
,
0001
0010
0001
0100
0001
0010
0001
0000
,
1000
0010
0001
0000
0001
0010
1000
0000
,
1000
0100
0001
0000
0001
0100
1000
0000
,
0100
0010
0001
0000
0001
0010
0100
0000
,
1100
0011
0101
1001
,
0110
2002
0000
0000
,
0000
0000
0000
3003
,
1000
0010
0100
0000
0001
0010
0100
1000
,
0000
0100
0000
0010
0000
0001
0100
0001
,
1000
0010
0100
0010
1000
0000
0100
0010
,
0000
0001
0000
1000
0000
0001
1000
0001
,
0100
0000
0010
1000
0010
0000
0100
0001
,
0000
0010
0100
1000
0000
0100
0010
0001
,
0100
0001
1000
0010
0100
0000
0010
1000
,
0000
0001
0000
0010
0000
0100
0000
0000
,
1000
0100
0010
0001
0000
0001
0100
0001
,
1000
0010
0100
0010
0000
0010
1000
0001
,
0010
0100
1000
0100
0000
0100
0010
0001
,
0011
1100
1010
0101
,
0010
0001
1000
0010
0000
0010
0100
0001
,
0010
0100
1000
0100
0000
0100
0010
0001
,
0100
0001
1000
0010
0000
0010
0100
0010
,
0110
1010
0101
0110
,
2002
0000
0000
3003
,
0220
0000
0000
0330
,
1000
0010
0100
0000
0001
0010
0100
0000
,
1000
0100
0010
0001
0100
0001
0100
0000
,
2002
0000
3003
0000
;

//---------------dance-single - ----------------
#NOTES:
     dance-single:
     :
     Hard:
     8:
     0.531,0.523,0.466,0.307,0.009,316.000,50.000,33.000,61.000,8.000,0.000,0.531,0.523,0.466,0.307,0.009,316.000,50.000,33.000,61.000,8.000,0.000:
0000
0000
0000
0000
,
0000
0000
0000
0000
,
2002
0000
0000
0000
,
3000
0000
1000
0000
1000
0003
1000
0000
,
1000
0100
0010
0001
0010
0100
1000
0000
,
M001
0010
0100
1000
0100
0010
0001
0000
,
010M
0010
0100
0010
0100
0010
0100
0010
,
1MM1
M11M
1MM1
M11M
,
1000
0100
1000
0100
0010
0001
0100
0000
,
0100
0001
0100
0001
1000
0100
0010
0000
,
2001
001M
01M0
3M01
,
012M
1M00
M001
013M
,
0010
0000
0010
0000
0010
1000
0002
0000
,
0103
0000
0100
0000
0100
0001
2000
0000
,
3100
0010
0001
0100
1000
0100
0001
0100
,
1000
0000
0100
0000
0001
0000
0100
0000
1000
0000
0200
0002
0000
0000
0000
0000
,
1000
0010
1000
0313
,
0000
M000
0000
00M0
0000
M000
0000
0000
,
0000
0101
0000
1001
0000
1000
0100
1000
,
0000
1100
0000
1001
0000
0001
0100
0001
,
0000
1001
0000
0110
0000
1000
0001
2000
,
0MM0
3002
0MM0
2003
0MM0
3001
1000
0010
,
0100
0001
0010
0100
1000
0000
0001
0100
,
0000
0001
0000
0100
0000
1000
0100
M001
,
0010
0100
0001
0100
1000
0000
0001
0200
,
0000
0302
0000
0203
0000
0310
0000
00M0
,
1001
0000
1000
0001
000M
0001
1000
0000
,
0110
0000
0010
0100
0M00
0100
0010
0000
,
2000
0000
0001
0100
0M00
0100
3001
0000
,
1100
0011
0101
1010
,
1001
0000
0001
1000
M000
1000
0001
0000
,
0110
0000
0100
0010
00M0
0010
0100
0000
,
0002
0000
1000
0010
00M0
0010
1003
0000
,
0011
1100
1010
0101
,
2002
0000
0000
0000
,
3003
1000
M001
100M
,
1000
0100
1000
0100
0010
0001
0100
0000
,
0100
0001
0100
0001
1000
0100
0010
0000
,
2001
001M
01M0
3M01
,
012M
1M00
M001
013M
,
0010
0000
0010
0000
0010
1000
0002
0000
,
0103
0000
0100
0000
0100
0001
2000
0000
,
3100
0010
0001
0100
1000
0100
0001
0100
,
1000
0000
0100
0000
0001
0000
0100
0000
1000
0000
0200
0002
0000
0000
0000
0000
,
1000
0010
1000
0313
,
0000
M000
0000
00M0
0000
M000
0000
0000
,
0000
0101
0000
1001
0000
1000
0100
1000
,
0000
1100
0000
1001
0000
0001
0100
0001
,
0000
1001
0000
0110
0000
1000
0001
2000
,
0MM0
3002
0MM0
2003
0MM0
3001
1000
0010
,
0100
0001
0010
0100
1000
0000
0001
0100
,
0000
0001
0000
0100
0000
1000
0100
M001
,
0010
0100
0001
0100
1000
0000
0001
0200
,
0000
0302
0000
0203
0000
0310
0000
00M0
,
1001
0000
1000
0001
000M
0001
1000
0000
,
0110
0000
0010
0100
0M00
0100
0010
0000
,
2000
0000
0001
0100
0M00
0100
3001
0000
,
1100
1001
0101
1001
,
1000
0001
0100
0010
1000
0001
0100
0010
,
0100
1000
0100
0010
0100
1000
0100
0001
,
0010
0100
0001
0100
1000
0010
0100
0000
,
1001
0110
1001
0110
,
2200
0000
0000
0000
,
0000
0000
3300
1100
,
0011
0000
0101
0000
0010
0100
0010
0000
,
1001
0000
0110
0000
1000
0001
1000
0000
,
MMMM
0000
0000
0000
;
