#TITLE:Dream to Nightmare;
#SUBTITLE:;
#ARTIST:Nightmare;
#TITLETRANSLIT:;
#SUBTITLETRANSLIT:;
#ARTISTTRANSLIT:;
#GENRE:Assault;
#CREDIT:;
#BANNER:Dream to Nightmare-bn.png;
#BACKGROUND:Dream to Nightmare-bg.png;
#LYRICSPATH:;
#CDTITLE:;
#MUSIC:Dream to Nightmare.ogg;
#OFFSET:-0.045;
#SAMPLESTART:48.596;
#SAMPLELENGTH:12.000;
#SELECTABLE:YES;
#DISPLAYBPM:89.000:356.000;
#BPMS:0.000=89.000,14.000=178.000,19.500=89.000,19.750=44.500,20.500=356.000,21.000=178.000,24.500=89.000,24.750=44.500,25.500=356.000,26.000=178.000,29.500=89.000,29.750=44.500,30.500=356.000,31.000=178.000,34.500=237.333,35.500=356.000,40.000=178.000,54.000=356.000,56.000=178.000,58.000=356.000,62.000=178.000,63.000=267.000,66.000=178.000,69.500=356.000,74.000=89.000,97.000=178.000,104.000=356.000,105.000=178.000,112.000=356.000,113.000=178.000,120.000=356.000,133.000=267.000,139.000=178.000,143.000=89.000,143.500=356.000,190.000=267.000,193.000=178.000,220.000=356.000,227.000=178.000,243.000=89.000,244.000=356.000,245.000=178.000,248.500=356.000,251.000=178.000,258.000=89.000,261.000=178.000,264.000=267.000,269.250=176.000,276.000=89.000;
#STOPS:14.000=0.169
,14.500=0.084
,14.750=0.084
,15.000=0.084
,15.250=0.084
,15.500=0.169
,20.750=0.253
,25.750=0.253
,30.750=0.253
,34.500=0.126
,35.000=0.126
,35.500=0.042
,36.500=0.042
,37.000=0.084
,37.500=0.084
,38.000=0.084
,38.500=0.084
,39.000=0.084
,39.500=0.169
,39.750=0.253
,51.500=0.084
,52.500=0.084
,53.500=0.169
,58.500=0.084
,59.000=0.084
,59.500=0.084
,60.000=0.084
,69.500=0.084
,70.000=0.084
,70.500=0.084
,71.000=0.084
,71.500=0.084
,72.000=0.084
,72.500=0.084
,73.000=0.084
,73.500=0.084
,104.000=0.042
,104.250=0.042
,104.500=0.042
,104.750=0.042
,112.000=0.042
,112.250=0.042
,112.500=0.042
,112.750=0.042
,120.000=0.042
,120.250=0.042
,120.500=0.042
,120.750=0.042
,121.000=0.084
,121.500=0.420
,122.000=0.084
,122.500=0.420
,123.000=0.084
,123.500=0.420
,124.000=0.084
,124.500=0.420
,144.000=0.337
,144.500=0.253
,200.500=1.348
,201.000=0.505
,202.000=0.169
,220.500=0.084
,221.000=0.084
,221.500=0.084
,222.000=0.084
,222.500=0.084
,223.000=0.084
,223.500=0.084
,224.000=0.084
,224.500=0.084
,225.000=0.084
,225.500=0.084
,226.000=0.084
,226.500=0.084
,227.000=0.084
,244.000=0.253
,244.500=0.253
,248.500=0.253
,249.000=0.253
,249.500=0.253
,250.000=0.253
,250.500=0.084
,264.000=0.028
,264.250=0.028
,264.500=0.028
,264.750=0.028
,265.000=0.028
,265.250=0.028
,265.500=0.028
,265.750=0.028
,266.000=0.028
,266.250=0.028
,266.500=0.028
,266.750=0.028
,267.000=0.028
,267.250=0.028
,267.500=0.028
,267.750=0.028
,268.000=0.028
,268.250=0.028
,268.500=0.028
,268.750=0.028
,269.000=0.028
,269.250=0.084
,269.500=0.084
,269.750=0.084
;
#BGCHANGES:0.031=Dream to Nightmare.mpg=1.000=1=0=0=StretchNoLoop==CrossFade==,
99999=-nosongbg-=1.000=0=0=0 // don't automatically add -songbackground-;
#KEYSOUNDS:;

//---------------dance-single - D. D'Amato----------------
#NOTES:
     dance-single:
     D. D'Amato:
     Challenge:
     12:
     0.780,0.948,0.573,0.227,0.601,512.000,63.000,25.000,65.000,1.000,0.000,0.780,0.948,0.573,0.227,0.601,512.000,63.000,25.000,65.000,1.000,0.000:
0000
0000
0000
0000
,
0000
0000
0000
0000
,
0000
0000
0000
0000
,
0000
0000
0000
0000
0000
0000
0000
0000
1010
0000
0001
0010
0001
1000
M0M0
0000
,
0010
0000
1010
0000
0000
0000
0101
0000
0000
0000
1000
0000
0001
1000
0200
0000
,
0000
0000
0000
0000
0000
0000
0300
0000
00M0
0000
0M00
0000
0010
0000
0000
0000
0000
0000
0001
0000
0000
1000
0000
0000
0100
0000
0000
0000
0000
0000
1100
0000
0000
0000
0000
0000
0000
0000
0000
0000
0000
0000
0011
0000
0000
0000
0000
0000
,
1000
0000
0000
0001
0000
0000
0200
0000
0000
0000
0000
0000
0000
0000
0000
0000
0000
0000
0300
0000
00M0
0000
0M00
0000
0010
0000
0000
0000
0000
0000
1000
0000
0000
0001
0000
0000
0100
0000
0000
0010
0000
0000
1000
0000
0000
0000
0000
0000
,
0000
0000
0000
0000
0000
0000
1001
0000
0MM0
0000
0000
0000
M00M
0000
0000
0000
0000
0000
0210
0000
0000
0000
0000
0000
0000
0000
0000
0000
0000
0000
0300
0000
00M0
0000
0M00
0000
0010
0000
0000
0000
0000
0000
0001
0000
0000
1000
0000
0000
,
0100
0000
0000
1000
0000
0000
0010
0000
0000
0000
0000
0000
1000
0000
0000
0000
0000
0000
0001
0000
0000
0010
0000
0000
0001
0000
0000
0100
0000
0000
0001
0000
1000
0000
0000
0000
0001
0000
1000
0000
0000
0000
0001
0000
0000
0000
0000
0000
,
0100
0000
0010
0000
1000
0000
1100
0000
0110
0000
0011
0000
0101
0000
0110
M00M
,
1002
0000
0000
0000
1010
0M00
0000
0103
,
0000
0000
0110
0000
0001
0100
0001
1000
0010
0000
1000
0001
0100
0001
0010
0100
,
1000
0000
0100
0000
0010
0000
0001
0000
0010
0100
0010
0001
0100
0001
0010
0100
,
1000
0010
1000
0100
0010
0001
0100
0001
0020
0000
0M00
0000
0M00
0000
0M00
0000
,
0130
0000
0000
0000
0010
0100
1000
0010
,
1000
0001
0100
0001
1000
0001
0010
0100
,
0010
0000
0001
0000
1000
0000
0010
0000
1010
0000
0000
MMMM
0000
0000
0101
0000
,
0000
MMMM
0000
0000
0000
0000
0100
0000
1010
0000
0001
0000
1000
0000
0010
0000
,
0102
0013
2100
3010
0201
0000
0000
0000
,
0000
0000
0000
0000
,
0000
0000
0000
0000
0000
0000
0000
0000
0310
0000
0000
0000
1001
0000
0000
0000
0110
0000
0000
0000
0001
0000
1000
0000
0010
0100
0010
0000
1000
0000
0000
0000
,
1001
0000
0001
0000
0010
0000
0100
0010
0100
0000
0000
0000
0010
0000
0001
1000
0001
0000
0100
0000
0000
0000
0101
0000
0010
0000
0000
0000
1010
0000
0100
0000
,
0000
0000
1001
0000
0020
0000
0000
0000
1030
0001
0100
0000
0001
1000
0100
0000
1001
0000
0000
0000
0000
0000
0000
0000
0000
0000
0110
0000
0000
0000
1001
0000
,
0100
0000
0010
0000
0000
0000
0000
0000
1001
0000
0010
0000
0000
0000
1000
0000
0200
0000
0000
0000
0000
0000
0310
0001
1000
0000
0000
0000
1000
0000
0011
0000
,
0000
0001
1100
0000
0010
0000
0001
0000
1000
0010
0100
0000
0010
0000
1000
0000
,
0100
0010
0001
1000
0010
0000
0100
0001
0010
0100
1000
0000
0010
0000
0100
0000
,
0020
0000
M000
0000
0130
0000
0001
0000
0010
0100
1000
0000
0010
0000
0100
0001
,
1000
0100
0010
0001
1000
0000
0010
1000
0001
0010
0100
0000
0010
0001
1000
0100
,
0020
0000
000M
0000
0130
0000
1000
0000
0001
0000
1000
0100
0010
0000
0001
0000
,
0100
0010
1000
0001
0010
0000
0100
1000
0001
0100
0010
1000
0001
0000
0100
0000
,
0020
M000
0130
1000
0M10
0001
01M0
1000
,
0M10
0001
0100
0010
2000
0000
3010
0100
,
0002
0000
0013
0100
2000
0000
3100
0010
,
0002
0000
1003
0010
1000
0010
0100
0001
,
0100
0001
1000
0100
1000
0100
0000
1100
,
0000
0101
0000
1001
0000
0200
0000
0000
,
0000
0000
0000
0000
0000
0000
0000
0000
0000
0300
0000
0000
0000
0000
0000
0000
0000
0000
0000
0000
0000
0000
0000
0000
MMMM
0000
0000
0000
0000
0000
0000
0000
1000
0000
0000
0000
0000
0000
0000
0000
0000
0000
0000
0000
0000
0000
0000
0000
0100
0000
0000
0000
0000
0000
0000
0000
1000
0000
0000
0000
0000
0000
0000
0000
,
0100
0000
1000
0100
1000
0100
1000
0000
,
0100
1000
0100
0000
0010
0000
0001
0010
,
0001
0000
0010
0001
0010
0001
0010
0000
,
0001
0010
0001
0000
0100
0000
0010
0100
,
0010
0000
0100
0010
0100
0010
0100
0000
,
0010
0100
0010
0000
1000
0000
0001
1000
,
0001
0000
1000
0001
1000
0001
1000
00M0
,
0100
0010
M000
0001
1000
000M
0010
0100
,
0010
000M
1000
0001
1000
0100
0010
0000
,
0001
1000
0010
M000
0100
M000
0010
1000
,
0001
0000
0010
0001
1000
0010
0100
0001
,
1000
0010
0100
000M
0010
0100
M000
0010
,
000M
0000
1000
0001
1000
0000
0010
0000
1000
0000
0001
0000
0100
0000
0010
0000
,
1000
0100
1001
0010
0100
1001
0010
0100
,
1001
0000
0010
0000
0100
0000
1001
0000
0MM0
1001
0000
1001
0MM0
0000
1001
0000
,
0010
0000
0000
0100
0000
0000
1001
0000
0000
0010
0000
0000
1M01
0000
0000
10M1
0000
0000
0100
0000
0000
1001
00M0
0000
,
0000
0000
0000
1001
0M00
0000
0000
0000
0000
0000
0000
0000
10M1
0000
0000
0000
0000
0000
0000
0000
0M00
1000
0000
0000
0001
0000
0000
0000
00M0
0000
1000
0000
0000
0000
0000
0000
0M01
0000
0000
0000
0000
0000
1000
0000
00M0
0001
0000
0000
,
1000
0100
1001
0010
1001
0100
M00M
0010
,
1000
0001
0011
1000
1010
0001
0101
1000
,
1100
0000
0001
0000
0110
0000
0001
0000
1000
0000
0110
0000
2000
0000
3100
0010
,
0100
0000
1000
0000
0010
0100
0010
0000
1000
0000
0002
0000
0103
0000
0010
0100
,
0010
1000
0001
0010
0100
0000
0010
0000
0001
0000
1000
0001
0100
0000
0010
1000
,
0001
0010
0100
1000
0100
0000
0010
0001
0010
0000
0100
1000
0001
0000
0100
0000
,
0010
0000
0M00
0000
0010
0000
0100
0001
0010
0000
0100
1000
0020
0000
0000
0000
,
0000
0030
0110
0000
1000
0001
1000
0100
0010
0001
1000
0010
0100
0001
0000
0100
,
0010
1000
0001
0000
0110
0000
1001
0000
0110
0000
1000
0000
0001
1000
0010
0000
,
0100
0000
0010
1000
0001
0000
0010
0000
0100
0000
1000
0001
0010
0100
1000
0000
,
0001
0010
0100
1000
0000
0000
0001
00M0
0M00
1000
0000
0000
0220
0000
0000
0000
0000
0000
0000
0000
0000
0000
0000
0000
,
0000
0000
0000
0000
0000
0000
0000
0330
,
0001
1000
0001
1000
0010
0100
0010
0100
0001
0010
0001
0010
0100
1000
0100
1000
,
0010
0100
0010
0100
0001
1000
0100
0010
2002
0000
0000
0000
0000
0000
0000
0000
,
0000
0000
0000
0000
,
0000
0000
0000
0000
0000
0000
3003
M00M
0000
0000
0000
0000
0000
0000
0000
0000
;

//---------------dance-single - D. D'Amato----------------
#NOTES:
     dance-single:
     D. D'Amato:
     Hard:
     9:
     0.572,0.694,0.391,0.209,0.168,374.000,43.000,23.000,41.000,0.000,0.000,0.572,0.694,0.391,0.209,0.168,374.000,43.000,23.000,41.000,0.000,0.000:
0000
0000
0000
0000
,
0000
0000
0000
0000
,
0000
0000
0000
0000
,
0000
0000
0000
0000
0000
0000
0000
0000
0110
0000
0001
1000
0001
1000
0100
0000
,
0010
0001
0000
1001
0000
0100
0010
2000
,
0000
0000
0000
3000
0010
0000
1000
0000
0100
0000
0010
0000
0000
0000
0100
0000
,
1000
0000
0002
0000
0000
0000
0000
0003
0010
0000
0001
0000
0100
0000
0100
0000
,
0000
0000
0110
0000
0000
0000
2000
0000
0000
0000
0000
3000
0010
0000
1000
0000
,
0001
0001
0010
0001
1000
1010
0110
0101
,
0001
0100
0001
1000
0100
0010
0001
0100
,
1001
0000
0MM0
0000
0100
0000
0000
0110
,
0000
0000
0010
0000
0100
0000
0100
0000
0010
0000
1000
0001
1000
0000
0100
0000
,
0010
0000
0000
0010
0001
0000
0000
0001
1000
0000
0100
0000
0010
0000
0001
0000
,
0100
1000
0100
0001
0020
0000
M00M
0000
,
0130
0000
0000
0000
0010
0001
0100
0001
,
0100
0000
0000
0000
0000
0000
0001
0000
0000
0000
0000
0000
0000
0000
0000
0000
0000
0000
1000
0000
0000
0000
0000
0000
0000
0000
0000
0100
0000
0000
0000
0000
0000
0000
0000
0000
0000
0000
0000
0000
0010
0000
0000
0000
0000
0000
0000
0000
,
0000
0000
0000
0000
0000
0001
0000
0000
0000
0000
0000
0000
0110
0000
0000
0000
0000
0000
0000
0000
0000
1001
0000
0000
,
0000
0000
0000
1000
1000
0100
0010
0100
,
1000
1000
0001
0001
0220
0000
0000
0000
,
0000
0000
0000
0000
,
0330
0000
0000
0000
0100
0000
1010
0000
0101
0000
0010
1000
0000
1000
0100
0000
,
1001
0000
0010
0001
0100
0000
0010
1000
0001
1000
0000
0010
0100
0000
0001
1000
,
0000
0100
0010
0000
1100
0000
0011
0000
0200
0000
0000
0000
0000
1300
0000
0010
,
0100
0010
0000
0000
1000
0001
0000
0100
0020
0000
0000
1030
0100
0000
0010
0001
,
0000
0100
0010
0000
1000
0000
0100
0000
1000
0000
0100
0000
0010
0000
0001
0000
,
0100
0010
1000
0001
0100
0010
1000
0100
,
M020
0M00
M000
0M00
0031
0000
0010
0000
0001
0000
0010
0000
0100
0000
1000
0000
,
0001
0100
0010
1000
0100
0010
0001
0100
,
002M
0M00
000M
0M00
1030
0000
0010
0000
1000
0000
0010
0000
0100
0000
0001
0000
,
0010
0100
00M0
0001
1000
0100
0010
0001
,
M020
0M00
M000
0M00
0031
0000
0100
0000
0010
0000
1000
0000
0010
0000
0100
0000
,
0001
1000
0101
0000
M00M
0000
0011
0000
,
0MM0
1100
M00M
1010
,
0MM0
0000
0100
0010
0100
0010
0100
0010
,
0100
0010
0100
0010
0100
0010
0000
0110
,
0000
1001
0000
0011
0000
1100
0000
0000
,
M000
0M00
1000
0100
,
1000
0100
0010
0100
,
1000
0001
1000
0000
0001
0000
0100
0000
,
0001
0100
0010
0100
,
0001
1000
0001
0000
1000
0000
0010
0000
,
0100
0010
1000
0100
,
1000
0001
1000
0000
0001
0000
0010
0000
,
0100
0010
0001
0100
,
0001
1000
000M
1000
0001
0000
0100
0000
,
0010
0000
1000
0000
0001
1000
0001
0000
,
0010
0100
1000
0010
,
0100
0000
0001
0000
0010
0100
1000
0001
,
0100
0010
1000
0000
0100
0020
0000
0031
,
0000
1000
0001
0010
0100
1000
0001
0100
,
0010
0100
1010
0100
0001
0110
1000
0001
,
0100
0000
0001
0000
0010
0000
0001
0000
00M0
0101
0000
1010
0M00
0000
0110
0000
,
0001
0000
1000
0000
0100
0000
1000
0000
0010
0000
1000
0000
0100
0000
0011
0M00
,
0000
0101
M000
0000
1010
000M
0000
1100
00M0
0000
0110
0000
1001
0000
0100
0000
,
0010
0M00
0010
M001
0100
0010
0M00
0010
,
1000
0001
0010
0001
1000
0010
1000
0001
,
0100
0001
1000
0100
1000
0010
0200
0000
,
0000
0000
0000
0310
,
0110
0000
1001
0100
0001
0110
0000
0102
,
0000
2003
0000
3200
0000
1300
0001
1010
,
0100
00M0
1000
0001
1000
0001
0200
0000
,
00M0
0310
1001
0100
1000
0020
0000
2030
,
0000
3001
01M0
1000
0M10
0001
1000
0100
,
0010
1000
0010
0100
0001
0100
1000
0001
,
0010
0100
1000
0001
0220
0000
0000
0000
,
0000
0000
0000
0330
,
0001
0100
0010
0001
1000
0100
0010
1000
,
0100
0000
0010
0000
0001
0000
0100
0010
2002
0000
0000
0000
0000
0000
0000
0000
,
0000
0000
0000
0000
,
0000
0000
0000
3003
0000
0000
0000
0000
;

//---------------dance-single - D. D'Amato----------------
#NOTES:
     dance-single:
     D. D'Amato:
     Medium:
     7:
     0.441,0.537,0.227,0.237,0.041,288.000,25.000,26.000,18.000,0.000,0.000,0.441,0.537,0.227,0.237,0.041,288.000,25.000,26.000,18.000,0.000,0.000:
0000
0000
0000
0000
,
0000
0000
0000
0000
,
0000
0000
0000
0000
,
0000
0000
0000
0000
1001
0010
1000
0001
,
0010
0001
0000
1000
0000
0001
0010
0200
,
0000
0000
0000
0300
0010
0000
0001
0000
1000
0000
0010
0000
0000
0000
1000
0000
,
0001
0000
0200
0000
0000
0000
0000
0300
0010
0000
1000
0000
0100
0000
1000
0000
,
0000
0000
0001
0000
0010
0000
0200
0000
0000
0000
0000
0300
0010
0000
0001
0000
,
0100
0001
1000
0010
2000
0100
0010
0001
,
3000
0010
0100
1000
0010
0100
0001
0010
,
1001
0000
0000
0000
0100
0000
0000
1000
,
0000
0100
0010
0001
0100
0020
0000
1030
,
0100
0000
1100
0000
0011
0010
0001
1000
,
0000
1001
0000
0001
0220
0000
0000
0000
,
0330
0000
0000
0000
0101
0000
0000
0110
,
0000
0000
1010
0000
0000
0000
0000
0000
0000
2002
0000
0000
0000
0000
0000
0000
,
0000
0000
3003
0000
1M01
0000
0000
M110
,
0000
0000
0000
1000
0001
1000
0001
1000
,
0100
0010
0100
0010
0200
0000
0000
0000
,
0000
0000
0000
0000
,
0000
0000
0310
0001
1100
0001
0100
0010
,
0101
0000
0010
0000
1000
0000
0001
0000
1000
0000
0000
0110
0000
0000
1001
0000
,
0000
0110
0000
0000
0001
0000
1000
0000
0020
0000
0000
0000
0000
0000
0130
0000
,
0100
0001
1000
0100
0020
0000
0130
0100
,
1000
0001
0100
0M00
1001
0000
0001
0100
,
0000
0010
0000
1000
0010
0100
0000
0001
,
2000
0000
3010
00M0
1001
0000
1000
0100
,
0000
0010
0000
0001
0010
0100
0000
1000
,
0002
0000
0103
0M00
1001
0000
0001
0010
,
0000
0100
0000
1000
0100
0010
0000
0001
,
2000
0000
3010
0010
100M
1000
0M01
0001
,
M100
0100
0020
0000
0000
0000
2030
0000
,
0000
3200
0000
0320
,
0000
0031
1000
0010
,
1000
0000
0001
0000
0100
0000
0000
0001
,
0000
0010
0000
0100
0000
1000
0000
0000
,
0000
0000
0100
1000
,
0100
0010
0M00
0001
,
0M00
0100
0100
0001
,
0100
0010
0M00
1000
,
0M00
0100
0100
1000
,
0100
0010
0000
0001
,
0000
0100
0M00
1000
,
0100
00M0
0100
0000
,
0010
0000
0010
0000
,
0100
0001
0100
0010
,
1000
0010
0100
0001
,
0010
0000
0100
0000
0011
0000
0000
1100
,
0000
0000
0010
0000
0001
0100
0000
0010
,
0000
1000
0001
1000
0001
1000
0010
0100
,
0010
0100
1001
0010
0100
1001
0000
1000
,
0100
0000
1000
0000
0100
0000
0010
0000
0000
0100
0000
1000
0000
0000
0100
0000
,
0010
0100
0010
0000
0001
0010
0000
0100
,
0000
0010
0000
0000
0001
0000
0000
1000
0000
0000
0010
0000
1000
0000
0001
0000
,
0010
0001
0010
0000
0001
1000
0000
0010
,
0000
0000
1000
0000
0000
0100
0000
0000
,
0010
0000
0000
0001
0000
0000
0200
0000
,
0000
0000
0000
0310
,
1000
0001
0010
0001
0100
0002
0000
2003
,
0000
0100
0000
3100
0000
0010
0001
0010
,
0100
0000
0010
0001
0010
0001
0200
0000
,
0000
00M0
0310
1000
0010
1000
0100
0010
,
0001
0000
0000
1000
000M
0000
1000
0000
000M
1000
0000
0000
100M
0000
0000
0001
0000
0000
0010
0000
0000
0100
0000
0000
,
1000
0010
0100
0001
0000
1000
0010
0100
,
0000
0001
0010
0100
0020
0000
0000
0000
,
0000
0000
0000
0030
,
0001
0010
0100
1000
,
0010
0100
2002
0000
,
0000
0000
0000
0000
,
0000
0000
0000
3003
0000
0000
0000
0000
;

//---------------dance-single - D. D'Amato----------------
#NOTES:
     dance-single:
     D. D'Amato:
     Easy:
     6:
     0.253,0.347,0.164,0.209,0.000,154.000,18.000,23.000,8.000,0.000,0.000,0.253,0.347,0.164,0.209,0.000,154.000,18.000,23.000,8.000,0.000,0.000:
0000
0000
0000
0000
,
0000
0000
0000
0000
,
0000
0000
0000
0000
,
0000
0000
0001
1100
,
0011
0000
0100
0000
0000
0000
0010
0002
,
0000
0000
0000
0003
0000
0000
0000
0000
0100
0000
0000
0000
0000
0000
0000
0000
,
0010
0000
2000
0000
0000
0000
0000
3000
0000
0000
0000
0000
0100
0000
0000
0000
,
0100
0000
0000
0000
0010
0000
0002
0000
0000
0000
0000
0003
0000
0000
0000
0000
,
0100
0010
1000
0000
0200
0000
0000
0000
,
0000
1300
0001
0100
,
1001
0000
0100
0000
,
0000
0100
0010
0002
,
0000
0010
0100
2000
,
0000
0000
0000
0000
,
3003
0000
0220
0000
,
0000
0000
0000
0000
,
0000
0000
0000
0000
0330
0000
0000
1001
,
0000
0000
1000
1000
,
0001
0001
0100
0000
,
0000
0000
0000
0000
,
0000
0100
1001
0010
,
1000
0110
0001
0001
,
0001
1000
0100
0000
,
0100
0010
0001
1000
,
1000
1000
0000
0001
,
0000
0100
0000
0010
,
2000
3001
0000
0010
,
0000
0100
0010
0001
,
0200
0310
1000
0001
,
0000
1000
0010
0100
,
0002
1003
0010
0100
,
0001
0020
0000
0000
,
0000
0000
0000
0000
,
0000
0230
0000
0000
,
0000
0000
0000
0000
0000
0300
0000
0010
,
0000
0100
0000
0010
0000
0100
0000
0000
,
0000
0000
1000
0000
,
0001
0000
0010
0000
,
0000
0000
0100
0000
,
1000
0000
0001
0000
,
0000
0000
1000
0000
,
0001
0000
0100
0000
,
0000
0000
0010
0000
,
1000
0000
0001
0000
,
0010
0000
0100
0000
,
0000
0000
0010
0000
,
0001
0000
1000
0000
,
0000
0000
0000
0000
0100
0000
0000
0010
,
0000
0100
0000
1001
,
0110
0001
1000
0010
,
0100
1010
0000
1000
,
0100
0010
0001
1000
,
0010
0000
0100
0000
0010
1000
0000
0001
,
0100
0001
1000
0001
,
0010
0000
0100
0000
0010
0001
0000
1000
,
0200
0000
0000
0000
,
0000
0000
0000
0320
,
0000
0000
0000
0130
,
1100
0000
1000
0001
0100
0001
0000
1000
,
0000
0001
0000
0010
0000
0000
0001
0000
,
0100
1010
0101
0020
,
0000
0000
0130
0000
0001
0000
1000
0100
,
0020
M00M
0M00
M00M
0M00
M00M
0000
0000
,
0130
1001
0110
0001
,
1000
0001
2020
0000
,
0000
0000
0000
3030
,
0202
0000
0000
0000
,
0000
0303
2002
0000
,
0000
0000
0000
0000
,
0000
0000
0000
3003
0000
0000
0000
0000
;

//---------------dance-double - D. D'Amato----------------
#NOTES:
     dance-double:
     D. D'Amato:
     Challenge:
     11:
     0.759,0.948,0.446,0.246,0.532,508.000,49.000,27.000,82.000,0.000,0.000,0.759,0.948,0.446,0.246,0.532,508.000,49.000,27.000,82.000,0.000,0.000:
00000000
00000000
00000000
00000000
,
00000000
00000000
00000000
00000000
,
00000000
00000000
00000000
00000000
,
00000000
00000000
00000000
00000000
00000000
00000000
00000000
00000000
00000011
00000000
00000100
00001000
00000010
00010000
00000100
M0M00M0M
,
00010000
00000000
00011000
00000000
00000000
00000000
01001000
00000000
00000000
00000000
01000000
00000000
00100000
10000000
02000000
00000000
,
00000000
00000000
00000000
00000000
03000000
00000000
00000000
00000000
00000000
0M0MM0M0
00000000
00000000
00010000
00000000
00000000
00000000
00000000
00000000
00001000
00000000
00000000
00010000
00000000
00000000
00000100
00000000
00000000
00000000
00000000
00000000
00000110
00000000
00000000
00000000
00000000
00000000
00000000
00000000
00000000
00000000
00000000
00000000
00000011
00000000
00000000
00000000
00000000
00000000
,
00000010
00000000
00000000
00000001
00000000
00000000
00000200
00000000
00000000
00000000
00000000
00000000
00000000
00000000
00000000
00000000
00000300
00000000
00000000
00000000
00000000
00MMMM00
00000000
00000000
00001000
00000000
00000000
00000000
00000000
00000000
00010000
00000000
00000000
00001000
00000000
00000000
00100000
00000000
00000000
00010000
00000000
00000000
01000000
00000000
00000000
00000000
00000000
00000000
,
00000000
00000000
00000000
00000000
00000000
00000000
10100000
00000000
00000000
00000000
00000000
00000000
10000000
00000000
00000000
00000000
00000000
00000000
02000000
00000000
00000000
00000000
00000000
00000000
00000000
00000000
00000000
00000000
03000000
00000000
00000000
00000000
00000000
MM0000MM
00000000
00000000
00010000
00000000
00000000
00000000
00000000
00000000
00001000
00000000
00000000
00010000
00000000
00000000
,
00000010
00000000
00000000
00001000
00000000
00000000
00000010
00000000
00000000
00000000
00000000
00000000
00000100
00000000
00000000
00000000
00000000
00000000
00000001
00000000
00000000
00000010
00000000
00000000
00000100
00000000
00000000
00001000
00000000
00000000
00000100
00000000
00000010
00000000
00000000
00000000
00000100
00000000
00000010
00000000
00000000
00000000
00000100
00000000
00000000
00000000
00000000
00000000
,
00001000
00000000
00000100
00000000
00010000
00000000
00011000
00000000
00101000
00000000
00110000
00000000
10010000
00000000
10100000
0MM00000
,
02100000
00000000
00000000
00000000
03M10000
00000000
00000000
1M010000
,
00000000
00000000
00100000
00000000
00010000
00100000
00010000
01000000
00001000
00000000
00000000
00010000
00001000
00010000
00000010
00001000
,
00000100
00000000
00000000
00000100
00000010
00000000
00000000
00000010
00000001
00000000
00000100
00000000
00000101
00000000
00000001
00001000
,
00000010
00010000
00001000
00100000
00001000
00010000
00000100
00010000
00002000
00000000
000M0000
00000000
000M0000
00000000
000M0000
00000000
,
00013000
00000000
00000000
00000000
00000100
00010000
00001000
00100000
,
00010000
01000000
00010000
10000000
00100000
01000000
00100000
10000000
,
00100000
00000000
01000000
00000000
00010000
00000000
00100000
00000000
00110000
00000000
00000000
00MMMM00
00000000
00000000
00001100
00000000
,
00000000
00MMMM00
00000000
00000000
00000000
00000000
00000100
00000000
00001010
00000000
00000001
00000000
00001000
00000000
00000010
00000000
,
00001001
00001001
00000110
00000110
00000002
00000000
00000000
00000000
,
0MMMM000
00000000
00000000
0MMMM000
,
00000000
00000000
00000000
00000000
00000000
00000000
00000000
00000000
00001003
00000000
00000000
00000000
00001100
00000000
00000000
00000000
00000011
00000000
00000000
00000000
00000001
00000000
00001000
00000000
00000010
00010000
00001000
00000000
01000000
00000000
00000000
00000000
,
10100000
00000000
01000000
00000000
00010000
00000000
00100000
00001000
00010000
00000000
00000000
00000000
00000100
00000000
00000010
00000001
00001000
00000000
00000100
00000000
00000000
00000000
00010100
00000000
00001000
00000000
00000000
00000000
01001000
00000000
00010000
00000000
,
00000000
00000000
00001010
00000000
00000200
00000000
00000000
00000000
00010300
00001000
00100000
00000000
00001000
00010000
00000010
00000000
00000101
00000000
00000000
00000000
00000000
00000000
00000000
00000000
00000000
00000000
10100000
00000000
00000000
00000000
10010000
00000000
,
00100000
00000000
00010000
00000000
00000000
00000000
00000000
00000000
11000000
00000000
00100000
00000000
00000000
00000000
00010000
00000000
02000000
00000000
00000000
00000000
00000000
00000000
03001000
00010000
00000100
00000000
00000000
00000000
00000010
00000000
00001100
00000000
,
00000000
00000100
00000011
00000000
00001000
00000000
00000100
00000000
00010000
00001000
00000000
00001000
01000000
00000000
00100000
00000000
,
01000000
00001000
00000000
00001000
00010000
00000000
00000010
00001000
00000100
00000010
00000001
00000000
00000100
00000000
00000010
00000000
,
0002MMMM
00000000
00000000
00000000
00031000
00000000
00100000
00001000
00000000
00001000
00010000
00000000
00000100
00000000
00010000
00001000
,
01000000
00001000
00000000
00001000
00010000
00000000
00000100
00001000
00000010
00000000
00001000
00000000
00000100
00000000
00010000
00000000
,
MMMM2000
00000000
00000000
00000000
00013000
00000100
00010000
00000000
00001000
00100000
00001000
00000000
00100000
01000000
00100000
00000000
,
00010000
00000000
01000000
00000000
00100000
00000000
10000000
01000000
00100000
00010000
01000000
00000000
00010000
00100000
00001000
00000000
,
0002MMMM
00000000
00031000
0000010M
00000001
0000M010
00001000
00M10000
,
00100000
1M000000
01000000
00100000
02000000
00000000
13000000
00010000
,
20000000
00000000
30100000
01000000
00200000
00000000
10300000
00010000
,
01000000
00001000
00010000
00001000
00010000
00000010
00000100
00000010
,
00001000
00000001
00000100
00000010
00001000
00000100
00000000
00000020
,
00000000
00000200
00000030
00020000
00000300
00002000
00030000
00000000
,
000M3000
0000M000
000M0000
0000M000
00010000
00000000
00001000
00010000
,
00001000
00000000
00100000
00010000
00100000
00010000
00100000
00000000
,
01000000
10000000
01000000
00000000
00100000
00001000
00010000
00001000
,
00010000
00000000
00000010
00001000
00000010
00001000
00000010
00000000
,
00000100
00000001
00000100
00000000
00000001
00000000
00000010
00000001
,
00000010
00000000
00000100
00001000
00000100
00001000
00000100
00000000
,
00010000
00001000
00010000
00001000
01000000
00000000
00100000
10000000
,
00100000
00000000
01000000
00010000
01000000
00010000
01000000
00000000
,
00100000
10000000
00010000
00100000
00001000
00000000
00010000
00001000
,
00010000
00000000
00000010
00001000
00000001
00000010
00000100
00000000
,
00000010
00000100
00000010
00000000
00000001
00001000
00000001
00001000
,
00000100
00000000
00010000
00001000
01000000
00010000
10000000
01000000
,
00100000
00010000
01000000
00M00000
00001000
00010000
00000M00
00000010
,
0000000M
00000000
00001000
00000001
00001000
00000000
00000100
00000000
00000010
00000000
00000100
00000000
00001000
00000000
00000001
00000000
,
00000100
00000001
100M0MM0
0MM0100M
00010000
00000010
00001000
00000100
,
00011000
00000000
00100000
00000000
00001000
00000000
01010000
00000000
00000000
00011000
00000000
00011000
00000000
00000000
00001100
00000000
,
00000010
00000000
00010000
00000000
00001100
00000000
00010000
00000000
00011000
00000000
00011000
00000000
00001000
00000000
00100000
00010000
,
00000000
01000000
00100000
00000000
10000000
01000000
00000000
00100000
00010000
00000000
01000000
00000000
00001000
00000000
00010000
00001000
,
00010000
00000100
00001001
00000010
00001100
00000001
00000M0M
00001000
,
00000001
00000100
00001000
00010000
01000000
10000000
01000000
00010000
,
00001000
00000000
00000100
00000000
00000001
00000000
00000010
00000000
00000100
00000000
00001000
00000000
00000200
00000000
00010300
00001000
,
00010000
00000000
00010000
00000000
00001000
00010000
00001000
00000000
00001000
00000000
02000000
00000000
03010000
00000000
00100000
00000000
,
00001000
00100000
00010000
01000000
00100000
00000000
10000000
00000000
00010000
00000000
01000000
00100000
01000000
00000000
00010000
00100000
,
00001000
00010000
00002000
00000000
00013000
00000000
00020000
00000000
00031000
00000000
00001000
00010000
00000100
00000000
00001000
00000000
,
00001100
00000000
00000000
00000000
00000010
00000000
00010000
00001000
01000000
00000000
00001000
00010000
00000200
00000000
00000000
00000000
,
00000300
00000000
0101M0M0
00000000
00100000
01000000
00100000
10000000
00010000
00100000
00001000
00010000
00000010
00001000
00000000
00000001
,
00000100
00000010
0MM00100
00000000
00011000
00000000
01M00MM0
00000000
00011000
00000000
0MM001M0
00000000
00010000
00000000
00001000
00100000
,
00010000
00000000
10000000
00100000
01000000
00000000
00010000
00000000
00100000
00010000
01000000
00000000
00001000
00000000
00010000
00000000
,
00000100
00001000
00000001
00000000
00000100
00000000
00000010
00000000
00002002
00000000
00000000
00000000
00000000
00000000
00000000
00000000
,
00000000
00000000
00000000
00003003
,
00000100
00000001
00000100
00000001
00001000
00000010
00001000
00000010
00010000
00001000
00010000
00001000
00100000
00010000
00100000
00010000
,
10000000
01000000
10000000
01000000
00100000
01000000
00010000
00001000
00022000
00000000
00000000
00000000
00000000
00000000
00000000
00000000
,
00000000
00000000
00000000
00000000
,
00000000
00000000
00000000
00000000
00000000
00000000
00033000
000MM000
00000000
00000000
00000000
00000000
00000000
00000000
00000000
00000000
;

//---------------dance-double - D. D'Amato----------------
#NOTES:
     dance-double:
     D. D'Amato:
     Hard:
     9:
     0.560,0.663,0.318,0.227,0.114,371.000,35.000,25.000,36.000,0.000,0.000,0.560,0.663,0.318,0.227,0.114,371.000,35.000,25.000,36.000,0.000,0.000:
00000000
00000000
00000000
00000000
,
00000000
00000000
00000000
00000000
,
00000000
00000000
00000000
00000000
,
00000000
00000000
00000000
00000000
00000000
00000000
00000000
00000000
00001001
00000000
00000010
00001000
00000100
0000M000
00010000
00000000
,
00001000
01000000
00000000
01010000
00000000
00100000
00010000
00002000
,
00000000
00000000
00000000
00003000
00010000
00000000
00000100
00000000
00001000
00000000
00000001
00000000
00000000
00000000
00000010
00000000
,
00001000
00000000
00020000
00000000
00000000
00000000
00000000
00030000
00001000
00000000
01000000
00000000
00100000
00000000
00010000
00000000
,
00000000
00000000
00110000
00000000
00000000
00000000
00002000
00000000
00000000
00000000
00000000
00003000
00010000
00000000
00000100
00000000
,
00001000
00000001
00000100
00001000
00000100
00000010
00001010
00000101
,
00000100
00000010
00001000
00000100
00010000
00001000
00100000
00010000
,
01100000
00000000
000MM000
00000000
00010000
00000000
00000000
00011000
,
00000000
00001000
00010000
00000100
00000010
00000001
00001000
00000001
,
00000100
00000000
00000000
00000100
00000010
00000000
00000000
00000010
00001000
00000000
00001000
00000000
00001000
00000000
00000100
00000000
,
00010000
00001000
01000000
00010000
2MM00000
00000000
0MM00000
00000000
,
3MM10000
00000000
00000000
00000000
00010000
10000000
01000000
10000000
,
00200000
00000000
00000000
00000000
01300000
00001000
00020000
00000000
,
00000000
00030020
00000000
00000000
00001030
00000000
00000000
00001001
,
00000000
00000000
00000000
00000001
00000100
00000001
00001000
00000100
,
00010000
00001000
00010000
00001000
00022000
00000000
00000000
00000000
,
00000000
00000000
00000000
00000000
,
00033000
00000000
00000000
00000000
00000100
00000000
00011000
00000000
00100000
00000000
00010000
01000000
00000000
00100000
10000000
00000000
,
01010000
00000000
00100000
00001000
00010000
00000000
00000010
00001000
00000001
00001000
00000000
00000100
00000010
00000000
00000001
00001000
,
00000000
00000100
00010000
00000000
00002000
00000000
00023000
00000000
00030020
00000000
00000000
00000000
00000000
00010030
00000000
00001000
,
00010000
00001000
00000000
00000000
00100000
00010000
00000000
10000000
02000000
00000000
00000000
03100000
00010000
00000000
01000000
00000000
,
00011000
00000100
00001000
00000010
00000100
00000001
00001000
00000010
,
00010000
00000100
00001000
00000010
00010000
00001000
01000000
00100000
,
02000000
00000000
03010000
00100000
01000000
00100000
00001000
00010000
,
00000010
00001000
00000100
00000010
00000001
00001000
00000010
00000100
,
00000020
00000000
00010030
00001000
00100000
00010000
01000000
00001000
,
00010000
00000000
00000010
00000000
00M00M00
00000000
00010000
00001000
00010000
00001000
00010000
00000000
00001000
00000000
00100000
00000000
,
02000000
00000000
13000000
0M100000
01000000
00M10000
00100000
000M1000
,
00010000
0000M100
00001100
00000000
000MM000
00000000
01010000
00000000
,
00M00M00
00110000
0M0000M0
00001010
,
M000000M
00000000
00001000
00010000
00001000
00010000
00001000
00010000
,
00001000
00010000
00001000
00010000
00001000
00010000
00000000
00110000
,
00000000
10100000
00000000
11000000
00000000
01010000
00M00000
00000000
,
M0000000
00M00000
00010000
00001000
,
00100000
00010000
00100000
00001000
,
00010000
00001000
00010000
00000000
00001000
00000000
00010000
00000000
,
00000010
00001000
00000010
00010000
,
00001000
00010000
00001000
00000000
00010000
00000000
00001000
00000000
,
01000000
00010000
01000000
00001000
,
00010000
000M1000
0001M000
00000100
,
00000010
00000001
00000100
00000010
,
00010000
00001000
00000010
00001000
,
00010000
01000000
00010000
00001000
,
00000010
00000001
00000100
00001000
,
00010000
00000000
00100000
00000000
10000000
01000000
00100000
00010000
,
10000000
01000000
00100000
00000000
01000000
10000000
00M00000
00010000
,
00000000
00100000
00001000
00010000
00000010
00000100
00000010
00001000
,
00000001
00001000
00000110
00001000
00000001
00000110
00001000
00000100
,
00010000
00000000
00001000
00000000
00100000
00000000
00010000
00000000
00000000
11000000
00000000
00110000
00000000
00000000
11000000
00000000
,
00100000
00010000
01000000
00001000
00010000
00000100
00001000
00000010
,
00000000
00000101
00000000
00000000
00001010
00000000
00000000
00000101
00000000
00000000
00001010
00000000
00000100
00000000
00010000
00000000
,
00001000
00M00000
00001000
01000000
00010000
00100000
0M000000
00100000
,
00010000
00100000
01000000
00100000
00010000
00100000
00010000
01000000
,
00001000
01000000
00001000
00010000
00001000
00000100
00000002
00000000
,
00000000
00000000
00000000
00000103
,
00000101
00000000
00001010
00000100
00000010
00001001
00000000
00001020
,
00000000
00020030
00000000
00032000
00000000
00013000
00000100
00010000
,
00001000
00000000
00100000
00010000
01000000
00001000
00020000
00000000
,
0000M000
00031000
01000000
00010000
01000000
00100000
10000000
00010000
,
00100000
0M001000
000100M0
00M01000
00010M00
00000010
00000100
00000001
,
00001000
00000100
00010000
00001000
00000100
00001000
00010000
01000000
,
10000000
00010000
01000000
00100000
20020000
00000000
00000000
00000000
,
00000000
00000000
00000000
00000000
00000000
00000000
00000000
30030000
,
00100000
00010000
01000000
00001000
00010000
00100000
01000000
00100000
,
00010000
00000000
00001000
00000000
00000100
00000000
00000010
00000100
00002002
00000000
00000000
00000000
00000000
00000000
00000000
00000000
,
00000000
00000000
00000000
00000000
,
00000000
00000000
00000000
00003003
00000000
00000000
00000000
00000000
;

//---------------dance-double - D. D'Amato----------------
#NOTES:
     dance-double:
     D. D'Amato:
     Medium:
     7:
     0.445,0.537,0.155,0.227,0.036,300.000,17.000,25.000,30.000,0.000,0.000,0.445,0.537,0.155,0.227,0.036,300.000,17.000,25.000,30.000,0.000,0.000:
00000000
00000000
00000000
00000000
,
00000000
00000000
00000000
00000000
,
00000000
00000000
00000000
00000000
,
00000000
00000000
00000000
00000000
00011000
00100000
00010000
01000000
,
00100000
10000000
00000000
00010000
00000000
00100000
00001000
00020000
,
00000000
00000000
00000000
00030000
00000010
00000000
00001000
00000000
00000100
00000000
00001000
00000000
00000000
00000000
00000010
00000000
,
00010000
00000000
00002000
00000000
00000000
00000000
00000000
00003000
01000000
00000000
00100000
00000000
01000000
00000000
00010000
00000000
,
00000000
00000000
00100000
00000000
00001000
00000000
00020000
00000000
00000000
00000000
00000000
00030000
00000100
00000000
00001000
00000000
,
00000010
00000100
00000001
00001000
00000100
00010000
00001000
00000100
,
00000000
00001000
00010000
00100M00
010000M0
00100M00
010000M0
00100M00
,
1000000M
00000000
00000000
00000000
00010000
00000000
00000000
00100000
,
00000000
00010000
01000000
00010000
00100000
00002000
00000000
00013000
,
00000010
00000000
00001001
00000000
00000110
00001000
00000001
00000010
,
00000000
00000100
00000000
00010000
00022000
00000000
00000000
00000000
,
00033000
00000000
00001000
00010000
,
01000000
00000000
00000000
00000000
00010000
00001000
00000100
00000000
,
00000000
00000000
00000110
00000000
00000000
000MM000
00000000
00000000
01100000
00000000
00000000
000MM000
00000000
00000000
00000110
00000000
,
00000000
00000000
00000000
00001000
00000001
00001000
00000001
00001000
,
00000100
00000010
00000100
00000010
00000200
00000000
00000000
00000000
,
00000000
00000000
00000000
00000000
,
00000300
00000000
00000010
00000000
00001100
00010000
00001000
01000000
,
00110000
00000000
00001000
00000000
00010000
00000000
00000100
00000000
00000011
00000000
00000000
00001100
00000000
00000000
00011000
00000000
,
00000000
01010000
00000000
00000000
10100000
00000000
10000000
00000000
00020000
00000000
00000000
00000000
00000000
00000000
00130000
00000000
,
00001000
00010000
00000100
00010000
00002000
00000000
00103000
00010000
,
01000000
00010000
00100000
01000000
00100000
00000000
00001000
00010000
,
00001000
00100000
00000000
00001000
00010000
00000100
00000000
00000100
,
00002000
00000000
00003100
00000010
00000100
00000000
00010000
00001000
,
00010000
00000010
00000000
00010000
00001000
01000000
00000000
01000000
,
00020000
00000000
01030000
00100000
01000000
00000000
00001000
00010000
,
00001000
00100000
00000000
00001000
00010000
00000100
00000000
00000100
,
00002000
00000000
0M003100
0M000100
00M00010
00M00010
M0000001
M0000001
,
000M1000
000M1000
00000020
00000000
00000000
00000000
00020030
00000000
,
000000M0
00032000
000M0000
00203000
,
0000M000
00310000
01000000
00010000
,
10000000
00000000
01000000
00000000
00100000
00000000
00000000
00001000
,
00000000
00002000
00000000
00013000
00000000
00020000
00000000
00030000
,
00000000
MMMMMMMM
00000000
00000000
00000010
00000000
00000100
00000000
,
00000001
00001000
00000000
00000100
,
00000000
00010000
00001000
00100000
,
01000000
10000000
00000000
00100000
,
00000000
01000000
00001000
00010000
,
00000010
00000100
00000000
00000001
,
00001000
00000100
00010000
00000010
,
00010000
00000000
00001000
01000000
,
00001000
00100000
00010000
01000000
,
00100000
00000000
10000000
01000000
,
00100000
00001000
00010000
00000010
,
00001000
00000000
00000000
00000000
00001010
00000000
00000000
00000101
,
00000000
00000000
00000100
00000000
00000010
00001000
00000000
00000100
,
00000000
00010000
00001000
00010000
00001000
00100000
00010000
00100000
,
00010000
01000000
00100000
10000000
00010000
00100000
00000000
00001000
,
00000000
00000000
00010000
00000000
00000000
00000000
00000100
00000000
00000000
00001000
00000000
00000001
00000000
00000000
00001000
00000000
,
00000000
00000010
00000100
00000001
00001000
00000100
00000000
00010000
,
00000000
00001000
00000000
00000000
01000000
00000000
00000000
00010000
00000000
00000000
10000000
00000000
01000000
00000000
10000000
00000000
,
00100000
00000000
10000000
00000000
00010000
00100000
00000000
00001000
,
00010000
00000000
00001000
00010000
00001000
00000000
00000000
00010000
,
00001000
00010000
00000000
00000000
00001000
00010000
00002000
00000000
,
00000000
00000000
00000000
000M3100
,
00000010
00000000
00001000
00000010
00000100
00000002
00000000
00000023
,
00000000
00000100
00000000
00000130
00000000
00010000
00000100
00001000
,
00000100
00000000
00010000
00001000
00100000
00010000
02000000
00000000
,
00000000
00000000
03100000
10000000
00010000
10000000
00010000
00100000
,
01000000
10000000
00010000
10000000
00010000
01000000
00001000
00010000
,
00000100
00001000
00000010
00000100
00000000
00000001
00000010
00000100
,
00000000
00010000
00001000
01000000
00002000
00000000
00000000
00000000
,
00000000
00000000
00000000
00003000
,
00010000
00000010
00001000
00000100
,
00010000
00001000
00022000
00000000
,
00000000
00000000
00000000
00000000
,
00000000
00000000
00000000
00033000
00000000
00000000
00000000
00000000
;

//---------------dance-double - D. D'Amato----------------
#NOTES:
     dance-double:
     D. D'Amato:
     Easy:
     6:
     0.256,0.379,0.146,0.191,0.000,160.000,16.000,21.000,0.000,0.000,0.000,0.256,0.379,0.146,0.191,0.000,160.000,16.000,21.000,0.000,0.000,0.000:
00000000
00000000
00000000
00000000
,
00000000
00000000
00000000
00000000
,
00000000
00000000
00000000
00000000
,
00000000
00000000
00010000
01100000
,
10010000
00000000
00100000
00000000
00000000
00001000
00010000
00002000
,
00000000
00000000
00000000
00003000
00000000
00000000
00000000
00000000
00010000
00000000
00000000
00000000
00000000
00000000
00010000
00000000
,
00001000
00000000
00020000
00000000
00000000
00000000
00000000
00030000
00000000
00000000
00000000
00000000
00000100
00000000
00000000
00000000
,
00010000
00000000
00001000
00000000
00010000
00000000
00002000
00000000
00000000
00000000
00000000
00003000
00000000
00000000
00000000
00000000
,
00010000
00001000
01000000
00000000
00200000
00000000
00000000
00000000
,
00000000
00310000
00001000
00010000
,
00000100
00000000
00000010
00000000
,
00000000
00000100
00001000
00000200
,
00001000
00000010
00000010
00010000
,
00001000
00010300
00011000
00000000
,
00000000
00000000
00022000
00000000
,
00000000
00000000
00000000
00000000
,
00000000
00000000
00000000
00000000
00033000
00000000
00000000
00011000
,
00000000
00000000
00100000
00100000
,
01000000
01000000
10000000
00000000
,
00000000
00000000
00000000
00000000
,
00000000
00001100
00000010
00000100
,
00001000
00000100
00010000
00010000
,
00010000
00001000
00100000
00000000
,
00110000
00010000
01000000
00001000
,
00001000
00001000
00000000
00010000
,
00000000
00000010
00000000
00000100
,
00000020
00001030
00000000
00000010
,
00000000
00010000
00001000
01000000
,
00200000
10300000
01000000
00100000
,
00000000
00000000
00001000
00010000
,
00000020
00001030
00001000
00000001
,
00000001
00000200
00000000
00000000
,
00000000
00000000
00000000
00000000
,
00000000
00000320
00000000
00000000
,
00000000
00000000
00000000
00000000
00000000
00000030
00000000
00000100
,
00000000
00000100
00000000
00000100
00000000
00000200
00000000
00000000
,
00000000
00000300
00000000
00000000
00000010
00000000
00000000
00000000
,
00010000
00000000
00001000
00000000
,
01000000
00000000
00100000
00000000
,
10000000
00000000
00010000
00000000
,
00000000
00000000
00100000
00000000
,
00001000
00000000
00010000
00000000
,
00000000
00000000
00000100
00000000
,
00001000
00000000
00000001
00000000
,
00000100
00000000
00000010
00000000
,
00000000
00000000
00001000
00000000
,
00000100
00000000
00010000
00000000
,
00000000
00000000
00000000
00000000
00001000
00000000
00000000
00010000
,
00000000
00001000
00000000
00100000
,
10010000
01000000
00100000
00010000
,
01000000
10010000
00000000
00100000
,
10000000
01000000
00100000
00001000
,
00010000
00000000
00000010
00000000
00001000
00000000
00000000
00000010
,
00000000
00000100
00000010
00000100
,
00000001
00000000
00001000
00000000
00000000
00000100
00000000
00010000
,
00002000
00000000
00000000
00000000
,
00000000
00000000
00000000
00020000
,
00000000
00000000
00003000
00031000
,
00011000
00000000
00010000
00000010
00001000
00000010
00000000
00010000
,
00000000
00001000
00000000
00100000
00000000
00000000
00010000
00000000
,
10000000
01100000
01010000
00200000
,
00000000
00000000
10300000
00000000
10100000
00000000
00010000
00100000
,
00002000
00000000
00000000
00000000
,
00013000
00000010
00000100
00001001
,
00000010
00001000
00000220
00000000
,
00000000
00000000
00000000
00000330
,
00001000
00000000
00000010
00000000
,
00010000
00000000
00022000
00000000
,
00000000
00000000
00000000
00000000
,
00000000
00000000
00000000
00033000
00000000
00000000
00000000
00000000
;

//---------------dance-single - S. Bauer----------------
#NOTES:
     dance-single:
     S. Bauer:
     Beginner:
     1:
     0.177,0.253,0.100,0.209,0.000,102.000,11.000,23.000,0.000,0.000,0.000,0.177,0.253,0.100,0.209,0.000,102.000,11.000,23.000,0.000,0.000,0.000:
0000
0000
0000
0000
,
0000
0000
0000
0000
,
0000
0000
0000
0000
,
0000
0000
0001
1000
,
0001
0000
0000
0000
0000
0000
0000
0002
,
0000
0000
0000
0003
0000
0000
0000
0000
0000
0000
0000
0000
0000
0000
0000
0000
,
0000
0000
2000
0000
0000
0000
0000
3000
0000
0000
0000
0000
0100
0000
0000
0000
,
0000
0000
0000
0000
0000
0000
0002
0000
0000
0000
0000
0003
0000
0000
0000
0000
,
0000
0000
0200
0000
,
0000
0300
0001
0000
,
1001
0000
0100
0000
,
0000
0100
0000
0002
,
0000
0000
0000
2000
,
0000
0000
0000
0000
,
3003
0000
0220
0000
,
0000
0000
0000
0000
,
0000
0000
0000
0000
0330
0000
0000
1001
,
0000
0000
1000
0000
,
0001
0000
0100
0000
,
0000
0000
0000
0000
,
0000
0000
1001
0000
,
0000
0110
0000
0001
,
0000
1000
0000
0000
,
0100
0100
0100
0000
,
1000
0000
0000
0001
,
0000
0100
0000
0010
,
2000
3001
0000
0010
,
0000
0000
0010
0001
,
0200
0310
1000
0001
,
0000
1000
0000
0000
,
0002
1003
0000
0000
,
0001
0020
0000
0000
,
0000
0000
0000
0000
,
0000
0230
0000
0000
,
0000
0000
0000
0000
0000
0300
0000
0010
,
0000
0010
0000
0010
0000
0010
0000
0000
,
0000
0000
1000
0000
,
0001
0000
0010
0000
,
0000
0000
0100
0000
,
1000
0000
0001
0000
,
0000
0000
1000
0000
,
0001
0000
0100
0000
,
0000
0000
0010
0000
,
1000
0000
0001
0000
,
0010
0000
0100
0000
,
0000
0000
0010
0000
,
0001
0000
1000
0000
,
0000
0000
0000
0000
0100
0000
0000
0100
,
0000
0100
0000
1001
,
0000
0001
0000
0010
,
0000
1000
0000
1000
,
0000
0010
0000
0000
,
0010
0000
0010
0000
,
0100
0000
0000
0001
,
0010
0010
0001
0000
,
0200
0000
0000
0000
,
0000
0000
0000
0320
,
0000
0000
0000
0130
,
0100
0000
0000
0000
0000
0001
0000
1000
,
0000
0001
0000
0000
0000
0000
0001
0000
,
0000
1010
0000
0020
,
0000
0130
0001
1000
,
0020
0000
0000
0000
,
0130
0000
0110
0000
,
0000
0001
2020
0000
,
0000
0000
0000
3030
,
0202
0000
0000
0000
,
0000
0303
2002
0000
,
0000
0000
0000
0000
,
0000
0000
0000
3003
0000
0000
0000
0000
;
