#TITLE:Don't Panic;
#SUBTITLE:;
#ARTIST:Street Corner Poets;
#TITLETRANSLIT:;
#SUBTITLETRANSLIT:;
#ARTISTTRANSLIT:;
#GENRE:Rap;
#CREDIT:;
#BANNER:Don't Panic-bn.png;
#BACKGROUND:Don't Panic-bg.png;
#LYRICSPATH:;
#CDTITLE:;
#MUSIC:Don't Panic.ogg;
#OFFSET:-0.340;
#SAMPLESTART:8.240;
#SAMPLELENGTH:11.840;
#SELECTABLE:YES;
#BPMS:0.000=180.000;
#STOPS:;
#BGCHANGES:-0.367=Don't Panic.mpg=1.000=1=0=0=StretchNoLoop==CrossFade==,
99999=-nosongbg-=1.000=0=0=0 // don't automatically add -songbackground-;
#KEYSOUNDS:;

//---------------dance-double - M.Lee----------------
#NOTES:
     dance-double:
     M.Lee:
     Hard:
     7:
     0.523,0.000,0.222,0.169,0.000:
00000000
00000000
00000000
00000000
,
00000000
00000000
00000000
00000000
,
00000000
00000000
00000000
00000000
,
00001000
00000001
00001000
00001000
,
00000100
00000000
00000000
00000100
00000000
00000000
00000100
00000000
,
00000010
00000000
00000000
00000010
00000000
00000000
00000010
00000000
,
00000001
00000000
00000000
00000011
00000000
00000000
00000100
00000000
,
00001000
00000000
00000000
00001100
00000000
00000000
00000100
00000000
,
00010000
00000000
00001000
00010000
00001000
00000000
00010000
00001000
,
01000000
00000000
00000000
01010000
00000000
00000000
00100000
00000000
,
01000000
00000000
10000000
00010000
00000000
00010000
10000000
00000000
,
00010000
00000000
00100000
00001000
00000000
00001000
00010000
00000000
,
00001000
00000000
00100000
00010000
01000000
00000000
00010000
10000000
,
01000000
00000000
00100000
00001000
00000000
00001000
00010000
00000000
,
00021000
00000000
00000000
00031000
00000000
00001000
00010000
00000000
,
00000200
00000000
00000000
00001300
00000000
00001000
00000100
00000000
,
00000020
00000000
00000000
00000031
00000000
00000010
00000001
00001000
,
00000100
00010000
00001000
01000000
,
00100000
00000000
00000000
00110000
00000000
00000000
10000000
00000000
,
01000000
00000000
00000000
11000000
00000000
00000000
00010000
00000000
,
01000000
00000000
00000000
01001000
00000000
00000000
00010000
00000000
,
00001000
00010000
00000100
00000000
00000010
00000100
00001000
00000000
,
00002000
00000010
00000001
00003010
,
00000020
00000100
00001000
00010030
,
00020000
00001000
00000100
00031000
,
00002000
00010000
00010000
01003000
,
01000000
00000000
00000000
01010000
00000000
00000000
01000000
00000000
,
00020000
01000000
10000000
00130000
,
00100000
00000000
00010000
00100000
00010000
00000000
00100000
00001000
,
00100000
00000000
00001000
00010000
00001000
00000000
00011000
00000000
,
00001000
00010000
00000000
00010000
00001000
00000000
01000000
00000000
,
00010000
01000000
00000000
01000000
00010000
00000000
10000000
00000000
,
01000000
10000000
00000000
10000000
01000000
00000000
00100000
00000000
,
00001000
00010000
00000100
00000010
,
00000001
00000010
00000000
00000010
00000001
00000000
00000010
00000000
,
00000100
00001000
00000100
00000000
00001100
00000000
00000010
00000000
,
00000100
00010000
00000000
00010000
00001000
00000000
00100000
00000000
,
00010000
10000000
01000000
10010000
,
10000000
00000000
01000000
10000000
00100000
00000000
01000000
00010000
,
00100000
00000000
00001000
00010000
00000100
00000000
00001000
00000001
,
00000010
00000000
00000100
00001000
00000010
00000000
00010000
00001000
,
00100000
00000000
00010000
01000000
00001000
00010000
00001000
00000000
,
00010200
00000000
00000000
00001300
00000000
00000000
00000000
00000000
,
00002001
00000000
00000000
00003010
00000000
00000000
00000000
00000000
,
00000102
00000000
00000000
00001003
00000000
00000000
00000000
00000000
,
00002100
00000000
00000000
00003010
00000000
00000010
00010000
00000000
,
00001000
00000000
00000000
00100000
00000000
00100000
00010000
00000000
,
01000000
00000000
00000000
00100000
00000000
00100000
10000000
00000000
,
01000000
00000000
00100000
00010000
01000000
00000000
00001000
00010000
,
00000010
00000000
00000010
00001000
00000000
00001000
00000100
00000000
,
00000020
00000000
00000100
00000000
00000001
00000001
00000030
00000001
,
00000002
00001000
00000100
00001003
,
00002000
00000000
00000100
00000000
00000010
00000010
00003000
00000010
,
00000020
00010000
00001000
00010030
,
00011000
00000000
00001000
01000000
00000000
00010000
00000000
00010000
,
10000000
00000000
00100000
01000000
00000000
00010000
00000000
00010000
,
00100000
00000000
00000000
10010000
00000000
01000000
00000000
01000000
,
00001000
00000000
00010000
00001000
00000010
00000000
00000001
00000000
,
00000011
00000000
00000001
00000010
00000000
00000100
00001000
00000000
,
00010100
00000000
00010000
00000100
00000000
00000100
00010000
00000000
,
00011000
00000000
00000010
00010000
00000000
00001000
00100000
00000000
,
00010000
00000010
00000000
00001000
00000001
00001000
00000001
00000000
,
00001200
00000000
00000000
00010300
00000000
00010000
00001000
00000000
,
00201000
00000000
00000000
00310000
00000000
00010000
10000000
00000000
,
01000000
10000000
01000000
00000000
00100000
00001000
00100000
00000000
,
00001000
01000000
00001000
00010000
00000100
00000000
00001100
00000000
,
00000010
00000100
00000000
00000010
00000100
00000000
00010000
00000000
,
00001000
00010000
00000000
00001000
00010000
00000000
00001000
00000000
,
01000000
00010000
00000000
01000000
00010000
00000000
00100000
00000000
,
00010000
10000000
00100000
00000000
10000000
00010000
00100000
00000000
,
01000000
10000000
00000000
01000000
10000000
00000000
01000000
00000000
,
00100000
00001000
00010000
00001000
00010000
00000000
00000010
00000000
,
00001000
00000010
00000000
00010000
00001000
00000000
00010000
00000000
,
00000100
00001100
00000001
00000101
,
00001000
00000000
00000100
00001000
00000010
00000000
00000100
00000001
,
00001000
00000000
00000010
00010000
00001000
00000000
00010000
00001000
,
00100000
00000000
00010000
01000000
00100000
00000000
10000000
01000000
,
00100000
00010000
01000000
00001000
00010000
00000000
00001000
00000000
,
00010000
00000000
00000100
00001000
00000001
00000000
00001000
00000100
,
00010000
00000000
00001000
00010000
01000000
00000000
10000000
01000000
,
00100000
00000000
00001000
00010000
00000010
00010000
00001000
01000000
,
00020000
10000000
01030000
00000000
;

//---------------dance-double - M.Lee----------------
#NOTES:
     dance-double:
     M.Lee:
     Challenge:
     9:
     0.662,0.000,0.525,0.124,0.027:
00000000
00000000
00000000
00000000
,
00000000
00000000
00000000
00000000
,
00000000
00000000
00000000
00000000
,
00001000
00001000
01000000
01000000
,
00010000
10000000
00010000
00010000
,
01000000
00100000
10000000
00010000
,
00120000
00000000
00000000
10030000
00000000
10000000
00100000
00000000
,
20100000
00000000
00000000
30010000
00000000
00010000
01000000
00000000
,
01002000
00000000
00000000
00013000
00000000
00010000
00000100
00000000
,
00002100
00000000
00003000
00000001
00000000
00000010
00000001
00000000
,
00000011
00000000
00000001
00000010
00000000
00000010
00000100
00000000
,
00001100
00000000
00001000
00000010
00000000
00000010
00010000
00000000
,
00011000
00000000
00001000
00100000
00000000
00100000
00010000
00000000
,
10010000
00000000
10000000
01000000
00000000
00100000
10010000
00000000
,
00000000
00000000
00100000
10000000
00100000
10000000
00001000
01000000
,
00001000
00000000
00000000
01000000
00000000
00000000
00000010
00000000
00000000
00010000
00000000
00000000
00000010
00000000
00000000
00010000
00000000
00000000
00000100
00000000
00000000
00000000
00000000
000M0M00
,
0000M0M0
00000000
00001000
00000100
00001000
00000100
01000000
00001000
,
01000000
00001000
00100000
00010000
10000000
00000000
10010000
00000000
,
11000000
00000000
00000000
20010000
300M0000
00010000
01000000
10000000
,
01000000
00000000
00000000
10200000
M0300000
10000000
00100000
00010000
,
00100000
00000000
01000000
00010000
00000000
01000000
00001000
00000000
,
00010000
00000100
00000010
00000001
00000011
00000000
00001000
00000000
,
00000100
00000000
00000011
00000010
00000001
00000000
00001001
00000001
,
00001000
00000000
00001000
00000100
00010000
00000100
00001000
00000000
,
00000100
00000000
00010100
00010000
00000100
00000000
00011000
00001000
,
00100000
00000000
00010000
00100000
01000000
10000000
01000000
00000000
,
M0000000
0M000000
00M00000
000M0000
00000000
00000000
10000000
00000000
00000000
01000000
00000000
00000000
00100000
00000000
00000000
00000000
00000000
00000000
10000000
00000000
00000000
01000000
00000000
00000000
,
00010000
01000000
00010000
00001000
00000100
00000001
00000010
00000000
,
00000001
00000100
00000010
00001000
00000001
00000100
00001000
00000100
,
00001000
00010000
00100000
10000000
00100000
00000000
10010000
00000000
,
10100000
10000000
00000000
00100000
10000000
00010000
01000000
00000000
,
00011000
00010000
00000000
00001000
00010000
00000100
00001000
00000000
,
00001100
00000100
00000000
00000010
00000001
00000100
00000010
00000000
,
00001000
00000100
00000001
00000100
00001000
00000000
00001001
00000000
,
00001001
00000010
00000000
00001001
00000100
00000000
00001000
00000000
,
00000100
00010000
00001000
00001000
00010000
00000000
00011000
00000000
,
00101000
00001000
00000000
00010000
00000010
00000000
00000100
00000000
,
00000001
00000100
00000010
00000001
00000010
00000000
00001100
00000000
,
00000010
00001000
00000001
00000100
00000001
00000100
00001000
00000100
,
00001000
00010000
00001000
00010000
00001000
00010000
01000000
00010000
,
01000000
10000000
01000000
10000000
00100000
10000000
00100000
00010000
,
00100000
00010000
00001000
00010000
00000100
00001000
00000010
00000000
,
00010020
00000000
00000000
00000130
000000M0
00000000
00000000
00000000
,
00002001
00000000
00000000
00003100
0000M000
00000000
00000000
00000000
,
00010200
00000000
00000000
00001300
00000M00
00000000
00000000
00000000
,
00201000
00000000
00000000
00310000
00M00000
00000000
10010000
00000000
,
10000000
00000000
01000000
10010000
00000000
00100000
01000000
00010000
,
01000000
00000000
00010000
01001000
00000000
00001000
00010000
00010000
,
00000100
00000000
00001000
00000110
00000000
00000100
00001001
00000000
,
00000010
00001100
00000000
00010000
00001000
00010000
00000010
00000000
,
00000100
00000000
00000001
00000100
00000010
00001000
00000010
00001000
,
00010000
01000000
00100000
01000000
10000000
00000000
01010000
00000000
,
000M0000
00M00000
0M000000
M0000000
00000000
00000000
10000000
00000000
00000000
00010000
00000000
00000000
10000000
00000000
00000000
01000000
00000000
00000000
00100000
00000000
00000000
00010000
00000000
00000000
,
00001000
00000100
00000010
00000001
00000100
00000000
00000011
00000000
,
00001001
00000000
00000000
00001100
00000000
00000100
00001000
00000010
,
00010000
00001000
00100000
00001000
00010000
00000100
00001000
00000000
,
00000100
00000010
00000001
00000100
00001000
00010000
00010000
01000000
,
10000000
00100000
01000000
10000000
01000000
00000000
11000000
00000000
,
00010000
00000000
00000000
00102000
00000000
00010000
00013000
00000000
,
01000000
00000000
00000000
00021000
00000000
00000100
00030100
00000000
,
00000100
00000000
00000000
00002001
00000000
00000010
00003001
00000000
,
00000010
00000000
00000000
00000201
00000000
00000010
00000310
00000000
,
00000010
00001000
00010000
01000000
00100000
00000000
10000000
00010000
,
01000000
00000000
00001000
00011000
00000000
00010000
00000010
00000000
,
00001000
00001000
00000001
00000100
00000010
00001000
00010000
01000000
,
00100000
00010000
00001000
00000100
00000010
00000000
00001001
00000000
,
00001010
00000001
00000000
00001010
00000001
00000100
00000001
00000000
,
00000101
00001000
00000000
00001010
00010000
00001000
00010000
00000000
,
00011000
00000100
00000000
00000100
00001000
00000010
00000001
00000000
,
00000010
00001000
00010000
00000000
01000000
00000000
01001000
00000000
,
00011000
00010000
00000000
00010000
00000100
00001000
00000100
00000010
,
00000001
00000001
00001000
00000100
00000010
00000000
00000011
00000000
,
00000010
00000100
00010000
00001000
00010000
01000000
10000000
00100000
,
00010000
00100000
10000000
00010000
01000000
00000000
01100000
00000000
,
00100000
00010000
00001000
00000100
00000010
00000000
00000010
00001000
,
00010000
01000000
00100000
00000000
00100000
00010000
00001000
00000100
,
00000010
00001000
00010000
01000000
00100000
00010000
00001000
00001000
,
00010000
00000100
00010000
00010000
00001000
00010000
01000000
00000000
,
01000000
00010000
00001000
00100000
01000000
00000000
00010000
00001000
,
00000010
00000100
00010000
00000000
00000100
00010000
00001000
00000010
,
00000100
00000010
00000100
00001000
00010000
00100000
01000000
10000000
,
11000000
00000000
00000000
00000000
00000000
00000000
M0000000
0M000000
00000000
00000000
00000000
00000000
;

//---------------dance-double - M.Lee----------------
#NOTES:
     dance-double:
     M.Lee:
     Medium:
     5:
     0.368,0.000,0.311,0.053,0.000:
00000000
00000000
00000000
00000000
,
00000000
00000000
00000000
00000000
,
00000000
00000000
00000000
00000000
,
00000000
00000000
00000000
00000000
,
00000000
00000000
00000000
00000000
,
00000000
00000000
00000000
00000000
,
00000010
00000000
00000000
00000100
00000000
00000000
00000000
00000000
,
00001000
00000000
00000000
00000001
00000000
00000000
00000000
00000000
,
00000010
00000000
00000000
00000100
00000000
00000000
00000010
00000000
,
00000010
00001000
00010000
01000000
,
00100000
00000000
00000000
10010000
00000000
00000000
00000000
00000000
,
00100000
00000000
00000000
01010000
00000000
00000000
00000000
00000000
,
10000000
00000000
00000000
10100000
00000000
00000000
00000000
00000000
,
10000000
00100000
00010000
00001000
,
01000000
00000000
00000000
00001000
00000000
00000000
00010000
00000000
,
00000100
00000000
00000000
00000010
00000000
00000000
00000000
00000000
,
00000010
00000000
00000000
00000001
00000000
00000000
00000100
00000000
,
00000010
00000000
00000000
00010000
00000000
00000000
00001000
00000000
,
00010000
00000000
00000000
00010200
00000000
00000000
00000300
00000000
,
00010000
00000000
00000000
00201000
00000000
00000000
00300000
00000000
,
00001000
00000000
00000000
02001000
00000000
03000000
00010000
00000000
,
01000000
00000000
00000000
01020000
00000000
00030000
00000000
00000000
,
10000000
01000000
00010000
01000000
,
00010000
00001000
00000010
00000001
,
00001000
00000001
00000100
00001000
,
00000100
00001000
00010000
01000000
,
10000000
00010000
00100000
00001000
,
00010000
00000000
00000100
00001000
,
00000010
00000001
00000010
00001000
,
00000100
00020000
00031000
00011000
,
01000000
00000000
00000000
01000000
00000000
00000000
01000000
00000000
,
00100000
00000000
00000000
00100000
00000000
00000000
00100000
00000000
,
10000000
00010000
01000000
00001000
,
00010000
00000000
00000000
00010000
00000000
00000000
00001000
00000000
,
00010000
00000000
00000000
00010010
00000000
00000000
00001000
00000000
,
00000001
00000000
00000000
00000101
00000000
00000000
00000001
00000000
,
00000010
00000100
00010000
00001000
,
00010000
00100000
10000000
10010000
,
10000000
00010000
01000000
00100000
,
00010000
00001000
00000100
00000001
,
00000010
00000100
00000010
00000001
,
00001000
00000100
00000010
00000001
,
00000011
00000000
00000000
00000011
00000000
00000000
00000000
00000000
,
00001100
00000000
00000000
00001100
00000000
00000000
00000000
00000000
,
00010100
00000000
00000000
00011000
00000000
00000000
00000000
00000000
,
00101000
00000000
00000000
01010000
00000000
00000000
10010000
00000000
,
11000000
00000000
00000000
00100000
00000000
00000000
01000000
00000000
,
01001000
00000000
00000000
00010000
00000000
00000000
00001000
00000000
,
00010100
00000000
00000000
00000010
00000000
00000000
00000001
00000000
,
00000010
00001000
00010000
00000100
,
00010000
00000000
00000000
00001000
00000000
00000000
00100000
00000000
,
00010000
01000000
00100000
10000000
,
01000000
00000000
00000000
00010000
00000000
00000000
00001000
00000000
,
00000100
00000001
00000010
00001000
,
00000010
00000000
00000000
00000001
00000000
00000000
00000100
00000000
,
00000010
00001000
00010000
01000000
,
00100000
10000000
00010000
00100000
,
00001000
00010000
00010000
00001000
,
00010000
00000000
00000000
00010100
00000000
00000000
00000000
00000000
,
00001000
00000000
00000000
00001001
00000000
00000000
00000010
00000000
,
00000001
00000000
00000000
00000011
00000000
00000000
00001000
00000000
,
00000100
00010000
00001000
01000000
,
00100000
00000000
00000000
10010000
00000000
00000000
01000000
00000000
,
00010000
00000000
00000000
00011000
00000000
00000000
00010000
00000000
,
00000100
00001000
00000010
00000001
,
00000010
00001000
00000100
00001001
,
00000010
00000000
00000000
00000010
00000000
00000000
00001000
00000000
,
00000100
00000000
00000000
00000100
00000000
00000000
00010000
00000000
,
00001000
00000000
00000000
00001000
00000000
00000000
00100000
00000000
,
00010000
01000000
10000000
01000000
,
00010000
00000000
00000000
00110000
00000000
00000000
00100000
00000000
,
10000000
00000000
00000000
10010000
00000000
00000000
01000000
00000000
,
00001000
00000000
00000000
00011000
00000000
00000000
00010000
00000000
,
00000010
00000100
00000110
00001001
,
00000001
00000010
00000100
00000010
,
00000001
00000100
00001000
00010000
,
00100000
00010000
00100000
10000000
,
00010000
01000000
00001000
00010000
,
00001000
00000100
00000001
00000010
,
00000100
00001000
00000010
00001000
,
00010000
00001000
00000100
00000010
,
00000021
00000100
00000031
00000000
;

//---------------dance-double - M.Lee----------------
#NOTES:
     dance-double:
     M.Lee:
     Easy:
     4:
     0.243,0.000,0.089,0.009,0.000:
00000000
00000000
00000000
00000000
,
00000000
00000000
00000000
00000000
,
00000000
00000000
00000000
00000000
,
00000000
00000000
00000000
00000000
,
00000000
00000000
00000000
00000000
,
00000000
00000000
00000000
00000000
,
01000000
00000000
00000000
01000000
00000000
00000000
00000000
00000000
,
00010000
00000000
00000000
00010000
00000000
00000000
00000000
00000000
,
00100000
00000000
00000000
00100000
00000000
00000000
00000000
00000000
,
00001000
00000000
00000000
00001000
00000000
00000000
00000000
00000000
,
00010000
00000000
00001000
00000000
,
00010000
00000000
00000100
00000000
,
00000010
00000000
00000001
00000000
,
00001000
00001000
00001000
00001000
,
00000010
00000000
00000000
00000010
00000000
00000000
00000000
00000000
,
00010000
00000000
00000000
00010000
00000000
00000000
00000000
00000000
,
00001000
00000000
00000000
00001000
00000000
00000000
00000000
00000000
,
01000000
00000000
00000000
01000000
00000000
00000000
00000000
00000000
,
00010000
00000000
10000000
00000000
,
01000000
00000000
00100000
00000000
,
00001000
00000000
00010000
00000000
,
00000100
00000100
00000100
00000100
,
00001000
00000000
00000010
00000000
,
00000100
00000100
00000100
00000000
,
00000001
00000000
00000010
00000000
,
00000100
00000100
00000100
00000000
,
00010000
00000000
00001000
00000000
,
00100000
00100000
00100000
00000000
,
00010000
00010000
00010000
00000000
,
10000000
10000000
10000000
00000000
,
00100000
00000000
00000000
00100000
00000000
00000000
00000000
00000000
,
01000000
00000000
00000000
01000000
00000000
00000000
00000000
00000000
,
00010000
00000000
00000000
00010000
00000000
00000000
00000000
00000000
,
00100000
00100000
00100000
00000000
,
00001000
00000000
00000000
00001000
00000000
00000000
00000000
00000000
,
01000000
00000000
00000000
01000000
00000000
00000000
00000000
00000000
,
00100000
00000000
00000000
00100000
00000000
00000000
00000000
00000000
,
10000000
10000000
10000000
00000000
,
00010000
00000000
01000000
00000000
,
00001000
00000000
00011000
00000000
,
00010000
00000000
00000010
00000000
,
00000100
00000000
00000101
00000000
,
00000010
00000000
00000000
00001010
00000000
00000000
00000000
00000000
,
00001000
00000000
00000000
00001100
00000000
00000000
00000000
00000000
,
00010000
00000000
00000000
00011000
00000000
00000000
00000000
00000000
,
00001000
00000000
00000000
00100000
00000000
00000000
00000000
00000000
,
00010000
00000000
10000000
00000000
,
01000000
00000000
00100000
00000000
,
00001000
00000000
00010000
00000000
,
00000100
00000100
00000100
00000000
,
00001000
00000000
00000001
00000000
,
00000010
00000001
00000010
00000000
,
00000100
00000000
00010000
00000000
,
00000100
00010000
00000100
00000000
,
00010000
00000000
00001000
00000000
,
01000000
00010000
01000000
00000000
,
00010000
10000000
00010000
00000000
,
01000000
01000000
01000000
00000000
,
00010000
00000000
00000000
00010000
00000000
00000000
00000000
00000000
,
00100000
00100000
00100000
00100000
,
00001000
00000000
00000000
00001000
00000000
00000000
00000000
00000000
,
00010000
00010000
00010000
00001000
,
01000000
00000000
00000000
01000000
00000000
00000000
00000000
00000000
,
00010000
00100000
00100000
01000000
,
10000000
00000000
00000000
10000000
00000000
00000000
00000000
00000000
,
10000000
01000000
00100000
00000000
,
00001000
00000000
00000000
00001000
00000000
00000000
00000000
00000000
,
00010000
00000000
00000000
00010000
00000000
00000000
00000000
00000000
,
00000100
00000000
00000000
00000100
00000000
00000000
00000000
00000000
,
00000010
00000000
00000000
00000010
00000000
00000000
00000000
00000000
,
00000001
00000000
00000010
00000000
,
00000100
00000000
00001000
00000000
,
00000100
00000000
00010000
00000000
,
00001000
00001000
00001000
00000000
,
00010000
00000000
00011000
00000000
,
00000100
00000000
00001100
00000000
,
00000010
00000000
00000011
00000000
,
00000001
00000000
00001001
00000000
,
00000001
00001000
00000001
00001000
,
00000001
00000000
00000010
00000000
,
00000100
00001000
00000100
00001000
,
00002100
00000000
00003000
00000000
;

//---------------dance-single - J. Frederick----------------
#NOTES:
     dance-single:
     J. Frederick:
     Beginner:
     1:
     0.107,0.000,0.124,0.000,0.000:
0000
0000
0000
0000
,
0000
0000
0000
0000
,
0000
0000
0000
0000
,
0000
0000
0000
0000
,
1000
0000
0000
0000
,
0000
0000
0000
0000
,
0001
0000
0000
0000
,
0010
0000
0000
0000
,
0100
0000
0000
0000
,
1000
0000
0000
0000
,
0001
0000
0000
0000
,
0100
0000
0000
0000
,
0010
0000
0000
0000
,
1000
0000
0000
0000
,
0001
0000
0000
0000
,
0000
0000
0000
0000
,
0010
0000
0000
0000
,
0000
0000
0000
0000
,
0100
0000
0000
0000
,
0000
0000
0000
0000
,
1000
0000
0000
0000
,
0000
0000
0000
0000
,
0001
0000
0000
0000
,
1000
0000
0000
0000
,
0010
0000
0000
0000
,
1000
0000
0000
0000
,
0001
0000
0000
0000
,
0010
0000
0000
0000
,
0100
0000
0000
0000
,
1000
0000
0000
0000
,
1001
0000
0000
0000
,
0110
0000
0000
0000
,
1001
0000
0000
0000
,
0000
0000
0000
0000
,
1001
0000
0000
0000
,
0110
0000
0000
0000
,
1001
0000
0000
0000
,
0000
0000
0000
0000
,
0100
0000
0000
0000
,
0010
0000
0000
0000
,
1000
0000
0000
0000
,
0001
0000
0000
0000
,
0100
0000
0000
0000
,
0100
0000
0000
0000
,
0100
0000
0000
0000
,
0100
0000
0000
0000
,
0010
0000
0000
0000
,
1000
0000
0000
0000
,
0001
0000
0000
0000
,
0100
0000
0000
0000
,
0010
0000
0000
0000
,
0000
0000
0000
0000
,
1000
0000
0000
0000
,
0001
0000
0000
0000
,
0100
0000
0000
0000
,
0010
0000
0000
0000
,
1000
0000
0000
0000
,
0001
0000
0000
0000
,
1000
0000
0000
0000
,
0001
0000
0000
0000
,
0100
0000
0000
0000
,
0010
0000
0000
0000
,
1000
0000
0000
0000
,
0001
0000
0000
0000
,
0010
0000
0000
0000
,
0100
0000
0000
0000
,
0110
0000
0000
0000
,
1001
0000
0000
0000
,
0110
0000
0000
0000
,
1001
0000
0000
0000
,
1001
0000
0000
0000
,
0110
0000
0000
0000
,
1001
0000
0000
0000
,
0110
0000
0000
0000
,
1000
0000
0000
0000
,
0001
0000
0000
0000
,
0010
0000
0000
0000
,
0100
0000
0000
0000
,
1000
0000
0000
0000
,
0001
0000
0000
0000
,
0100
0000
0000
0000
,
0010
0000
0000
0000
;

//---------------dance-single - J. Frederick----------------
#NOTES:
     dance-single:
     J. Frederick:
     Easy:
     3:
     0.222,0.000,0.018,0.205,0.000:
0000
0000
0000
0000
,
0000
0000
0000
0000
,
0000
0000
0000
0000
,
0000
0000
0000
0000
,
2000
0000
0000
3000
,
0002
0000
0000
0003
,
0010
0000
0000
0100
0000
0000
0000
0000
,
1000
0000
0000
0010
0000
0000
0000
0000
,
0100
0000
0000
0001
0000
0000
0000
0000
,
0010
0000
0000
0100
0000
0000
0000
0000
,
1000
0000
0000
0001
0000
0000
0000
0000
,
0010
0000
0000
0100
0000
0000
0000
0000
,
1000
0000
0000
0010
0000
0000
0000
0000
,
0100
0000
0000
0001
0000
0000
0000
0000
,
0010
0000
0100
0000
,
1000
0000
0010
0000
0200
0000
0000
0300
,
0001
0000
0010
0000
,
0100
1000
0100
0010
,
0001
0000
0100
0000
,
0010
0000
1000
0000
0002
0000
0000
0003
,
0010
0000
0100
0000
,
1000
0010
0100
0001
,
0020
0000
0000
0030
,
0200
0000
0000
0300
,
2000
0000
0000
3000
,
0020
0000
0000
0030
,
0200
0000
0000
0300
,
0020
0000
0000
0030
,
2000
0000
0000
3000
,
0002
0000
0000
0003
,
0010
0000
0000
0010
0000
0000
0000
0000
,
0100
0000
0000
0100
0000
0000
0000
0000
,
1000
0000
0000
1000
0000
0000
0010
0000
,
0200
0000
0000
0300
,
0001
0000
0000
0001
0000
0000
0000
0000
,
0010
0000
0000
0010
0000
0000
0000
0000
,
1000
0000
0000
1000
0000
0000
0000
0000
,
0010
0000
0100
0000
,
0010
0000
1000
0000
,
0010
0000
0100
0000
,
0001
0000
0010
0000
,
0001
0000
0100
0000
,
0010
0000
0000
0010
0000
0000
0000
0000
,
1000
0000
0000
1000
0000
0000
0000
0000
,
0001
0000
0000
0001
0000
0000
0000
0000
,
0010
0000
0000
0010
0000
0000
0000
0000
,
0100
0000
0100
0000
,
1000
0000
1000
0000
,
0010
0000
0100
0000
,
0001
0000
0010
0000
,
0100
0000
0100
0000
,
1000
0000
1000
0000
,
0020
0000
0000
0030
,
0200
0000
0000
0300
,
0001
0000
0010
0000
,
0200
0000
0000
0300
,
2000
0000
0000
3000
,
0001
0000
0010
0000
,
0100
0000
0100
0000
,
1000
0000
0001
0000
,
0100
0000
0010
0000
,
1000
0000
0001
0000
,
0010
0000
0100
0000
,
1000
0000
0001
0000
,
0100
0000
0010
0000
,
2002
0000
0000
3003
,
0010
0000
0000
0010
0000
0000
0000
0000
,
0100
0000
0000
0100
0000
0000
0000
0000
,
1000
0000
0000
1000
0000
0000
0001
0000
,
0020
0000
0000
0030
,
0001
0000
0000
0001
0000
0000
0000
0000
,
0100
0000
0000
0100
0000
0000
0000
0000
,
0010
0000
0000
0010
0000
0000
1000
0000
,
0200
0000
0000
0300
,
0010
0000
0001
0000
,
0100
0010
1000
0000
,
0100
0000
0010
0000
,
0001
0010
0100
0000
,
1000
0000
0010
0000
,
0100
0001
0010
0000
,
0001
0000
1000
0000
,
0010
0000
0220
0000
,
0000
0330
0000
0000
;

//---------------dance-single - J. Frederick----------------
#NOTES:
     dance-single:
     J. Frederick:
     Medium:
     5:
     0.405,0.000,0.213,0.187,0.000:
0000
0000
0000
0000
,
0000
0000
0000
0000
,
0000
0000
0000
0000
,
0000
0000
0000
0000
,
1000
0001
0010
0100
,
1000
0100
0010
0001
,
0101
0000
0000
1001
0000
0100
0010
0000
,
1100
0000
0000
0110
0000
0010
0001
0000
,
1100
0000
0000
0110
0000
0100
0010
0000
,
1100
0000
0000
1010
0000
0001
0100
0000
,
1010
0000
0000
0101
0000
0010
0100
0000
,
1100
0000
0000
0011
0000
0100
0001
0000
,
1010
0000
0000
0101
0000
0010
0001
0000
,
0101
0000
1000
0001
0000
0001
1000
0000
,
1000
0001
0010
0100
,
1000
0010
0200
0000
,
0310
1000
0100
0010
,
0001
0100
0001
1000
,
0010
0100
0001
0010
,
0001
1000
0020
0000
,
0130
0001
0010
0100
,
1000
0100
0010
0001
,
2000
3000
0002
0003
,
0010
0100
1000
0010
,
0200
0300
0020
0030
,
0100
0001
0010
0100
,
2000
3000
0002
0003
,
0010
0100
1000
0010
,
0200
0300
0002
0003
,
2000
3000
0001
0010
,
0100
1000
0000
0010
0100
0000
0000
0000
,
0001
0010
0000
0100
1000
0000
0000
0000
,
0010
0100
0000
0001
0010
0000
0100
0000
,
2000
0000
0000
3000
,
0001
0010
0000
0100
1000
0000
0000
0000
,
0010
0100
0000
0001
0010
0000
0000
0000
,
0100
1000
0000
0100
0010
0000
0001
0000
,
0200
0000
0000
0300
,
0010
1000
0001
0010
,
1000
0010
0100
1000
,
0010
0100
0001
0010
,
0001
1000
0010
0100
,
0110
0000
0000
1MM1
0000
0000
0000
0000
,
0011
0000
0000
11MM
0000
0000
0000
0000
,
0110
0000
0000
MM11
0000
0000
0000
0000
,
0101
0000
0000
1MM1
0000
0000
1000
0000
,
0001
0010
0000
0100
0010
0000
0000
0000
,
0100
1000
0010
0100
,
0001
0010
0001
0100
,
0010
1000
0010
0100
,
0001
0010
0100
1000
,
0010
0100
0001
0010
,
0002
0000
0000
0003
,
2000
0000
0000
3000
,
0020
0000
0000
0030
,
0200
0000
0000
0300
,
0010
1000
0100
0010
,
0001
0100
0001
1000
,
0010
0000
0000
0010
0000
0000
0100
0000
,
0001
0000
0000
0001
0000
0000
0010
0000
,
0100
0000
0000
0100
0000
0000
1000
0000
,
0010
0100
0001
0010
,
0100
0000
0000
0100
0000
0000
1000
0000
,
0010
0000
0000
0010
0000
0000
0100
0000
,
0001
0000
0000
0001
0000
0000
0010
0000
,
0001
1000
0001
0100
,
0010
0100
0000
0100
0010
0000
1000
0000
,
0100
0010
0000
0010
0100
0000
1000
0000
,
0001
0100
0000
0100
0001
0000
0010
0000
,
0002
0000
0000
0003
,
0100
0010
0000
0010
1000
0000
0100
0000
,
0010
0100
0000
0100
1000
0000
0010
0000
,
0100
0001
0000
0001
0010
0000
0100
0000
,
2000
0000
0000
3000
,
0010
0100
0001
0010
,
0100
1000
0100
0010
,
0001
1000
0010
0001
,
0010
1000
0100
0001
,
0100
1000
0001
0010
,
0100
1000
0010
0100
,
0001
0010
0001
0100
,
0001
0000
0000
1000
0010
0000
0100
0000
,
0220
0000
0330
0000
;

//---------------dance-single - J. Frederick----------------
#NOTES:
     dance-single:
     J. Frederick:
     Hard:
     8:
     0.633,0.000,0.062,0.036,0.000:
0000
0000
0000
0000
,
0000
0000
0000
0000
,
0000
0000
0000
0000
,
0000
0000
0000
0000
,
1000
0100
1000
0100
1000
0100
1000
0100
,
0010
0001
0010
0001
0010
0001
0010
0001
,
0100
0000
0100
0001
0000
0001
1000
0000
,
0010
0000
0100
0010
0000
0010
1000
0000
,
0100
0000
0010
0001
0000
0001
0100
0000
,
0010
0000
1000
0010
0000
0010
0001
0000
,
0010
0000
0100
0001
0000
0001
0010
0000
,
0100
0000
1000
0010
0000
0010
0100
0001
,
0010
0000
0010
0100
0000
0100
1000
0010
,
0100
0000
0100
0001
0000
0001
0010
0100
,
1000
0000
1000
0100
1000
0100
0010
0001
,
0010
0001
0100
0001
2000
0000
0000
3000
,
0010
0100
0010
0100
0001
0010
0100
1000
,
0100
0010
0001
0100
0001
0000
0001
1000
,
0010
0000
0010
0100
0001
0010
0100
1000
,
0100
0010
0001
0100
0002
0000
0000
0003
,
1000
0010
0100
0010
1000
0100
0010
0001
,
0100
0001
1000
0010
0100
0010
0100
0001
,
0010
0000
0010
0001
0000
1000
0010
0000
,
0100
0000
0001
0010
0000
0010
0100
0000
,
1000
0000
0010
0100
0000
0100
0001
0000
,
0010
0000
0001
0100
0000
0100
0001
0000
,
1000
0000
0010
0100
0000
0100
0001
0000
,
0010
0000
0100
1000
0000
1000
0010
0000
,
0100
0000
0001
0010
0000
0010
0001
0000
,
1000
0001
1000
0001
0100
0010
0100
0010
,
1000
0001
0000
0010
0100
0000
1000
0000
,
0010
0100
0000
0100
0001
0000
0010
0000
,
0100
1000
0000
1000
0010
0000
0100
0000
,
0001
0010
0001
0100
,
0010
1000
0000
1000
0010
0000
0100
0000
,
0001
0010
0000
0010
0100
0000
1000
0000
,
0010
0100
0000
0100
0001
0000
0010
0000
,
0100
1000
0010
0100
,
0001
0100
0001
0100
0001
0100
0001
0010
,
0001
0010
0001
0010
0001
0010
0100
0010
,
0100
0010
0100
0010
0100
0010
0100
1000
,
0010
1000
0010
0100
0001
0010
0100
0000
,
1000
0010
0000
0100
M001
0000
00M0
0000
,
0100
001M
0100
1000
00M0
0000
0M00
000M
,
0000
1000
0001
0010
1100
0000
0010
0000
,
0100
0001
0010
0001
0100
0000
1001
0000
,
0100
0010
0000
0010
1000
0000
0100
0000
,
0010
0001
0100
0001
1000
0000
0010
0000
,
0100
0010
1000
0100
0010
0001
0100
0001
,
1000
0010
0100
0010
1000
0000
0001
0000
,
0010
0001
0010
0001
0100
0001
1000
0001
,
0100
0010
1000
0010
0100
0000
0001
0000
,
0010
0100
1000
0100
0010
0001
0100
0001
,
1000
0010
0100
0010
1000
0000
0001
0000
,
0010
0001
0100
0001
1000
0010
0100
0010
,
1000
0001
0010
0100
1000
0000
0100
0000
,
0010
0001
0010
0000
0100
1000
0100
0000
,
0010
0001
0100
0010
1000
0010
0100
0001
,
0010
0100
0000
0100
1000
0010
0100
0001
,
0010
0100
0000
0100
1000
0010
0100
0001
,
0010
0001
0000
0001
0100
0000
0010
0000
,
1000
0010
0100
0001
0010
0100
1000
0010
,
0100
0001
0000
0001
0010
0001
0100
0000
,
0001
1000
0000
1000
0010
0100
0010
0000
,
1000
0001
0010
0100
1000
0000
0010
0000
,
0100
0001
0100
0001
0010
0001
0100
0001
,
1000
0001
0000
0001
0100
0010
1000
0000
,
0010
0100
0000
0100
0001
0010
0100
0000
,
1000
0100
0000
0100
0010
0001
0100
0000
,
0100
0001
1000
0010
0100
0010
1000
0001
,
0010
0100
0000
0100
1000
0010
0100
0000
,
0001
0010
0000
0010
0001
0100
0001
0000
,
1000
0010
0000
0010
0100
0001
0010
0000
,
0100
1000
0100
0010
0001
0100
0001
0000
,
1000
0001
1000
0001
1000
0001
1000
0001
,
0100
0001
0100
0001
0100
0001
0100
0001
,
0010
0001
0010
0001
0010
0001
0010
0000
,
1000
0010
0100
0001
0010
0100
1000
0100
,
0010
0000
0010
0001
0100
0000
1010
0000
,
0000
0110
0100
0001
0010
0100
1000
0100
,
0010
0000
0010
0001
0100
0001
1000
0000
,
1000
0010
0100
0001
0010
0000
0110
0000
,
0110
0220
0000
0330
;

//---------------dance-single - J. Frederick----------------
#NOTES:
     dance-single:
     J. Frederick:
     edit:
     9:
     0.716,0.000,0.178,0.071,0.000:
0000
0000
0000
0000
,
0000
0000
0000
0000
,
0000
0000
0000
0000
,
0000
0000
0000
0000
,
1000
0100
0010
0001
0010
0100
1000
0100
,
0010
0001
0010
0100
1000
0100
0010
0001
,
0100
0000
0100
0010
1000
0010
0100
0001
,
0010
0100
1000
0100
0010
0000
0001
0000
,
0100
0010
1000
0010
0100
0001
0010
0100
,
1000
0100
0010
0001
0100
0000
0001
0000
,
1000
0010
0100
0001
0010
0001
1000
0010
,
0100
0010
1000
0001
0010
0100
1000
0010
,
0100
0001
0010
0001
0100
0001
1000
0010
,
0100
0000
0100
0010
0000
0010
1000
0100
,
0010
0000
0010
0100
1000
0100
0010
0100
,
1000
0100
0010
0100
2000
0000
0000
3000
,
0010
0100
0001
0100
0010
0100
0001
0100
,
0010
0100
0001
0100
0010
0000
0100
0000
,
0001
0010
0100
1000
0010
0100
0001
0010
,
0001
0100
0001
1000
0002
0000
0000
0003
,
0100
0010
1000
0010
0100
0001
0010
0100
,
1000
0100
0010
0001
0100
0001
1000
0010
,
0100
0000
0100
0001
0010
0100
1000
0000
,
1000
0100
0010
0001
0100
0010
1000
0010
,
0100
0000
0100
0001
0010
0000
0010
0001
,
0100
0001
1000
0010
0100
0001
0010
0100
,
1000
0000
1000
0100
0010
0000
0010
0001
,
0100
0010
1000
0010
0001
0010
0100
0010
,
1000
0000
1000
0100
0010
0001
0010
0100
,
1000
0100
0010
0001
1000
0100
0010
0001
,
0101
1000
0000
0001
0100
0010
1000
0000
,
0110
0100
0000
0001
0010
0100
1000
0000
,
1100
0010
0000
0010
0001
0100
0001
0000
,
0001
1000
0010
0100
0010
1000
0001
0010
,
1100
1000
0000
1000
0000
1000
0100
0010
,
0010
0001
0100
0010
1000
0000
1010
0000
,
0100
0001
0010
0100
1000
0100
1000
0000
,
1000
0100
0010
0001
0010
0001
0100
0000
,
0100
0001
0100
0001
0100
0001
0100
0001
,
0010
0001
0010
0001
0010
0001
0010
0001
,
1000
0001
1000
0001
1000
0001
1000
0001
,
0100
0001
0100
0001
0100
0001
0010
0001
,
0010
0000
0010
0100
0000
0M0M
M0M0
0000
,
1000
0000
0010
0100
0M0M
M0M0
0001
0000
,
0010
0000
0001
0100
0M0M
M0M0
0001
0000
,
1000
0000
0010
0100
0001
0010
0100
0000
,
1100
0100
0000
0100
0010
0001
0100
0000
,
0100
0010
1000
0010
0100
0001
0010
0000
,
0010
0100
1000
0100
0010
0001
0100
0001
,
1000
0010
0100
0010
1000
0000
1001
0000
,
0010
0001
0010
0100
1000
0010
0100
0001
,
0010
0100
1000
0010
0200
0000
0002
0000
,
0313
0100
1000
0100
0010
0001
0100
0001
,
1000
0010
0100
0001
2000
0000
0002
0000
,
3013
0100
1000
0100
0010
0001
0100
0001
,
1000
0010
0100
0000
0001
0000
0010
0000
,
0001
1000
0001
1000
0001
0010
0001
0010
,
0001
0100
0001
0100
0001
1000
0001
0000
,
0100
0010
1000
0001
0010
0100
1000
0100
,
0010
0001
0100
0001
1000
0000
1001
0000
,
0100
0010
0100
0010
1000
0001
0010
0100
,
1000
0010
0100
0001
0010
0000
0011
0000
,
0010
0100
1000
0100
0010
0001
0100
0001
,
1000
0010
0100
0001
0010
0000
0011
0000
,
1000
0010
0100
0001
0010
0100
1000
0010
,
0100
0001
0010
0001
0100
0000
1001
0000
,
1001
0100
0000
0100
0010
1000
0100
0000
,
0110
0010
0000
0010
0001
0100
0001
0000
,
0101
1000
0000
1000
0010
0100
0001
0000
,
0010
0001
0100
0001
1000
0010
0100
0001
,
0011
0010
0000
0010
0100
1000
0010
0000
,
0110
0100
0000
0001
0010
0100
1000
0000
,
1100
0010
0000
0010
0001
0100
0001
0000
,
1000
0010
0100
0001
0010
0100
1000
0010
,
0100
0000
0100
0001
0010
0100
1000
0000
,
1000
0010
0100
0001
0010
0001
0100
0001
,
1000
0000
1000
0010
0100
0000
0100
0001
,
0010
0100
1000
0100
0010
0001
0010
0000
,
0010
0001
0100
0001
1000
0010
0100
0001
,
0010
0100
1000
0010
0100
0001
0010
0001
,
0100
0001
1000
0010
0001
1000
0010
0100
,
0001
0010
0100
1000
0010
0000
0110
0000
,
0110
0000
0220
0000
0000
0330
0000
0000
;

//---------------dance-single - D. Renzetti----------------
#NOTES:
     dance-single:
     D. Renzetti:
     challenge:
     9:
     -1.000,-1.000,-1.000,-1.000,-1.000:
// measure 1
0000
0000
0000
0000
,  // measure 2
0000
0000
0000
0000
,  // measure 3
0000
0000
0000
0000
,  // measure 4
0000
0000
0000
0000
,  // measure 5
1000
1000
0010
0100
,  // measure 6
0001
0000
0001
0000
1000
0010
0100
0001
,  // measure 7
2000
0000
3010
1010
0000
0000
0011
0000
,  // measure 8
0120
0000
0130
0110
0000
0000
1001
0000
,  // measure 9
1200
0000
0310
0110
0000
0000
1100
0000
,  // measure 10
0201
0000
1300
1100
0000
0000
0101
0000
,  // measure 11
0011
0000
0001
0100
0000
0100
0010
0000
,  // measure 12
1100
0000
1000
0010
0000
0010
0100
0001
,  // measure 13
0011
0000
0001
0101
0000
0000
0110
0000
,  // measure 14
1010
0000
1000
1100
0000
0001
1001
0100
,  // measure 15
0001
0010
0001
0100
0010
0001
0010
1000
,  // measure 16
0100
0010
0200
0000
0301
0000
0110
0000
,  // measure 17
0001
0010
0100
1000
0010
0100
1000
0100
,  // measure 18
0001
0010
1000
0010
0001
0000
0101
0000
,  // measure 19
0100
0000
0000
0102
0000
0000
1003
0000
,  // measure 20
1010
0000
0000
2001
0000
0010
3010
0000
,  // measure 21
0110
0000
0000
0012
0000
0000
0103
0001
,  // measure 22
0100
0000
0000
1020
0000
0000
0130
0010
,  // measure 23
1000
0100
1000
0100
0010
0001
0010
0001
,  // measure 24
1000
0000
0010
1010
0000
0000
1001
0000
,  // measure 25
0001
0010
0001
0010
0100
1000
0100
1000
,  // measure 26
0001
0000
0010
0011
0000
0001
0010
0100
,  // measure 27
1000
0000
0001
1001
0000
1000
0100
0000
,  // measure 28
1100
0000
0010
1010
0000
1000
0100
0010
,  // measure 29
0001
0100
0001
1000
0001
0010
1000
0010
,  // measure 30
0001
0100
1000
0100
0010
0000
1010
0000
,  // measure 31
1001
M001
0000
1001
100M
0000
1010
0000
,  // measure 32
0101
010M
0000
0101
0M01
0000
0011
0000
,  // measure 33
1100
1M00
0000
1100
M100
0000
1100
0000
,  // measure 34
0001
0010
0100
1000
0100
0010
0001
0010
,  // measure 35
0110
0M10
0000
0110
01M0
0000
1100
0000
,  // measure 36
0101
0000
0000
010M
0000
0000
0M01
0000
0101
0000
0000
0000
0110
0000
0000
0000
,  // measure 37
1001
M001
0000
100M
1001
0000
1002
0000
,  // measure 38
1003
0100
0010
0001
0010
0100
1000
0100
,  // measure 39
0010
0001
0010
0001
0100
0001
0100
0001
,  // measure 40
1000
0010
1000
0010
1000
0100
1000
0100
,  // measure 41
0010
0001
0100
1000
0100
0010
1000
0001
,  // measure 42
0100
0010
0001
0010
1000
0100
0010
0001
,  // measure 43
1100
1000
MM00
0011
0001
00MM
0000
0000
,  // measure 44
1010
0010
M0M0
0101
0100
0M0M
0001
0000
,  // measure 45
1000
1001
M00M
0001
1001
M00M
0000
0000
,  // measure 46
1000
1100
MM00
0001
0011
00MM
0001
0100
,  // measure 47
0010
1000
0010
1002
0000
1003
0100
0010
,  // measure 48
0001
0100
0010
0102
0000
0103
0010
1000
,  // measure 49
0010
0100
0010
1200
0000
1300
0001
0100
,  // measure 50
0001
0010
0100
0021
0000
0031
0100
0010
,  // measure 51
1000
MM0M
0010
0100
0010
1000
0010
0100
,  // measure 52
0001
0000
0010
0000
0100
0000
0000
0000
1100
0000
0000
0000
1010
0000
0000
0M00
,  // measure 53
M0M0
000M
0000
0000
1000
0000
0010
0000
1000
0000
0100
0000
0010
0000
0001
0000
,  // measure 54
0100
0010
0001
0010
1000
0000
1010
0000
,  // measure 55
0101
0000
0000
00MM
MM00
0000
0011
0000
0000
0000
0001
0000
0010
0000
0100
0000
,  // measure 56
1000
0010
0001
0010
0100
0010
1000
0000
,  // measure 57
0010
0001
0010
1000
0010
0100
0001
0001
,  // measure 58
0100
0100
0010
1000
1000
0010
0100
0000
,  // measure 59
0002
0000
0103
0101
0000
0000
0110
0000
,  // measure 60
2000
0000
3010
1010
0000
1000
0100
0010
,  // measure 61
0002
0000
1003
1001
0000
0000
0110
0000
,  // measure 62
2001
0000
3001
1001
1000
0100
0010
0001
,  // measure 63
0100
1000
0100
0010
1000
0000
0100
0010
,  // measure 64
0001
0000
0100
0110
0000
0010
1000
0000
,  // measure 65
0010
0010
1000
0100
0010
0001
0100
0010
,  // measure 66
0100
0100
0001
0010
0100
1000
0010
0100
,  // measure 67
0201
0001
0300
0120
1000
0030
1001
0000
,  // measure 68
1200
1000
0300
0210
0010
0300
0011
0000
,  // measure 69
0012
0010
0003
0210
0010
0300
1000
0100
,  // measure 70
0010
0001
0100
0010
1000
0010
0100
0001
,  // measure 71
1020
1000
0030
0102
0103
0001
0100
0010
,  // measure 72
2100
0100
3000
1002
1003
0001
0100
0010
,  // measure 73
0210
0010
0300
1020
1030
0010
0100
0001
,  // measure 74
0010
0100
0010
0100
1000
0100
1000
0010
,  // measure 75
0100
0001
0100
0001
0100
0010
0100
0010
,  // measure 76
1000
0010
1000
0010
1000
0001
1000
0001
,  // measure 77
0100
0001
0100
0001
0010
0001
0010
0100
,  // measure 78
1000
0100
1000
0100
1000
0010
1000
0010
,  // measure 79
1000
0100
0001
0100
1000
0100
0001
0100
,  // measure 80
1000
0010
0001
0010
1000
0010
0001
0010
,  // measure 81
1000
0100
0010
0001
0100
0010
1000
0001
,  // measure 82
0101
MM0M
0000
0000
;
