#TITLE:Do What You Wanna Do;
#SUBTITLE:;
#ARTIST:Playmaker;
#TITLETRANSLIT:;
#SUBTITLETRANSLIT:;
#ARTISTTRANSLIT:;
#GENRE:Disco;
#CREDIT:;
#BANNER:Do What You Wanna Do-bn.png;
#BACKGROUND:Do What You Wanna Do-bg.png;
#LYRICSPATH:;
#CDTITLE:;
#MUSIC:Do What You Wanna Do.ogg;
#OFFSET:-2.788;
#SAMPLESTART:46.507;
#SAMPLELENGTH:16.823;
#SELECTABLE:YES;
#BPMS:0.000=128.943;
#STOPS:;
#BGCHANGES:-5.700=Do What You Wanna Do.mpg=1.000=1=0=0=StretchNoLoop==CrossFade==,
99999=-nosongbg-=1.000=0=0=0 // don't automatically add -songbackground-;
#KEYSOUNDS:;

//---------------dance-single - D. D'Amato----------------
#NOTES:
     dance-single:
     D. D'Amato:
     Challenge:
     9:
     0.551,0.539,0.307,0.067,0.346,363.000,32.000,7.000,32.000,1.000,2.000,0.551,0.539,0.307,0.067,0.346,363.000,32.000,7.000,32.000,1.000,2.000: // measure 1
0000
0000
0000
0000
,  // measure 2
0000
0000
0000
0000
,  // measure 3
0000
0000
0000
0000
,  // measure 4
0000
0000
0000
0000
0000
0000
0000
0000
0100
0000
1000
0000
0001
0000
1000
0100
,  // measure 5
0000
0000
1000
0010
0000
0000
1000
0001
0000
0000
1000
0100
0000
0000
1000
0010
,  // measure 6
0000
0000
1000
0001
0000
0000
0001
0000
0100
0000
0001
0000
1000
0000
0001
0100
,  // measure 7
0000
0000
0001
0010
0000
0000
0001
1000
0000
0000
0001
0100
0000
0000
0001
0010
,  // measure 8
0000
0000
0001
1000
0000
0000
1000
0000
0001
0000
0010
0000
0001
0000
1000
0000
,  // measure 9
0010
0000
0010
1000
0000
0000
0001
0000
1000
0000
0010
0000
1000
0000
0001
0000
,  // measure 10
0010
0000
0010
0001
0000
0000
1000
0000
0001
0000
0010
0000
0100
0000
0010
0000
,  // measure 11
0001
0000
1000
0010
0000
1000
0010
0000
1000
0000
0001
0000
0010
0001
0010
0000
,  // measure 12
0001
0000
1000
0001
0000
0100
0000
0000
2001
0000
0000
0000
3100
0000
0000
0000
,  // measure 13
1002
0000
0103
0010
1001
10M0
1000
0001
,  // measure 14
0010
0000
0000
0010
0100
0000
1000
0000
0001
0000
001M
0000
0001
0000
1000
0000
,  // measure 15
0010
0000
0000
0010
0100
0000
0001
0000
1000
0000
M0M0
0000
1000
0000
0001
0000
,  // measure 16
0010
0000
0000
0010
0100
0000
1000
0000
0001
0000
0011
0000
0001
0000
1000
0000
,  // measure 17
0010
1000
0010
0000
2000
0000
0000
0000
3010
0000
0000
0010
0100
0000
0001
0000
,  // measure 18
1000
0000
0000
1000
0100
0000
0010
0000
0001
0000
0000
0001
1000
0000
0010
0000
,  // measure 19
0100
0000
0000
0100
0001
0000
1000
0000
0010
1000
0000
0010
0100
0000
0001
0000
,  // measure 20
1000
0001
0000
1000
0100
0000
0010
0000
0001
0010
0000
0001
1000
0000
0010
0000
,  // measure 21
0100
0010
0000
0100
0001
0000
1000
0000
0010
0000
0000
0000
0110
0000
0000
0000
,  // measure 22
0101
1001
1100
1001
,  // measure 23
0101
2001
0011
0010
,  // measure 24
3100
1001
2010
3100
,  // measure 25
0040
0004
0000
0000
0033
0000
1001
0000
0100
0000
0001
0000
1000
0000
0100
0000
,  // measure 26
0001
0100
1100
MMMM
0100
1000
0001
0100
,  // measure 27
1000
0100
0101
MMMM
0100
0001
1000
0100
,  // measure 28
0001
0100
1100
1MMM
0100
1000
0001
0100
,  // measure 29
1000
0100
0101
1M1M
0100
0001
1000
0010
,  // measure 30
0001
0010
1010
MMMM
0010
1000
0001
0010
,  // measure 31
1000
0010
0011
MMMM
0010
0001
1000
0010
,  // measure 32
0001
0010
1010
1MMM
0010
1000
0001
0010
,  // measure 33
1000
0000
0010
0000
0011
0000
11MM
0000
0010
0000
0100
0000
0010
0001
0010
0000
,  // measure 34
0100
0000
0010
0001
0010
0000
0100
0000
1000
0000
0010
0000
0100
0001
0100
0000
,  // measure 35
0010
0000
0100
0001
0100
0000
0010
0000
1010
0000
1000
0000
0100
1000
0100
0000
,  // measure 36
0010
0000
0100
1000
0100
0000
0010
0000
00M1
0000
0100
0000
0010
1000
0010
0000
,  // measure 37
0100
0000
0010
1000
0010
0000
0100
0000
0001
0000
0010
0000
0100
1000
0000
0100
,  // measure 38
0000
0010
0000
0100
1000
0000
0100
0000
0010
0000
0001
0000
0100
0001
0000
0100
,  // measure 39
0000
0010
0000
0100
0001
0000
1000
0000
0001
0000
0100
0000
0010
1000
0000
0010
,  // measure 40
0000
0100
0000
0010
1000
0000
0010
0000
0100
0000
0001
0000
0010
0001
0000
0010
,  // measure 41
0100
0010
0001
1000
0001
0000
1100
0000
,  // measure 42
0010
0001
0100
0000
0010
0000
0101
0000
,  // measure 43
1000
0010
0100
0000
0001
0000
0110
0000
,  // measure 44
1000
0001
0010
0000
0100
0000
1001
0000
,  // measure 45
0010
0100
1000
0010
1001
000M
0001
0000
,  // measure 46
1000
0000
0000
0010
1000
0000
0000
1000
0001
0000
0100
0000
0001
0000
0000
0000
,  // measure 47
0001
0000
0000
0010
0001
0000
0000
0001
1000
0000
0100
0000
1000
0000
0000
0000
,  // measure 48
0001
0000
0000
0100
0010
0000
0000
0000
1000
0000
0000
0100
0010
0000
0000
0000
,  // measure 49
0001
0000
0000
0100
0010
0000
0000
0000
1000
0000
0000
0000
0001
0000
0000
0000
,  // measure 50
1000
0000
0000
0100
1000
0000
0000
1000
0001
0000
0010
0000
0001
0000
0000
0000
,  // measure 51
0001
0000
0000
0100
0001
0000
0000
0001
1000
0000
0010
0000
1000
0000
0000
0000
,  // measure 52
0001
0000
0000
0010
0100
0000
0000
0000
1000
0000
0000
0010
0100
0000
0000
0000
,  // measure 53
0001
0000
0000
0010
0100
0000
0000
0000
2002
0000
0000
0000
0000
0000
0000
0000
,  // measure 54
0000
0000
3003
0000
;

//---------------dance-single - D. D'Amato----------------
#NOTES:
     dance-single:
     D. D'Amato:
     Hard:
     7:
     0.469,0.436,0.326,0.106,0.014,297.000,34.000,11.000,0.000,0.000,0.000,0.469,0.436,0.326,0.106,0.014,297.000,34.000,11.000,0.000,0.000,0.000:
0000
0000
0000
0000
,
0000
0000
0000
0000
,
0000
0000
0000
0000
,
0000
0000
0000
0000
0010
0100
0010
0001
,
0000
1000
0100
1000
0010
0100
0010
1000
,
0000
0001
0100
0001
0010
0100
0010
0001
,
0000
1000
0100
1000
0010
0100
0010
1000
,
0000
0001
0000
1000
0100
0010
0100
1000
,
0001
0001
0000
0001
0100
0010
0100
0001
,
1000
1000
0000
1000
0001
0010
0100
1000
,
0010
1000
0100
0010
0001
0100
0001
0010
,
0100
0000
1000
0000
0000
0010
0000
0000
0201
0000
0000
0000
0310
0000
0000
0000
,
1020
0000
0130
0001
1000
0000
0010
0100
,
0001
0000
1010
0000
0100
0000
0001
0010
,
0100
0000
1001
0000
0010
0000
0100
1000
,
0001
0000
0110
0000
1000
0010
0100
0001
,
0010
0100
2000
0000
3001
0000
0010
0100
,
1000
0000
0011
0000
0100
0000
1000
0010
,
0100
0000
1001
0000
0010
0000
0100
0001
,
1000
0000
0110
0000
0001
0010
0100
1000
,
0010
0100
0002
0000
1003
0000
0101
0000
,
0010
1001
0100
1010
,
0001
0120
1000
0100
,
1030
0101
2010
3100
,
0012
0000
0000
1003
0100
0100
0100
1000
,
0100
0010
0110
0000
0010
0010
0010
0100
,
0010
0001
1001
0000
0001
0001
0001
0100
,
0010
0100
0110
0000
0100
0100
0100
0010
,
0100
0000
0001
1000
0002
0000
0000
0000
0103
0000
0100
0000
0100
0000
0001
0000
,
0100
0010
0110
0000
0010
0010
0010
0100
,
0010
1000
1001
0000
1000
1000
1000
0100
,
0010
0100
0110
0000
0100
0100
0100
0010
,
0100
0000
1000
0001
2000
0000
0000
0000
3100
0000
0010
0000
0001
0000
0010
0000
,
0100
0010
0001
0010
0100
1000
0100
0010
,
0100
1000
0100
0010
0001
0100
0001
0010
,
0001
0100
0001
1000
1010
1000
0100
1000
,
0010
1000
0100
1000
1010
0010
1000
0010
,
0100
0010
1000
0010
0100
0001
0100
0010
,
0100
0001
0100
0010
1000
0100
1000
0010
,
1000
0100
1000
0001
0011
0001
0100
0001
,
0010
0001
0100
0001
0011
0000
1100
0000
,
0010
0100
1010
0101
,
1000
0010
1001
0110
,
1000
0001
0110
1001
,
0010
0000
0100
0010
1001
0000
0010
0000
,
0100
0000
0100
0000
0010
0001
0010
0000
,
0001
0000
0001
0000
0100
0001
0100
0000
,
0010
1000
0100
1000
,
0010
1000
0100
0010
,
0001
0000
0100
0000
0010
1000
0010
0000
,
1000
0000
1000
0000
0100
1000
0100
0000
,
0010
0001
0100
0001
,
0010
0100
2002
0000
,
0000
0000
3003
0000
;

//---------------dance-single - D. D'Amato----------------
#NOTES:
     dance-single:
     D. D'Amato:
     Medium:
     5:
     0.356,0.334,0.115,0.086,0.000,239.000,12.000,9.000,0.000,0.000,0.000,0.356,0.334,0.115,0.086,0.000,239.000,12.000,9.000,0.000,0.000,0.000:
0000
0000
0000
0000
,
0000
0000
0000
0000
,
0000
0000
0000
0000
,
0000
0000
0000
0000
0001
0100
0000
0100
,
0000
0010
0000
0010
0000
1000
0000
1000
,
0000
0010
0000
0010
1000
0100
0000
0100
,
0000
0010
0000
0010
0000
0001
0000
0001
,
0000
0010
0000
0010
0001
1000
0000
0010
,
0000
0100
0000
0010
1000
0001
0000
0010
,
0000
0100
0000
0010
0001
1000
0000
0010
,
1000
0001
0000
0010
0001
1000
0010
0100
,
0001
1000
0100
0000
0020
0000
0031
0000
,
0002
0000
0103
0000
0010
0000
1000
0100
,
1000
0000
0001
0000
0100
0000
0001
0010
,
0001
0000
1000
0000
0100
0000
1000
0010
,
1000
0000
0001
0000
0010
0000
0001
0100
,
0001
0000
2000
0000
3001
0000
0010
0001
,
0010
0000
0100
0000
0001
0000
0100
1000
,
0100
0000
0010
0000
0001
0000
0010
1000
,
0010
0000
0100
0000
1000
0000
0100
0001
,
0100
0020
0130
0010
,
0001
0100
1001
0010
,
1000
0100
1002
0100
,
1003
0010
2001
3100
,
1002
0000
0000
0003
0100
0001
0100
0001
,
0100
0000
0010
0000
0010
1000
0010
1000
,
0010
0000
1000
0000
1000
0100
1000
0100
,
1000
0000
0001
0000
0001
0100
0001
0100
,
0001
1000
0100
0000
0100
1000
0100
1000
,
0100
0000
0010
0000
0010
0001
0010
0001
,
0010
0000
0001
0000
0001
0100
0001
0100
,
0001
0000
1000
0000
1000
0100
1000
0100
,
1000
0001
0100
0000
0010
0100
0001
0000
,
0100
0001
0010
0000
0010
0100
1000
0000
,
0100
1000
0010
0000
0010
0100
0001
0000
,
0100
0001
0010
0000
0010
0100
1000
0100
,
1000
0001
1001
0000
0010
0100
1000
0000
,
0100
1000
0010
0000
0010
0100
0001
0000
,
0100
0001
0010
0000
0010
0100
1000
0000
,
0100
1000
0010
0000
0010
1000
0001
1000
,
0001
0010
0110
0000
1001
0000
0010
0000
,
0100
1000
0011
0100
,
1000
0001
1010
0100
,
0001
1000
0110
0001
,
0100
0010
1001
0000
,
0100
0000
0010
0000
,
0001
0000
0100
0000
,
0010
1000
0100
0100
,
1000
1000
0010
0000
,
0100
0000
0010
0000
,
1000
0000
0100
0000
,
0010
0001
0100
0100
,
0001
0001
2002
0000
,
0000
0000
3003
0000
;

//---------------dance-single - D. D'Amato----------------
#NOTES:
     dance-single:
     D. D'Amato:
     Easy:
     2:
     0.215,0.231,0.192,0.115,0.000,125.000,20.000,12.000,0.000,0.000,0.000,0.215,0.231,0.192,0.115,0.000,125.000,20.000,12.000,0.000,0.000,0.000:
0000
0000
0000
0000
,
0000
0000
0000
0000
,
0000
0000
0000
0000
,
0000
0000
0001
0000
,
0000
0000
0001
0000
,
0000
0000
1000
0000
,
0000
0000
1000
0000
,
0000
0000
0010
0000
,
0000
0000
1000
0000
,
0000
0000
0001
0000
,
0100
0000
0001
0001
,
1000
1000
2002
3003
,
0220
0330
0100
0001
,
0000
0010
0010
0001
,
0000
0100
0100
1000
,
0000
0010
0010
1000
,
0000
2000
3001
0010
,
0000
0100
1000
0100
,
0000
0010
0001
0010
,
0000
0001
1000
0001
,
0000
0020
0130
0010
,
0000
1000
0000
0100
,
0000
0001
0110
1000
,
0000
0010
2002
3003
,
0220
0330
0001
0001
,
0001
0000
1000
1000
,
1000
0000
0010
0010
,
0010
0000
1000
1000
,
1000
0100
1000
1000
,
1000
0000
0001
0001
,
0001
0000
0010
0010
,
0010
0000
0001
0001
,
0001
0100
0000
1010
,
0000
0011
0000
0101
,
0000
1100
0000
0010
,
0100
0010
0010
1000
,
0000
1001
0000
0011
,
0000
1010
0000
1100
,
0000
0101
0000
0010
,
0100
0010
0010
0001
,
0000
1001
0100
0000
,
0100
0100
0010
0000
,
0010
0010
0001
0000
,
0001
0001
1000
0000
,
1000
1000
0010
0000
,
0000
0000
0100
0000
,
0001
0000
1000
0000
,
0000
0001
0100
0101
,
1000
1100
0010
0000
,
0000
0000
0100
0000
,
1000
0000
0001
0000
,
0000
1000
0100
1100
,
0001
0101
2002
0000
,
0000
0000
3003
0000
;

//---------------dance-single - J. Frederick----------------
#NOTES:
     dance-single:
     J. Frederick:
     Beginner:
     1:
     0.077,0.126,0.019,0.000,0.000,54.000,2.000,0.000,0.000,0.000,0.000,0.077,0.126,0.019,0.000,0.000,54.000,2.000,0.000,0.000,0.000,0.000:
0000
0000
0000
0000
,
0000
0000
0000
0000
,
0000
0000
0000
0000
,
0000
0000
1000
0000
,
0000
0000
0001
0000
,
0000
0000
0010
0000
,
0000
0000
0100
0000
,
0000
0000
1000
0000
,
0000
0000
0001
0000
,
0000
0000
0100
0000
,
0000
0000
0010
0010
,
0010
0000
1000
1000
,
1000
0000
0001
0000
,
0000
0000
0100
0000
,
0000
0000
0010
0000
,
0000
0000
1000
0000
,
0000
0000
0001
0000
,
0000
0000
0010
0000
,
0000
0000
0100
0000
,
0000
0000
1000
0000
,
0000
0000
0010
0000
,
0000
0000
0100
0000
,
0000
0000
0001
0000
,
0000
0000
0010
0000
,
0000
0000
1000
0000
,
0000
0000
0001
0000
,
0000
0000
0010
0000
,
0000
0000
0100
0000
,
0000
0000
1000
0000
,
0000
0000
0001
0000
,
0000
0000
0010
0000
,
0000
0000
0100
0000
,
0000
0000
1000
0000
,
0000
0000
0010
0000
,
0000
0000
0100
0000
,
0000
0000
0001
0000
,
0000
0000
0010
0000
,
0000
0000
0100
0000
,
0000
0000
1000
0000
,
0000
0000
0001
0000
,
0000
0000
0110
0000
,
0000
0000
1000
0000
,
0000
0000
0001
0000
,
0000
0000
0010
0000
,
0000
0000
0100
0000
,
0000
0000
0001
0000
,
0000
0000
1000
0000
,
0000
0000
0010
0000
,
0000
0000
0100
0000
,
0000
0000
1000
0000
,
0000
0000
0001
0000
,
0000
0000
0010
0000
,
0000
0000
1001
0000
;

//---------------dance-double - J. Frederick----------------
#NOTES:
     dance-double:
     J. Frederick:
     Easy:
     2:
     0.174,0.206,0.278,0.058,0.000,92.000,29.000,6.000,0.000,0.000,0.000,0.174,0.206,0.278,0.058,0.000,92.000,29.000,6.000,0.000,0.000,0.000:
00000000
00000000
00000000
00000000
,
00000000
00000000
00000000
00000000
,
00000000
00000000
00000000
00000000
,
00000000
00000000
11000000
00000000
,
00000000
00000000
01010000
00000000
,
00000000
00000000
00110000
00000000
,
00000000
00000000
00011000
00000000
,
00000000
00000000
00001100
00000000
,
00000000
00000000
00000101
00000000
,
00000000
00000000
00000011
00000000
,
00000000
00000000
00001000
00000100
,
00001000
00000000
00011000
00011000
,
00022000
00033000
00001000
00010000
,
00001000
00000000
00010000
00000000
,
00100000
00000000
10000000
00000000
,
01000000
00000000
00010000
00000000
,
00001000
00000000
00000100
00000000
,
00000001
00000000
00000010
00000000
,
00000001
00000000
00000100
00000000
,
00001000
00000000
00001100
00000000
,
00000101
00000000
00001000
00000000
,
00010000
00000000
00100000
00000000
,
10000000
00000000
10010000
00000000
,
01000000
00000000
01100000
01100000
,
02200000
03300000
10000000
01000000
,
10000000
00000000
01000000
00000000
,
00010000
00000000
00001000
00000100
,
00001000
00000000
00000010
00000000
,
00000001
00000000
00000100
00000001
,
00000100
00000000
00000010
00000000
,
00001000
00000000
00010000
00001000
,
00010000
00000000
00100000
00000000
,
00010000
00000000
01000000
10000000
,
01000000
00000000
00100000
00000000
,
00010000
00000000
01000000
00010000
,
01000000
00000000
10000000
00000000
,
00100000
00000000
00010000
01000000
,
00010000
00000000
00001000
00000000
,
00000100
00000000
00000001
00000010
,
00000001
00000000
00000010
00000000
,
00000100
00000000
00001001
00000000
,
00000000
00000000
00001010
00000000
,
00000000
00000000
00011000
00000000
,
00000000
00000000
00110000
00000000
,
00000000
00000000
01010000
00000000
,
00000000
00000000
11000000
00000000
,
00000000
00000000
10100000
00000000
,
00000000
00000000
00110000
00000000
,
00000000
00000000
10010000
00000000
,
00000000
00000000
00011000
00000000
,
00000000
00000000
00001001
00000000
,
00000000
00000000
00011000
00000000
,
00000000
00000000
00220000
00000000
,
00000000
00000000
00000000
00330000
;

//---------------dance-double - J. Frederick----------------
#NOTES:
     dance-double:
     J. Frederick:
     Medium:
     5:
     0.295,0.335,0.173,0.115,0.000,185.000,18.000,12.000,0.000,0.000,0.000,0.295,0.335,0.173,0.115,0.000,185.000,18.000,12.000,0.000,0.000,0.000:
00000000
00000000
00000000
00000000
,
00000000
00000000
00000000
00000000
,
00000000
00000000
00000000
00000000
,
00000000
00000000
00000000
10000000
01000000
00000000
00000000
00000000
,
00000000
00000000
00000000
00100000
00010000
00000000
00000000
00000000
,
00000000
00000000
00000000
00001000
00010000
00000000
00000000
00000000
,
00000000
00000000
00000000
00000100
00001000
00000000
00000000
00000000
,
00000000
00000000
00000000
00000001
00000100
00000000
00000000
00000000
,
00000000
00000000
00000000
00000001
00000010
00000000
00000000
00000000
,
00000000
00000000
00000000
00000010
00001000
00000000
00000000
00000000
,
00000000
00000000
00000000
00000100
00001000
00000000
00000000
00000000
,
00000000
00000000
00000000
00001000
00011000
00000000
00101000
00000000
,
00011000
00000000
00000000
00000100
00001000
00000000
00000010
00000000
,
00000001
00000100
00000001
00000010
,
00001000
00001000
00010000
00100000
,
00010000
01000000
10000000
00100000
,
20020000
30030000
01000000
00100000
,
00010000
00010000
00001000
00000001
,
00000100
00000100
00000010
00001000
,
00000100
00000100
00000001
00000010
,
00002020
00003030
00001000
00000010
,
00001000
00000010
00001000
00000000
00000001
00000000
00000100
00000000
,
00001000
00000100
00001000
00000000
00010000
00000000
00001000
00000000
,
00100000
00010000
00100000
00000000
00110000
00000000
00110000
00000000
,
22000000
00000000
33000000
00000000
00100000
00010000
00100000
00000000
,
00100000
00000000
00000000
00000000
10000000
01000000
10000000
00000000
,
10000000
00000000
00000000
00000000
00010000
01000000
00010000
00000000
,
00010000
00000000
00000000
00000000
00010000
00001000
00010000
00000000
,
00010000
00000000
00000000
00000000
00001000
00000100
00001000
00000000
,
00001000
00000000
00000000
00000000
00001000
00000010
00001000
00000000
,
00001000
00000000
00000000
00000000
00000001
00000100
00000001
00000000
,
00000001
00000000
00000000
00000000
00000010
00001000
00000010
00000000
,
00001000
00000000
00011000
00101000
,
00011000
00010100
00011000
01000010
,
00011000
00100100
00011000
10000000
,
01000000
00100000
00010000
00001000
,
00000100
00000001
00000020
00000030
,
00000001
00000100
00000020
00000030
,
00001000
00010000
00200000
00300000
,
00010000
00001000
00002000
00003000
,
00001000
00010000
00001000
00000100
,
00000001
00000010
00000001
00000100
,
00000010
00001000
00010000
00100000
,
00010000
01000000
10000000
00100000
,
01000000
00000000
00010000
00000000
00001000
00010000
00001000
00000000
,
00100000
00000000
10000000
00000000
01000000
10000000
01000000
00000000
,
00010000
00000000
00100000
00000000
00010000
00100000
00010000
00000000
,
00001000
00000000
00000100
00000000
00000001
00000010
00000001
00000000
,
00000010
00000000
00001000
00000000
00000100
00000001
00000010
00000000
,
00000100
00000000
00001000
00000000
00000010
00001000
00000100
00000000
,
00000001
00000000
00000010
00000000
00001000
00010000
00100000
00000000
,
01000000
00000000
00010000
00000000
00001000
00010000
00001000
00000000
,
00000100
00000000
00000022
00000000
,
00000000
00000000
00000000
00000033
;

//---------------dance-double - M. Calfin----------------
#NOTES:
     dance-double:
     M. Calfin:
     Challenge:
     10:
     0.561,0.509,0.259,0.048,0.499,377.000,27.000,5.000,0.000,4.000,2.000,0.561,0.509,0.259,0.048,0.499,377.000,27.000,5.000,0.000,4.000,2.000:
00000000
00000000
00000000
00000000
,
00000000
00000000
00000000
00000000
,
00000000
00000000
00000000
00000000
00000000
00000000
00000000
00000000
00000000
00000000
00000000
00000000
00000000
00000000
00001000
00010000
,
00001000
00000000
00000000
00000000
00000000
00000000
00000000
00000000
00010000
00000000
00001000
00100000
00000000
00000000
00010000
01000000
,
00000000
00000000
00100000
10000000
00000000
00000000
00100000
01000000
00010000
00000000
01000000
00001000
00000000
00000000
00010000
00000100
,
00000000
00000000
00001000
00000010
00000000
00000000
00000100
00000001
00000010
00000000
00000100
00010000
00000000
00000000
00000010
00001000
,
00000000
00000000
00000010
00010000
00000000
00000000
00001000
00100000
00010000
00000000
01000000
00010000
00000000
00000000
01000000
00100000
,
00000000
00000000
10000000
01000000
00000000
00000000
00100000
00001000
00010000
00000000
00000100
00010000
00000000
00000000
00001000
00100000
,
00000000
00000000
00010000
00100000
00000000
00000000
00010000
01000000
00001000
00000000
00010000
00000010
00000000
00000000
00001000
00000001
,
00000000
00000000
00000010
00000100
00000000
00000000
00010000
00000100
00001000
00000000
00000010
00000100
00000000
00000000
00000001
00000100
,
00000000
00000000
00000010
00001000
00000000
00000000
00000010
00000000
00001000
00000000
00000100
00010000
00000000
00001000
00000000
00100000
,
00000000
00010000
00000000
10000000
01000000
00000000
00100000
00000000
02002000
00000000
00000000
00000000
00100000
00000000
00000000
00000000
,
00003200
00000000
00000000
00000000
00000000
00000000
03010300
00000000
00000010
00000000
00001000
00000000
00000100
00000000
00000010
00000001
,
00000000
00000100
00000010
00010000
00000100
00000000
00100000
00000000
00001000
00000000
01000000
00000000
00001000
00100000
00000000
00010000
,
00000000
01000000
00001000
00100000
00000100
00000000
00010000
00000000
00000000
00001000
00100000
00000000
00000100
00000000
00000100
00010000
,
00000000
00000100
00000000
00000010
00000001
00010000
00001000
00000000
00010000
00000000
00000100
00000000
00000010
00000000
00000001
00001000
,
00000000
00000100
00000000
00010000
00001000
00000000
00100000
00000000
00000100
00000000
01000000
00000000
00010000
00000000
00100000
01000000
,
00000000
10000000
00000000
01000000
00100000
00000000
00001000
00000000
01000000
00000000
00001000
00000000
00100000
00000000
00001000
00010000
,
00000000
00000100
00000000
00000010
00000100
00000000
00010000
00000000
00000010
00000000
00001000
00000000
00000010
00000000
00000100
00001000
,
00000000
01000000
00000000
00010000
00100000
00000000
10000000
00000000
00100000
00000000
00001000
00000000
01000000
00000000
00001000
00100000
,
00000000
00001000
00000000
00010000
00000000
00000100
00000010
00000000
00010100
00000000
00000000
00000000
00010010
00000000
00000000
00000000
,
00100100
01001000
01010000
10100000
,
01010000
00011000
00001100
00000011
,
00010100
00010010
01001000
01010000
,
00040000
00400000
00000000
00000000
00000000
00000000
01330000
00000000
10000000
00000000
00100000
00000000
01000000
00000000
00001000
00010000
,
00000000
00000100
00000000
00000010
00000100
00000000
00010000
00000000
00000010
00000000
00100000
00000000
00001000
00000000
10000000
01000000
,
00000000
00100000
00000000
00001000
01000000
00000000
00000100
00000000
00010000
00000000
00000001
00000000
00000010
00000000
00000100
00010000
,
00000000
00000010
00000000
01000000
00001000
00000000
01000000
00000000
00010000
00000000
10000000
00000000
00100000
01000000
00000000
00001000
,
00000000
00100000
00000000
00000010
00010000
00000000
00000100
00000000
00000010
00000000
00000100
00000000
00100000
00000010
00000000
00010000
,
00000000
00001000
00000000
01000000
00100000
00000000
10000000
00000000
00100000
00000000
01000000
00000000
00001000
00010000
00000000
00000001
,
00000000
00010000
00000000
00001000
00100000
00000000
01000000
00000000
10000000
00000000
00100000
00000000
00010000
00000000
00000010
00000100
,
00000000
00000001
00000000
00000010
00000100
00000000
00001000
00000000
01000000
00000000
10000000
00000000
01000000
00100000
00000000
00001000
,
00000000
00100000
00000000
00000100
00010000
00000000
00000100
00000000
00000010
00000000
00001000
00000000
00000010
00000000
00000001
00001000
,
00000000
00000010
00000000
00010000
00000100
00000000
00010000
00000000
00001000
00000000
00100000
00000000
00010000
01000000
00000000
00100000
,
00000000
01000000
00000000
00000100
00010000
00000000
00000100
00000000
01000000
00000000
00000000
00000000
00010000
00000000
00000000
00000000
,
10000000
00000000
00100000
00000000
01000000
00000000
00000000
00000000
00001000
00000000
00100000
00000000
00000100
00000000
00000000
00000010
,
00000001
00000000
00010000
00000000
00001000
00000000
00000000
00000000
01000000
00000000
00000100
00000000
00010000
00000000
00000100
00000010
,
00000000
00000001
00000000
00000100
00000010
00000000
00010000
00000000
00000100
00000000
00100000
00000000
00001000
00000000
00000000
00000000
,
01000000
00000000
00001000
00000000
00100000
00000000
00000000
00000000
00001000
00000000
01000000
00000000
00000100
00000000
00010000
00000010
,
00000000
00001000
00000000
00000001
00000100
00000000
00000010
00000000
00010000
00000000
00000100
00000000
00100000
00000000
00001000
00000000
,
01000000
00000000
01010000
00000000
00100000
01000000
00000100
00000000
,
01000010
00000000
00100100
00000000
00000100
00010000
00000010
00000000
,
00010010
00000000
00101000
00000000
01000000
00010000
00100000
00000000
,
00101000
00000000
00010010
00000000
00000010
00010000
00000100
00000000
,
00010001
00000000
10001000
00000000
10000000
00001000
00010000
00000001
,
00010000
00001000
10000000
00000000
00100000
01000000
00000010
00000100
,
00100000
01000000
00000010
00000000
00001000
00000010
01000000
00010000
,
00001000
00000010
01000000
00000000
00001000
00000100
00100000
00001000
,
00010000
00000100
00100000
00000000
00000001
00000010
00000100
00010000
,
00001000
00100000
01000000
00000000
00100000
00001000
01000000
00001000
,
00100000
00000100
00000010
00000000
00000100
00010000
00000010
01000000
,
00010000
00100000
01000000
00000000
00110000
00000000
00100100
00000000
,
00000100
00010000
00001000
00000000
00022000
00000000
00000000
00000000
,
00033000
00000000
00000000
00000000
;

//---------------dance-double - x0_000----------------
#NOTES:
     dance-double:
     x0_000:
     Hard:
     8:
     0.487,0.462,0.058,0.192,0.322: // measure 1
00000000
00000000
00000000
00000000
,  // measure 2
00000000
00000000
00000000
00000000
,  // measure 3
00000000
00000000
00000000
00000000
,  // measure 4
00000000
00000000
00000000
00000000
00000000
00000000
00001000
00000000
00010000
00000000
00000000
00001000
01000000
00000000
00000000
00000000
,  // measure 5
00100000
00000000
00000000
00100000
10000000
00000000
01000000
00000000
01000000
00000000
00000000
00100000
00001000
00000000
00000000
00000000
,  // measure 6
00010000
00000000
00000000
00010000
00000010
00000000
00000100
00000000
00000100
00000000
00000000
00001000
00010000
00000000
00000000
00000000
,  // measure 7
00000010
00000000
00000000
00000010
00000100
00000000
00000001
00000000
00000001
00000000
00000000
00000010
00001000
00000000
00000000
00000000
,  // measure 8
00010000
00000000
00000000
00010000
01000000
00000000
00100000
00000000
00001000
00000000
00000000
00010000
00100000
00000000
00000000
00000000
,  // measure 9
10000000
00000000
00000000
10000000
00010000
00000000
00100000
00000000
00100000
00000000
00000000
01000000
00100000
00000000
00000000
00000000
,  // measure 10
00001000
00000000
00000000
00001000
00010000
00000000
00100000
00000000
00100000
00000000
00000000
01000000
00001000
00000000
00000000
00000000
,  // measure 11
00010000
00000000
00000000
00010000
00000100
00000000
00001000
00000001
00000100
00000000
00000000
00000000
00000110
00000000
00000000
00000000
,  // measure 12
00010010
00000000
00000000
00010000
00001000
00000000
00010000
00000000
00000200
00000000
00000000
00000000
00002000
00000000
00000000
00000000
,  // measure 13
00010000
00003310
00000100
00010000
,  // measure 14
00001000
00000000
00000000
01000000
00100000
00000000
10000000
00000000
01000000
00000000
00000000
00000000
00010000
00000000
00000000
00000000
,  // measure 15
01000000
00000000
00000000
00100000
00001000
00000000
00010000
00000000
00100000
00000000
00000000
00000000
00010000
00000000
00000000
00000000
,  // measure 16
00001000
00000000
00000000
00000010
00000100
00000000
00001000
00000000
00000001
00000000
00000000
00000000
00000100
00000000
00000000
00000100
,  // measure 17
00000010
00000000
00000000
00000010
00010000
00000000
000M0000
00000000
00001000
00000000
00000000
00000000
00100000
00000000
00000000
00000000
,  // measure 18
01000000
00000000
00000000
10000000
00100000
00000000
01000000
00000000
10000000
00000000
00000000
00000000
01000000
00000000
00000000
00000000
,  // measure 19
00010000
00000000
00000000
00100000
00001000
00000000
00010000
00000000
00000100
00000000
00000000
00000000
00000001
00000000
00000000
00000000
,  // measure 20
00000100
00000000
00000000
00000010
00000001
00000000
00000100
00000000
00001000
00000000
00000000
00000000
00010000
00000000
00000000
00000000
,  // measure 21
00001000
00000000
00000000
00001000
00100000
00000000
00M00000
00000000
02000000
00000000
00000000
00000000
20000000
00000000
00000000
00000000
,  // measure 22
33001000
00000000
00000000
10000000
00010000
00000000
01000000
00000000
00002000
00000000
00000000
00000000
00020000
00000000
00000000
00000000
,  // measure 23
01033000
00000000
00000000
00010000
00000010
00000000
00001000
00000000
00000200
00000000
00000000
00000000
00000020
00000000
00000000
00000000
,  // measure 24
00010330
00000000
00000000
00000010
00000001
00000000
00000100
00000000
00000110
00000000
00000000
00000000
00010010
00000000
00000000
00000000
,  // measure 25
00022000
00000000
00000000
00000000
00033000
00000000
00000000
00000000
00001000
00000000
01000000
00000000
00010000
00000000
00100000
01000000
,  // measure 26
00000000
00100000
01000000
00000000
10000000
00000000
00100000
00000000
00010000
00000000
00001000
00000000
00010000
00000000
01000000
00010000
,  // measure 27
00000000
01000000
00010000
00000000
00001000
00000000
0000M000
00000000
00000100
00000000
00000001
00000000
00001000
00000000
00000100
00000010
,  // measure 28
00000000
00000100
00000010
00000000
00001000
00000000
00010000
00000000
00001000
00000000
00000100
00000000
00001000
00000000
00010000
00100000
,  // measure 29
00000000
00010000
00100000
10000000
00000000
00000000
M0000000
00000000
01000000
00000000
00100000
00000000
01000000
00000000
10000000
00100000
,  // measure 30
00000000
10000000
00100000
00000000
00010000
00000000
00001000
00000000
00000100
00000000
00001000
00000000
00010000
00000000
00000100
00001000
,  // measure 31
00000000
00000100
00001000
00000000
00000010
00000000
000000M0
00000000
00000100
00000000
00000001
00000000
00001000
00000000
00000100
00010000
,  // measure 32
00000000
00000100
00010000
00000000
00001000
00000000
00000100
00000000
00001000
00000000
00010000
00000000
01000000
00000000
00100000
00001000
,  // measure 33
00000000
00100000
00001000
00010000
00000000
00000000
000M0000
00000000
00100000
00000000
10000000
00000000
00010000
00000000
00100000
01000000
,  // measure 34
00000000
00100000
01000000
00000000
10000000
00000000
00010000
00000000
01000000
00000000
00000000
00000000
00100000
00000000
00000000
00000000
,  // measure 35
00010000
00000000
00000000
00010000
00001000
00000000
00000100
00000000
00001000
00000000
00010000
00000000
00000100
00000000
00000010
00000001
,  // measure 36
00000000
00000010
00000001
00000000
00000100
00000000
00000010
00000000
00010000
00000000
00000000
00000000
00001000
00000000
00000000
00001000
,  // measure 37
00100000
00000000
00000000
00100000
00010000
00000000
000M0000
00000000
01000000
00000000
00001000
00000000
00010000
00000000
00000100
00000010
,  // measure 38
00000000
00000100
00000010
00000000
00001000
00000000
00010000
00000000
00001000
00000000
00000000
00000000
00000100
00000000
00000000
00000000
,  // measure 39
00001000
00000000
00000000
00001000
00010000
00000000
00100000
00000000
10000000
00000000
00010000
00000000
10000000
00000000
01000000
00100000
,  // measure 40
00000000
01000000
00100000
00000000
00001000
00000000
00010000
00000000
00000100
00000000
00000000
00000000
00001000
00000000
00000000
00000000
,  // measure 41
00000010
00000000
00000000
00000010
00010000
00000000
000M0000
00000000
00002000
00000000
00000000
00000000
00203000
00000000
00000000
00000000
,  // measure 42
01300000
00010000
00001000
00010000
00200000
00000000
00320000
00000000
,  // measure 43
00031000
00000100
00000001
00000010
00000200
00000000
00020300
00000000
,  // measure 44
00031000
00000100
00001000
00010000
02000000
00000000
03200000
00000000
,  // measure 45
00310000
10000000
00100000
01000000
00010000
10000000
01000000
00000000
,  // measure 46
00100000
00000000
00000000
00001000
00010000
00000000
00000000
00000000
00100000
00000000
00010000
00000000
00001000
00000000
00000000
00000000
,  // measure 47
00000100
00000000
00000000
00000001
00001000
00000000
00000000
00000000
00000100
00000000
00010000
00000000
00001000
00000000
00000000
00000000
,  // measure 48
01000000
00000000
00000000
00010000
00100000
00000000
00000000
00000000
00001000
00000000
00010000
00000000
00000010
00000000
00000000
00000000
,  // measure 49
00001000
00000000
00000000
00000100
00010000
00000000
00000000
00000000
00001000
00000000
01000000
00000000
00100000
00000000
00000000
00000000
,  // measure 50
10000000
00000000
00000000
01000000
00100000
00000000
00000000
00000000
00010000
00000000
01000000
00000000
00100000
00000000
00000000
00000000
,  // measure 51
00010000
00000000
00000000
00001000
00010000
00000000
00000000
00000000
00000100
00000000
00001000
00000000
00000010
00000000
00000000
00000000
,  // measure 52
00000100
00000000
00000000
00000001
00001000
00000000
00000000
00000000
00000100
00000000
00010000
00000000
00001000
00000000
00000000
00000000
,  // measure 53
01000000
00000000
00000000
00100000
00010000
00000000
00000000
00000000
00022000
00000000
00000000
00000000
00000000
00000000
00000000
00000000
,  // measure 54
00000000
00000000
00033000
00000000
;
