#TITLE:Disconnected;
#SUBTITLE:Hardkore;
#ARTIST:CanBlaster;
#TITLETRANSLIT:;
#SUBTITLETRANSLIT:;
#ARTISTTRANSLIT:;
#GENRE:Destruction;
#CREDIT:;
#BANNER:Disconnected hardkore-bn.png;
#BACKGROUND:Disconnected hardkore-bg.png;
#LYRICSPATH:;
#CDTITLE:;
#MUSIC:Disconnected Hardkore.ogg;
#OFFSET:-0.033;
#SAMPLESTART:31.280;
#SAMPLELENGTH:11.840;
#SELECTABLE:YES;
#BPMS:0.000=139.000,36.000=140.000,40.000=150.000,44.000=160.000,48.000=170.000,52.000=180.000,56.000=190.000,60.000=200.000,64.000=210.000,280.000=215.000,284.000=220.000,288.000=225.000,292.000=230.000,296.000=235.000,300.000=240.000,304.000=245.000;
#STOPS:;
#BGCHANGES:0.144=Disconnected Hardkore.mpg=1.000=1=0=0=StretchNoLoop==CrossFade==,
99999=-nosongbg-=1.000=0=0=0 // don't automatically add -songbackground-;
#KEYSOUNDS:;

//---------------dance-double - J.Casarino----------------
#NOTES:
     dance-double:
     J.Casarino:
     Easy:
     5:
     0.491,0.656,0.276,0.665,0.000,289.000,32.000,77.000,2.000,0.000,0.000,0.491,0.656,0.276,0.665,0.000,289.000,32.000,77.000,2.000,0.000,0.000:
00000000
00000000
00000000
00000000
,
00000000
00000000
00000000
00000000
,
00000000
00000000
00000000
00000000
,
00100000
01000000
00100000
01000000
,
20020000
00000000
30030000
00000000
,
00001000
00010000
00001000
00010000
,
00022000
00000000
00033000
00000000
,
00000010
00000100
00000020
00000030
,
00000220
00000330
00002002
00003003
,
00000001
00000000
00000100
00000000
00000010
00001000
00000010
00000000
,
00010000
00000000
00001000
00000000
01000000
00010000
01000000
00000000
,
00100000
00000000
10000000
00000000
00100000
10000000
00100000
00000000
,
01000000
00000000
00010000
00000000
01000000
00010000
01000000
00000000
,
00010000
10000000
01000000
00100000
,
00010000
01000000
00001000
00010000
,
00000100
00001000
00000010
00000100
,
00000001
00001000
00000100
00010000
,
00020010
00000000
00000000
00000000
00000000
000000M0
00000000
00000000
,
00000000
00000000
00000000
00030000
,
01002000
00000000
00000000
0M000000
00000000
00000000
00003000
00000000
,
00202000
00303000
00020200
00030300
,
00001000
00100000
00001000
00100000
,
01000000
10000000
01000000
10000000
,
00100000
01000000
00010000
01000000
,
00001000
01000000
00010000
01000000
,
00100000
10000000
01000000
00100000
,
00010000
01000000
00001000
00010000
,
00000010
00001000
00000001
00000200
,
00000010
00000010
00000010
00000310
,
00002002
00000000
00000000
00003003
,
00000001
00000100
00001000
00010000
,
00022000
00000000
00000000
00033000
,
00001000
00010000
01000000
10000000
,
20020000
00000000
00000000
30030000
,
00100000
01000000
00001000
00010000
,
00020020
00030030
00022000
00033000
,
00002000
00000000
02003000
00000000
03020000
00000000
00230000
00300000
,
20010000
00000000
00000000
01000000
00000000
00000000
32000000
00000000
,
00000000
03200000
00000000
00000000
00301000
00000000
00000000
00000000
,
00012000
00000000
00000000
00010000
00000000
00000000
00023000
00000000
,
00000000
00030020
00000000
00000000
00000100
00000000
00000130
00000000
,
00000201
00000000
00000000
00000320
00000000
00000000
00020030
00000000
,
00000000
00032000
00000000
00000000
02003000
00000000
03000000
00000000
,
00201000
00000000
00000000
00302000
00000000
00000000
00023000
00000000
,
00000000
00030200
00000000
00000000
00020300
00000000
00030000
00000000
,
00001000
01000000
00010000
10000000
,
00100000
10000000
00010000
00000000
,
01000000
00001000
00010000
00000100
,
00010000
00001000
01000000
00000000
,
00001000
00010000
00000100
00001000
,
00000001
00001000
00000100
00000000
,
00000010
00000001
00000100
00000010
,
00001000
00000100
00000010
00000000
,
00000002
00001000
00000000
00001000
00000000
00001000
00000000
00001000
,
00000003
00000001
00000100
00000010
,
00020000
00001000
00000000
00001000
00000000
00001000
00000000
00001000
,
00030000
00001000
00100000
01000000
,
20000000
00100000
00000000
00100000
00000000
00100000
00000000
00100000
,
30000000
10000000
00100000
01000000
,
00002000
00010000
00000000
00010000
00000000
00010000
00003000
00000000
,
00022000
00000000
00000000
00033000
,
00020000
00030200
00020300
00032000
,
00203000
00302000
00023000
00030020
,
00020030
00032000
02003000
03002000
,
00023000
00030000
00000000
00011000
,
00001000
01000000
00010000
10020000
,
10030000
01000000
00100000
01100000
,
00010000
10010000
10000000
10010000
,
00010000
01000000
00001000
00010000
,
00000020
00000030
00002002
00003003
,
00000220
00000330
00002002
00000003
,
00003100
00000000
00020100
00000000
,
00031000
00000000
00201000
00000000
,
00310000
10000000
01000000
00000000
,
00100000
01000000
10000000
00000000
,
00010000
00100000
00001000
00010000
,
00000010
00001000
00000010
00010000
,
00001000
00010000
00010000
00000000
,
00000010
00001000
00001000
00000000
,
00000001
00000001
00000010
00000000
,
00000100
00000100
00010000
00000000
,
00001000
00100000
00001000
00000000
,
01010000
00000000
10100000
00000000
,
10000000
01000000
00100000
00010000
,
10000000
01000000
00100000
00010000
,
10000000
00000000
00000000
00010000
00000000
00000000
01000000
00000000
,
00000000
00001000
00000000
00000000
00010000
00000000
00001000
00000000
,
00010000
00000000
00000000
00000010
00000000
00000000
00000100
00000000
,
00000000
00000001
00000000
00000000
00000010
00000000
00000001
00000000
,
00000010
00000000
00000000
00000100
00000000
00000000
00010000
00000000
,
00000000
00001000
00000000
00000000
00010000
00000000
00000010
00000000
,
00010000
00000000
00000000
00000100
00000000
00000000
00001000
00000000
,
00000000
00000001
00000000
00000000
00001000
00000000
00000100
00000000
,
00011000
00022000
00000000
00000000
,
00000000
00000000
00000000
00000000
,
00033000
00000000
00000000
00000000
;

//---------------dance-double - M.Emirzian----------------
#NOTES:
     dance-double:
     M.Emirzian:
     Challenge:
     12:
     0.985,1.000,0.725,0.104,0.496,703.000,84.000,12.000,59.000,0.000,4.000,0.985,1.000,0.725,0.104,0.496,703.000,84.000,12.000,59.000,0.000,4.000:
00000000
00000000
00000000
00000000
,
00000000
00000000
00000000
00000000
00000000
00000000
00000000
00100000
,
10010000
00000000
01000000
00000000
01001000
00000000
00001000
00000000
00010000
00000000
00010010
00000000
00001000
00000000
00000100
00001000
,
00000010
00000000
00000100
00000000
00001001
00000000
00001000
00000100
00000000
00000010
00000001
00000000
00000010
00000100
00001000
00000000
,
00010100
00000000
00001000
00000000
01000100
00000000
00011000
00000000
00010000
00001000
01000000
00100000
01000000
00010000
10000000
00100000
,
01000000
00000000
00100000
10000000
01000000
00000000
00100000
00001000
00000000
00010000
00001000
00000000
00100000
00010000
01000000
00000000
,
01001000
00000000
0M00M000
00000000
00010100
00000000
00010000
00000100
00000000
01000000
00001000
00000000
00010000
00001000
01000000
00010000
,
01001000
00000000
00010000
00000000
00010100
00000000
00010000
00001000
00100000
00000010
00000000
00011000
00000000
00000000
00001000
00000000
,
01000000
01010000
0M0M0000
10010000
01100000
00000000
00000000
00000000
,
00100000
00000000
10000000
00000000
00010000
00000000
01000000
00100000
10000000
01000000
00000000
00110000
00000000
00000000
00010000
00000000
,
00100000
00001000
00010000
00000100
01000000
00001000
00010000
00011000
,
00000100
00000000
00001000
00000000
00000100
00000000
00010000
00000010
00001000
00000100
00000000
00000110
00000000
00000000
00001000
00000000
,
00000001
00000100
00000000
00000010
00001000
00000000
00000100
00010000
00001000
00000000
00010000
00100000
01000000
00000000
10100000
00000000
,
00100000
00000000
01000000
00000000
00010000
00000000
10000000
00100000
01000000
00010000
00000000
10010000
00000000
00000000
01000000
00000000
,
00100000
00010000
01000000
00001000
00100000
00001000
00010000
01001000
,
00001000
00000000
01000000
00000000
00001000
00000000
00010000
00000100
00010000
00001000
00000000
00010100
00000000
00000000
00000100
00000000
,
00010000
00000000
00001000
00000000
00010000
00000000
00000010
00010000
00001000
00000000
00010000
00000000
00001000
00000000
01000000
00000000
,
00000100
00010000
00000000
00011000
00000000
01001000
00000000
01100000
,
00000000
00100000
10000000
00100000
01000000
00001000
00100000
00010000
,
00000000
01100000
00000000
00110000
00000000
00101000
00000000
00010010
,
00010000
00000010
00001000
00000001
00000100
00000010
00010000
00001000
,
00010000
00020010
00000000
00031000
00000000
01002000
00000000
00013000
,
00000000
00000000
00001000
01000000
00000000
00000000
01000000
00010000
00000000
00000000
00010000
00100000
00000000
00000000
00100000
00001000
,
00000000
00102000
00000000
01003000
00000000
00020010
00000000
00030100
,
00001000
00000010
00010000
00001000
10000000
00001000
00010000
00000010
,
00000000
00001020
00000000
00100030
00000000
00210000
00000000
00300010
,
00000000
00000000
00001000
01000000
00000000
00000000
01000000
00010000
00000000
00000000
00010000
10000000
00000000
00000000
10000000
00100000
,
00000000
02010000
00000000
03000100
00000000
00001200
00000000
01000300
,
00000000
00011000
00000000
01000100
00000000
00011000
00000000
00010100
,
00000000
00001000
01000000
00000100
00010000
00000100
00001000
00000001
,
00000100
00000010
00001000
00000100
00010000
00020010
00000000
00030001
,
00000000
00000100
00010000
00001000
01000000
00001000
00100000
00000010
,
00100000
00000000
00010000
10000000
00000000
00000000
10000000
00100000
00000000
00000000
00100000
01000000
00000000
00000000
01000000
00000000
,
00010000
00100000
00001000
00010000
00000010
00001000
00000001
00000100
,
00000010
00010000
00001000
00100000
00010000
00102000
00000000
10003000
,
00000000
01000000
00001000
00010000
00000100
01000000
00001000
00010000
,
00000010
00000000
00010000
00001000
00000000
00000000
00001000
01000000
00000000
00000000
01000000
00100000
00000000
00000000
10000000
00000000
,
10010000
00010000
00000000
10100000
00000000
M0M00000
01001000
00010000
,
0M00M000
01000100
00000000
0M000M00
00000001
00010000
00001000
00000000
,
01000100
00001000
0M000M00
00011000
00000000
000MM000
00100010
00000000
,
00M000M0
00000000
00011000
00000000
00000000
00000000
01000000
00000000
00001000
00000000
00010000
00000000
00000010
00010000
00001000
00000000
,
00101000
00100000
00001000
01000000
00001000
00010000
00000010
00000100
,
00000010
00010000
00001000
01000000
00000010
00010000
00001000
00100000
,
00110000
00000000
00MM0000
01001000
00000000
0M00M000
00010010
00001000
,
00000000
00000000
00000110
00000000
00000000
00000000
00000001
00000000
00001000
00000000
00000100
00000000
00000010
00000100
00001000
00000000
,
00001001
00000000
00000000
00000000
00001000
00000000
00000010
00010000
00001000
00000000
00010000
00000000
00000100
00000000
00010000
00000000
,
00001000
00000000
01000000
00000000
00001000
00000000
00010000
00000000
00000010
00010000
00001000
00000000
00010000
00000000
00001000
00000000
,
01000000
00000000
00001000
01000000
00010000
00000000
01000000
00001000
00010000
00000000
00100000
00000000
01000000
00000000
01100000
00000000
,
00000000
00000000
10001000
00000000
00000000
00000000
01000000
00000000
00100000
00010000
10000000
00000000
01000000
00000000
10000000
00000000
,
10010000
00000000
000M0000
00000000
01000000
00000000
00001000
01000000
00010000
00000000
01000000
00000000
00001000
00000000
00100000
00000000
,
00001000
00000000
00010000
00000000
00000100
00000000
00001000
00000000
00000001
00001000
00000010
00000000
00000100
00000000
00000010
00000000
,
00001000
00000000
00000001
00001000
00000100
00000000
00000010
00000100
00001000
00000000
00000100
00000000
00010000
00000000
00010100
00000000
,
00000000
00000000
01000100
00000000
00000000
00000000
01000000
00000000
00001000
01000000
00010000
00000000
01000000
00000000
00001000
00000000
,
00100000
00000000
00010000
10000000
01000000
00000000
10000000
00010000
01000000
00000000
00100000
00000000
01000000
00000000
00010000
00000000
,
10000000
00100000
01000000
00001000
00010000
00000010
00100000
00001000
,
01000000
00000000
00001000
00010000
00000100
00000000
00010000
00001000
01000000
00000000
00000100
00000000
01000000
00000000
00001000
00000000
,
00010000
00000100
00010000
00010100
00000000
00010001
00000000
00001000
,
00000100
00000000
00000010
00000001
00001000
00000000
00000100
00000010
00000001
00000000
00001000
00000000
00000010
00000000
00010000
00000000
,
00001000
01000000
00000010
00010000
00001000
00100000
00010000
01000000
,
00001000
00000000
00010000
00000010
00001000
00000000
00000100
00010000
00001000
00000000
01000000
00000000
00100000
00000000
10000000
00000000
,
00010000
10000000
01000000
10000000
00100000
01000000
00001000
01000000
00001000
00010000
00000100
00010000
,
00001000
00000000
00001000
00010000
00000000
00010000
00000100
00000000
00000100
00001000
00000010
00000100
,
00000001
00000000
00000100
00000001
00000010
00000001
00001000
00000001
00000100
00000010
00000000
00000010
,
00010000
00000000
00010000
00001000
00000000
00001000
01000000
00000000
00100000
01000000
00001000
01000000
,
00100000
00000000
01010000
00000000
01001000
00000000
00110000
00000000
00000000
10010000
00000000
10000000
,
01000000
00000000
01000000
00100000
00000000
00400000
00004000
00000000
00000000
00303000
00000000
00010000
,
00000100
00000000
00000000
00000000
00000100
00000000
00001000
00000000
00000000
00000000
00004000
00000000
00000004
00000000
00000000
00000000
00000000
00000000
00003003
00000000
00000000
0000M00M
00000000
00000000
,
00010000
00000000
00000010
00000000
00100000
00000000
00001000
00000000
00000000
000MM000
00000000
00000000
00000100
00000000
01000000
00000000
00001000
00000000
00010000
00000000
00000000
000MM000
00000000
00000000
,
10000000
00000000
00010000
00000000
01000000
00000000
00010000
00000000
10000000
00000000
00100000
00000000
10000000
00010000
10000000
01000000
,
10000000
01000000
00100000
00010000
01000000
00001000
00010000
00000100
,
00000010
00000001
00001000
00000010
00100000
00001000
00010000
00000100
,
01000000
00001000
10000000
00010000
10000000
01000000
00100000
00001000
,
00010000
00001000
00100000
00010000
10000000
00100000
01000000
00010000
,
00100000
00000010
00010000
00000010
00000100
00000001
00010000
00000100
,
00001000
00000010
00010000
00001000
0M0000M0
01000010
0M0000M0
00001000
,
00000010
00010000
00001000
01000000
00000100
00010000
00001000
00100000
,
00000010
00010000
00001000
01000000
00001000
00100000
00010000
10000000
,
00100000
10000000
01000000
00100000
00001000
01000000
00000100
00010000
,
00001000
00100000
00000010
00010000
00001000
00010000
00000100
00000010
,
00000001
00010000
00001000
00010000
00000010
00001000
00000001
00000010
,
00000100
00010000
00000001
00000010
00000100
00001000
00000010
00010000
,
00001000
00000000
00000000
01000000
00000000
00000000
00000100
00000000
00000000
00010000
00000000
00000000
00001000
00000000
00000000
00010000
00000000
00000000
00000100
00000000
01000000
00000000
00000000
00000000
,
01001000
00000000
00000000
00000000
00000000
00000000
00010000
00000000
00001000
00000000
00000000
00000000
01000000
00000000
00000000
00001000
00000000
00000000
10000000
00000000
00000000
00010000
00000000
00000000
,
01000000
00100000
10000000
00010000
00100000
00000010
00100000
00001000
,
00010000
00000100
00010000
00000001
00000100
00000010
00001000
00000001
,
00000110
00000100
00000000
00110000
00100000
00MM0000
00001010
00000010
,
0000M0M0
00000000
01100000
00000000
00000000
00000000
01000000
00000000
00010000
00000000
10000000
00000000
00100000
01000000
00010000
01000000
,
00010000
00100000
0000MM00
00001100
00000100
0000MM00
00000110
00001000
,
00000000
00000000
00000101
00000000
00000000
00000000
00000010
00000000
00010000
00000000
00001000
00000000
01000000
00001000
00010000
00000000
,
00011000
00010000
00000100
01000000
00001000
00010000
00001000
01000000
,
00100000
00000000
10000000
00000000
01000000
00000000
00100000
00000000
00001000
00000000
00010000
00000000
00000100
00001000
00000001
00000000
,
00001010
00001000
00000000
01100000
00100000
000M00M0
00000110
00000010
,
00000000
00000000
00011000
00000000
00010000
00000000
00001000
00000000
00100000
00000000
00010000
00000000
10000000
00010000
01000000
00000000
,
01100000
00000000
22000000
00000000
00000000
00000000
00MMM000
000M0000
,
000M0000
000M0000
000M0000
00000MM0
0000M000
0000M000
0000M0MM
0000M00M
,
33000MM0
00000000
00000000
00000000
;

//---------------dance-double - J.Casarino----------------
#NOTES:
     dance-double:
     J.Casarino:
     Hard:
     9:
     0.772,0.779,0.544,0.242,0.155,535.000,63.000,28.000,38.000,0.000,4.000,0.772,0.779,0.544,0.242,0.155,535.000,63.000,28.000,38.000,0.000,4.000:
00000000
00000000
00000000
00000000
,
00000000
00000000
00000000
00000000
00000000
00000000
00000000
01000000
,
00001000
00010000
00001000
00000000
00010100
00001000
00000000
00001000
,
00010000
00000000
00002000
00000000
01000000
00000000
00000000
00010000
00003000
00000000
01000000
00000000
00000000
00100000
00000000
00000000
,
00011000
00000000
00000000
00000000
01000000
00000000
10010000
00000000
00000000
00000000
01000000
00000000
00100000
00010000
00100000
00000000
,
00001000
00000000
00010000
00000000
00000100
00000000
00000000
01000000
00000000
00000000
00001000
00000000
00000000
00000000
00010000
00000000
,
00010010
00000000
00000000
00000000
00011000
00000000
00000000
00000100
00000000
00000000
00000010
00000000
00000000
00000000
00000001
00000000
,
00001000
00000000
00000010
00000000
00000100
00000000
00000001
00000000
00000001
00000100
00000000
00000010
00000000
00000000
00000000
00000000
,
00010100
00001000
00000000
00011000
00202000
00000000
00303000
00000000
,
10000000
00000000
01000000
00000000
10000000
00000000
00100000
01000000
00100000
01000000
00000000
00100000
00000000
00000000
10000000
00000000
,
00010000
00000000
00100000
00000000
00001000
00000000
00010000
00001000
00010000
00001000
00000000
00010000
00000000
00000000
00000100
00000000
,
00001000
00000000
00000001
00000000
00000100
00000000
00000010
00000100
00000010
00000100
00000000
00000010
00001000
00000000
00000010
00000000
,
00010000
00000000
00001000
00000000
01000000
00000000
00010000
00100000
00010000
00000000
10000000
00000000
01000000
00000000
00000000
00000000
,
00100000
00010000
00100000
00010000
10000000
01000000
10000000
01000000
,
00010000
00001000
01000000
00001000
00010000
00000010
00001000
00000000
,
00000001
00000100
00000010
00000000
00010000
00001000
01000000
00000000
,
00000010
00010000
00001000
00100000
00010000
10000000
01000000
00000000
,
00100000
01000000
00000000
01000000
00000000
01000000
0MM00000
01000000
,
00000000
01000000
00000000
01000000
00100000
00001000
00100000
00000000
,
00000010
00000010
00000000
00000010
00000MM0
00000010
00000000
00000010
,
00010010
000M00M0
00010010
000M00M0
,
00010000
00000010
00000000
00001010
00000000
00001001
00000000
00000101
,
00000000
00001010
00000000
00000100
00010000
00001000
00010000
00000100
,
00010000
00001000
00000000
01001000
00000000
01010000
00000000
01100000
,
00000000
10000000
01000000
10000000
00100000
01000000
00010000
00000000
,
01000000
00100000
00000000
10010000
00000000
00110000
00000000
00101000
,
00000000
00011000
00000000
00100000
00001000
00010000
00001000
01000000
,
00001000
00010000
00000000
00010010
00000000
00011000
00000000
02000000
,
00100000
00M00000
00100000
00M00000
00100000
00M00000
03100000
00000000
,
10100000
00000000
01000000
00000000
00100000
00010000
10000000
00000000
,
01000000
00100000
00100000
00001000
00010000
00000100
00001000
00000000
,
00010010
00000000
00000100
00000000
00000010
00000001
00001000
00000000
,
00000010
00001000
00001000
00000100
00010000
00001000
01000000
00000000
,
00011000
00000000
01000000
00000000
00010000
00100000
01000000
00000000
,
10000000
00100000
00100000
10000000
01000000
00100000
01000000
00000000
,
10010000
00100000
10010000
01000000
,
10010000
00011000
00001001
00000110
,
00001100
00000000
00000000
00011000
00000000
00000000
00010100
00000000
,
00000000
00101000
00000000
00000000
00100000
00100000
01000000
00000000
,
01010000
00000000
00000000
00011000
00000000
00000000
00001010
00000000
,
00000000
00000101
00000000
00000010
00010000
00001000
01000000
00000000
,
00011000
00000000
00000000
00000110
00000000
00000000
00011000
00000000
,
00000000
01100000
00000000
00000000
00010000
00010000
00000100
00000000
,
00010010
00000000
00000000
01001000
00000000
00000000
00001000
00001000
,
00000000
01000000
00000000
00000100
00010000
00001000
00100000
00000000
,
10000000
00100000
10000000
00100000
01000000
00010000
01000000
00010000
,
00100000
00001000
00010000
00000100
00001000
00000001
00000100
0000000M
,
00000100
00000010
00000100
00000010
00010000
00001000
00010000
00001000
,
01000000
00010000
00100000
00001000
00010000
00000010
00001000
000000M0
,
0000M100
00010000
00000100
00010000
00001000
00100000
00001000
00100000
,
00010000
01000000
00001000
00010000
00000010
00010000
00001000
000M0000
,
00001000
00100000
00001000
00100000
01000000
10000000
01000000
10000000
,
00010000
01000000
00001000
00010000
00000100
00001000
00000100
00001000
,
00000001
00000200
00000000
00001000
00000000
00000010
00000000
00000001
,
00000000
00000310
00001000
00000100
00000010
00000100
00001000
00000010
,
00010000
00000020
00000000
00001000
00000000
00010000
00000000
00100000
,
00000000
00010030
00001000
00100000
01000000
10000000
00100000
00000000
,
01000000
00002000
00000000
00010000
00000000
01000000
00000000
10000000
,
00000000
00103000
01000000
10000000
00010000
00100000
00001000
01000000
,
00100000
02000000
00000000
00001000
00000000
00010000
00000000
03100000
,
40000000
00040000
00000000
30030000
00000000
00000000
04000000
00004000
00000000
03003000
00000000
00000000
,
00010000
00000000
00002000
00010000
00000000
00023000
00000100
00000000
00030100
00001000
00000000
00001002
,
00000000
00000000
00000020
00000003
00000000
00000000
00002030
00000000
00000000
00020000
00003000
00000000
,
02030000
00000000
23000000
00100000
00000000
30200000
01000000
00000000
02300000
00010000
00000000
03010000
,
00100000
00000000
00001000
00000000
01000000
00000000
02002000
00000000
00000000
00000000
00000000
03003000
,
10000000
00000000
00001000
01000000
00000000
00001000
01000000
00000000
00000000
00020100
00000000
00000000
,
00030001
00000000
00010000
00000010
00000000
00010000
00000010
00000000
00000000
00001200
00000000
00000000
,
00010300
00000000
00001000
02000000
00000000
00000000
03001000
00000000
00010000
00000200
00000000
00000000
,
00010300
00000010
00010000
00001000
00100000
00010000
10000000
00100000
,
01000000
00010000
00000000
10000000
00000000
01000000
00000000
00100000
,
00000000
00001000
00000000
00010000
00000000
00100000
10000000
00010000
,
00100000
00001000
00010000
00001000
00100000
00001000
00010000
00000100
,
00001000
00000010
00001000
00000001
00000100
00000001
00001000
00000100
,
00000010
00000001
00001000
00000001
00000010
00000100
00000010
00000100
,
00001000
00000100
00010000
00001000
00000000
00001000
0000M000
00001000
,
00010000
00001000
01000000
00001000
00010000
00001000
00100000
00001000
,
00010000
00000100
00001000
00000100
00000010
00000001
00000010
00000001
,
00000010
00000000
00000100
00001000
00000100
00000000
00001000
00010000
,
00001000
00000000
01000000
00010000
01000000
00100000
10000000
00000000
,
01000000
00000000
00100000
00000000
00001000
00000000
00010000
00001000
,
00010000
00000100
00001000
00000000
00000010
00000001
00000010
00000000
,
00000100
00010000
00001000
00000000
01000000
00020000
00000000
00000000
,
20030000
00100000
00000000
00000000
30100000
10000000
01000000
00000000
,
00100000
00001000
00100000
00001000
01000000
00001000
00010000
00001000
,
01000000
00010000
01000000
00010000
10000000
00100000
10000000
00100000
,
01000000
00000000
00000000
10010000
00000000
00000000
11000000
00000000
,
00000000
00110000
00000000
00001000
00010000
00000100
00001000
00000000
,
00000011
00000000
00000000
00001001
00000000
00000000
00000001
00000100
,
00000000
00000100
00000000
00000010
00010000
00001000
01000000
00000000
,
01010000
00000000
00000000
00011000
00000000
00000000
00001100
00000000
,
00000000
00011000
00000000
00100000
00001000
00100000
00010000
00000000
,
00011000
00000000
00000000
01010000
00000000
00000000
00100000
10000000
,
00000000
01000000
00000000
00100000
00001000
00010000
00000100
00000000
,
00001001
M0000000
M0000022
M0000000
M0000000
M0000000
00000000
0MMM0000
,
00M00000
00M00000
00M00000
00M00000
0000MM00
000M0000
000MMM00
000M0M00
,
0000MM33
00000000
00000000
00000000
;

//---------------dance-double - J.Casarino----------------
#NOTES:
     dance-double:
     J.Casarino:
     Medium:
     7:
     0.619,0.697,0.250,0.501,0.017,415.000,29.000,58.000,24.000,0.000,2.000,0.619,0.697,0.250,0.501,0.017,415.000,29.000,58.000,24.000,0.000,2.000:
00000000
00000000
00000000
00000000
,
00000000
00000000
00000000
00000000
,
00000000
00000000
00000000
00000000
,
10000000
01000000
00100000
00000000
01000000
00100000
00010000
00000000
,
01010000
00000000
00000000
00011000
00000000
00000000
00001000
00001000
,
00010000
00000100
00001000
00000000
00000100
00001000
00000010
00000000
,
00001001
00000000
00000010
00000020
00000000
00000000
00000030
00000000
,
00000100
00000000
00000001
00000000
00000010
00000000
00000000
00000000
00000100
00000000
00000000
00000100
00000000
00000000
00000000
00000000
,
00001000
00000010
00000000
00000020
00020000
00000000
00030030
00000000
,
00010000
00001000
00010000
00000100
00001000
00000100
00010000
00000000
,
00001000
00010000
00001000
01000000
00010000
01000000
00001000
00000000
,
00100000
00010000
10000000
01000000
00100000
00000000
00010000
00000000
,
00100000
00001000
00010000
00000100
00010000
00000000
00001000
00000000
,
00010000
00000010
00010000
00000000
00000100
00001000
00000100
00000000
,
00000010
00000001
00000010
00000000
00000001
00000100
00000001
00000000
,
00000100
00000000
00000010
00000000
00010000
00001000
00010000
00000000
,
00001000
00000000
01000000
00000000
00010000
10000000
00010000
00000000
,
00100000
00001000
00000000
00001000
00000000
00001000
00000000
00001000
,
00000000
00001000
00000000
00001000
00010000
00000000
00010000
00000000
,
00010000
00000100
00000000
00000100
00000000
00000100
00000000
00000200
,
00020000
00030300
00022000
00033000
,
01000000
00001000
00000000
01000000
00000000
00010000
00000000
01000000
,
00000000
00100000
00000000
10000000
01000000
00000000
00100000
00000000
,
00001000
00010000
00000000
00000010
00000000
00001000
00000000
00000010
,
00000000
00000100
00000000
00000010
00001000
00000000
00000001
00000000
,
00000100
00000010
00000000
00001000
00000000
00000100
00000000
00000010
,
00000000
00000001
00000000
00000100
00000010
00000000
00010000
00000000
,
00001000
01000000
00000000
00100000
00000000
10000000
00000000
00020000
,
01000000
0M000000
01000000
0M000000
01000000
0M000000
01030000
0M000000
,
01010000
00000000
10000000
00000000
00010000
00100000
01000000
00000000
,
10000000
01000000
00200000
00000000
00001000
00000000
00301000
00000000
,
00010100
00000000
00000100
00000000
00001000
00000010
00000100
00000000
,
00000001
00000100
00000020
00000000
00001000
00000000
00001030
00000000
,
00010010
00000000
00001000
00000000
00010000
00001000
01000000
00000000
,
00001000
00010000
00000010
00000000
00010000
00001000
00100000
00000000
,
20020000
30030000
00022000
00033000
,
00001001
00000011
00001100
00010100
,
00101000
00000000
00000000
00001000
00000000
00000000
00010100
00000000
,
00000000
00010000
00000000
00000000
00001000
00100000
00000000
00000000
,
01010000
00000000
00000000
10000000
00000000
00000000
10100000
00000000
,
00000000
10010000
00000000
10000000
01000000
10000000
01000000
00000000
,
01100000
00000000
00000000
00010000
00000000
00000000
00011000
00000000
,
00000000
00000100
00000000
00000000
00000010
00000100
00000000
00000000
,
00001001
00000000
00000000
00000110
00000000
00000000
00000001
00001000
,
00000000
00000001
00000000
00000100
00000010
00001000
00000010
00000000
,
00000100
00000001
00000100
00000001
00000100
00000001
00000100
00000000
,
00000010
00000100
00001000
00010000
,
00001000
01000000
00001000
01000000
00001000
01000000
00001000
00000000
,
00010000
00100000
10000000
00010000
,
00100000
00001000
00100000
00001000
00010000
00001000
00010000
00000000
,
00001000
01000000
00010000
10000000
,
00010000
01000000
00010000
01000000
00001000
00010000
00001000
00000000
,
00010000
00000000
00000010
00000000
00001000
00000100
00001000
00000000
,
00000001
00000200
00000000
00000010
00000000
00000001
00000000
00000010
,
00000000
00000301
00000000
00001000
00000100
00010000
00001000
00000000
,
00010000
00002000
00000000
00010000
00000000
00100000
00000000
00010000
,
00000000
00103000
00000000
00010000
00100000
01000000
10000000
00000000
,
00100000
20000000
00000000
00100000
00000000
00010000
00000000
00100000
,
00000000
30010000
00000000
01000000
00010000
00100000
00001000
00000000
,
00010000
00000200
00000000
00010000
00000000
00001000
00000000
00010300
,
00004000
00040000
00000000
00000000
00000000
00000000
00000000
00000000
00000000
00033000
00000000
00000000
,
00020000
00000000
00000020
00030000
00000200
00000030
00000020
00000300
,
00020000
00000030
00000200
00030000
00000020
00000300
00000100
00000030
,
00020000
00000000
00002000
00030000
00200000
00003000
01000000
00300000
,
10000000
00000000
00010000
00000000
20000000
00000000
00020000
00000000
00000000
30030000
00000000
00000000
,
01000000
00000000
00100000
00000000
01000000
00000000
20020000
30030000
,
00001000
00000000
00010000
00000000
00000010
00000000
00002002
00003003
,
00001000
00000000
00000220
00000330
00000001
00000000
00000220
00000330
,
00001000
00000100
00000010
00000001
00001000
00000100
00000010
00000001
,
00000200
00000300
00002002
00003003
,
00000100
00000000
00000001
00000000
00000010
00000000
00000000
00000010
,
00000001
00000100
00000010
00000100
,
00000001
00000000
00001000
00000000
00000010
00000000
00010000
00001000
,
00010000
00001000
01000000
00100000
,
10000000
00000000
01000000
00000000
00100000
00010000
00000000
00010000
,
01000000
00001000
00010000
00001000
,
00000010
00002000
00010000
00000000
,
01003000
00001000
00010000
00000010
,
00001000
00000001
00000100
00000010
,
00000100
00001000
00010000
00001000
,
00000010
00000100
00010000
00001000
,
00010000
00000000
01000000
00000000
00100000
02000000
00000000
03000000
,
01000000
20000000
00000000
30000000
10000000
00000000
00100000
00000000
,
01000000
00010000
01000000
00000000
00001000
00010000
00001000
00000000
,
00010000
00000000
00000100
00000000
00001000
00000001
00001000
00000001
,
00000020
00000000
00000000
00000032
00000000
00000000
00000203
00000000
,
00000000
00002300
00000000
00013000
00001000
00010000
00001000
00000000
,
00020000
00000000
00000000
00030020
00000000
00000000
00001030
00000100
,
00000000
00000200
00000000
00010300
00001000
01000000
00010000
00000000
,
00200000
00000000
00000000
00302000
00000000
00000000
00023000
00000000
,
00000000
00031000
00000000
00010000
00000010
00010000
00000010
00000000
,
00020000
00000000
00000000
00032000
00000000
00000000
00013000
01000000
,
00000000
01000000
00000000
00100000
01000000
10000000
00010000
00000000
,
10010000
00000000
22M00000
00M00000
00M00000
00M00000
00000000
000MMM00
,
0000M000
0000M000
0000M000
00000000
000000MM
00000M00
00000MMM
00000M0M
,
330000MM
00000000
00000000
00000000
;

//---------------dance-single - D. D'Amato----------------
#NOTES:
     dance-single:
     D. D'Amato:
     Challenge:
     13:
     1.000,1.000,0.691,0.345,0.971,831.000,80.000,40.000,97.000,0.000,0.000,1.000,1.000,0.691,0.345,0.971,831.000,80.000,40.000,97.000,0.000,0.000:
0000
0000
0000
0000
,
0000
0000
0000
0000
,
0000
0000
0000
0000
,
1000
0000
0001
0000
1000
0000
0010
0100
0000
0100
0001
0000
0010
0100
0000
0100
,
1000
0000
0010
1000
0100
0000
1001
0000
0010
0001
0100
0000
0001
1000
0001
1000
,
1001
0000
0001
0000
1000
0000
0010
0100
0000
0100
0001
0000
0010
0000
1100
0000
,
0011
0000
0100
0000
1001
0000
0010
1000
0000
1000
0100
0000
0010
0100
0010
0100
,
0110
0000
1000
0100
0010
0000
0001
0010
0100
1000
0000
0110
0000
0000
0001
0100
,
0010
0000
1000
0010
0100
0000
1001
0000
0100
0000
0000
0000
MMMM
0000
0000
0000
,
1000
0000
0001
0000
0010
0000
0100
1000
0100
0010
0000
0010
0100
0000
0010
0000
,
0001
0000
1000
0000
0010
0000
0100
0001
0100
0010
0000
0010
0100
0000
0010
0000
,
1000
0000
0001
0000
0010
0000
0100
1000
0100
0010
0000
0010
0100
0000
0010
0001
,
1000
0001
0000
0001
1000
0010
0100
0010
0100
0000
0100
0001
1000
0000
0010
0100
,
0001
0000
1000
0000
0010
0000
0100
0001
0100
0010
0000
0010
0100
0000
0010
0000
,
1000
0000
0001
0000
0010
0000
0100
1000
0100
0010
0000
0010
0100
0000
0010
0000
,
0001
0000
1000
0000
0010
0000
0100
0001
0100
0010
0000
0010
0100
0000
0010
1000
,
0001
1000
0000
1000
0001
0010
0100
0010
0100
0000
0100
1000
0001
0000
0010
0100
,
1000
110M
11M0
0100
0010
M011
0001
0100
,
011M
0000
0010
0000
1000
0000
0001
0000
10M1
0000
1000
0000
001M
0100
0010
0100
,
0001
M101
0100
0010
1000
0100
11M0
1000
,
0002
0100
1003
0110
2000
0100
3001
0110
,
0001
0000
1000
0010
0000
0000
0010
0100
0000
0000
0100
0001
0000
0000
0001
1000
,
0001
0000
1000
0100
0000
0000
0100
0010
0000
0000
0010
0000
0001
1000
0010
1000
,
0001
0000
0100
0010
0000
0000
0010
1000
0000
0000
1000
0001
1000
0000
0100
0000
,
0010
0000
0100
1000
0000
0000
1000
0001
1001
0000
0100
0000
100M
0000
0100
0000
,
0001
0000
1000
0100
0000
0000
0010
0001
0000
0000
0100
0010
0000
0000
1000
0001
,
1000
0000
0100
0000
0010
0000
0001
1000
0000
0000
0100
0000
1000
0001
0010
0001
,
1000
0000
0001
0100
0000
0000
0010
1000
0000
0000
0100
0010
0000
0000
0001
0000
,
1001
0000
0010
0000
100M
0000
0010
0000
0001
0010
0001
1000
0010
1000
0001
0010
,
0110
0000
0001
0000
1000
0000
0000
0000
0011
0000
0100
0000
1000
0000
0001
0100
,
0101
0000
0010
0000
1000
0000
0000
0000
0110
0000
1000
0000
0001
0010
0100
1000
,
1001
0000
0100
0000
0010
0000
0000
0000
1100
0000
0010
0001
0100
0000
0010
0000
,
0101
0000
1000
0000
0001
0000
1000
0010
1010
0000
0100
0000
0001
0000
1000
0000
,
0110
0000
1000
0000
0001
0000
0000
0000
1010
0000
0100
0000
0001
0000
1000
0100
,
1100
0000
0010
0000
0001
0000
0000
0000
0110
0000
0001
0000
1000
0010
0100
0001
,
1001
1000
0100
0000
0010
0000
M000
0000
0101
0001
0100
0000
0010
0000
000M
0000
,
1100
0000
0010
0000
1001
0000
0100
0000
0010
0001
0010
0000
0100
1000
0100
0010
,
0120
0001
0030
1200
0010
0300
2001
0010
,
3000
0210
0001
0300
1010
0201
0000
0310
,
200M
0100
3000
0011
0100
0000
2010
0001
,
3000
0000
0210
0000
M000
0000
0310
0000
1001
0000
0110
0000
1000
0001
0100
0010
,
0120
1000
0030
0201
0010
0300
1002
0010
,
0003
0210
1000
0300
0011
1200
0000
0310
,
M002
0100
0003
2010
0100
3000
MM12
1000
,
MMM0
0000
1000
0000
MMM0
0000
1003
0000
0110
0000
1001
0000
0010
0100
1000
0001
,
1000
0000
0010
0000
1000
0000
0010
1000
0001
0000
0100
0000
0010
0000
0100
0000
,
0001
0000
1000
0000
0001
0000
0010
0001
1000
0001
1000
0000
0010
0000
0100
0000
,
0001
0000
1000
0100
0010
0000
0001
0100
0010
0000
1000
0000
0001
0000
01M0
0000
,
0000
0000
MM1M
0000
0000
0000
M10M
0000
0010
1000
0100
0000
0010
0000
0001
0000
,
0010
0000
0M00
0000
M001
0000
0010
0001
1000
0000
0100
0000
0010
0000
0100
0000
,
1000
0000
0001
0000
1000
0000
0010
1000
0001
1000
0001
0000
0010
0000
0100
0000
,
1000
0000
0001
0100
0010
0000
1000
0100
0010
0000
0001
0000
1000
0000
01M0
0000
,
0000
0000
MM1M
0000
0000
0000
M10M
0000
0010
0001
0100
0000
0010
0000
1000
0000
,
0001
0100
0001
0000
1000
0100
1000
0000
0001
0010
0001
0000
1000
0010
1000
0000
,
0100
0010
0100
0010
0100
0000
100M
0000
0010
0100
0010
0100
0010
0000
1000
0000
,
0001
0100
0001
0000
1000
0100
1000
0000
0001
0010
0001
0000
1000
0010
1000
0000
,
0100
0000
0010
0000
0001
1000
0001
0000
0100
0000
0010
0000
1000
0001
1000
0000
,
0001
0100
0001
0000
1000
0100
1000
0000
0001
0010
0001
0000
1000
0010
1000
0000
,
0100
0000
0010
0000
M001
0000
0100
0000
0001
1000
0001
1000
0001
0000
0010
0000
,
0001
0100
0001
0000
1000
0100
1000
0000
0001
0010
0001
0000
1000
0010
1000
0000
,
0100
0010
0100
1000
0100
0010
0001
0100
0010
1000
0010
0100
,
0001
0000
0010
0100
0000
1000
0010
0000
0100
0001
1000
0100
,
0010
0000
0000
0000
0001
0000
0100
0000
0000
M000
0020
0000
1000
0000
0000
M000
0000
0000
1030
0000
0001
0000
0100
0000
,
0010
0000
1000
0001
0000
0010
0100
0000
1000
0010
0100
0001
,
1000
0000
0000
0000
0100
0000
0000
0000
0020
000M
0000
0000
0001
0000
0000
000M
0000
0000
0031
1000
0001
1000
0001
1000
,
0001
0000
1000
0001
0100
0010
0100
0000
0010
0200
0000
0000
,
1300
0000
0001
1000
0100
0010
0100
0000
0010
0200
0000
0000
,
0301
1000
0100
0020
0000
0000
1030
0001
0100
0020
0000
0000
,
1030
0000
0110
0000
0000
0000
1001
0000
0010
1000
0001
0010
0100
1000
0001
0100
,
0010
1000
0100
000M
0010
0001
0100
M000
,
0001
0000
0010
0000
0100
0000
1000
0000
0100
0000
0010
0000
0100
1000
0100
1000
,
0100
M001
0100
0010
1000
0010
0100
0001
,
0100
0000
0010
0000
1000
0000
0010
0100
0010
0000
1000
0000
0001
0000
0010
0000
,
0100
M001
0010
0100
1000
0100
0010
0001
,
1000
0000
0010
0000
0100
0001
0100
0001
0100
0000
0010
0000
M00M
0000
0010
0000
,
0100
0000
1000
0000
0001
0000
0010
0100
0010
0000
0001
0000
1000
0000
0010
0000
,
0100
0001
0100
0001
0100
0001
0100
0001
1000
0010
1000
0010
1000
0010
1000
0010
,
0100
0000
0001
0000
0010
0000
0001
0100
0001
0000
1000
0000
0010
0000
1000
0100
,
1000
0000
0010
0000
0100
0000
0001
0010
0001
0000
0100
0000
0010
1000
0010
1000
,
0010
0000
1000
0000
0100
0000
1000
0010
1000
0000
0001
0000
0010
0000
0001
0100
,
0001
0000
1000
0010
1000
0000
0100
0000
0010
0000
0100
0000
1000
0001
1000
0001
,
1000
0000
0010
0000
0100
0010
0100
0010
0100
0000
0001
0000
2000
0M0M
0010
0000
,
3001
0000
1000
0000
0002
MM00
0010
0000
1003
0000
0001
0100
0001
0000
1000
0000
,
0010
0100
0010
0100
0010
0000
1000
0000
0100
0010
0100
0010
0100
0000
1000
0001
,
1000
0000
0010
0000
0100
0000
0010
0000
1000
0001
1MM0
0001
1000
0001
1MM0
0001
,
2001
0M00
300M
1020
000M
M030
0210
M000
,
03M0
0000
0102
0000
00M0
0000
1003
0000
0100
0000
0010
0000
0001
1000
0MM1
1000
,
1002
00M0
M003
0021
0M00
003M
0110
1001
,
0MM0
0000
1001
0000
0000
0000
0110
0000
1000
0000
0001
0000
1000
0001
1MM0
0001
,
1002
0103
0001
2010
3100
1000
0012
0103
,
0010
0000
1001
0000
0MM0
0000
1001
0000
0010
0000
0100
0000
1000
0001
1MM0
0001
,
1002
0010
1003
0201
0010
0301
2010
0100
,
30M0
0000
1001
0000
0MM0
0000
1001
0000
0100
0010
0100
0000
1000
0001
1MM0
0001
,
1001
20M2
0M00
0000
,
0000
00M0
0MM0
0M00
,
0000
0MM0
0MM0
0000
,
3003
0000
0000
0000
;

//---------------dance-single - D. D'Amato----------------
#NOTES:
     dance-single:
     D. D'Amato:
     Hard:
     10:
     0.887,0.870,0.406,0.345,0.246,632.000,47.000,40.000,31.000,0.000,0.000,0.887,0.870,0.406,0.345,0.246,632.000,47.000,40.000,31.000,0.000,0.000: // measure 1
0000
0000
0000
0000
,  // measure 2
0000
0000
0000
0000
,  // measure 3
0000
0000
0000
0000
,  // measure 4
0010
0000
0001
0000
0100
0000
0000
1010
0000
0000
0101
0000
1000
0001
0000
1000
,  // measure 5
0001
0000
0010
0000
0100
0000
1001
0000
0010
0000
0100
0000
0001
1000
0001
0000
,  // measure 6
1001
0000
1000
0000
0100
0000
0000
0011
0000
0000
1100
0000
0010
0000
0001
0000
,  // measure 7
0101
0000
0000
0000
1100
0000
1000
0000
0010
0000
0100
0000
0001
1000
0001
0000
,  // measure 8
1001
0000
1000
0000
0010
0000
0100
0010
0100
0001
0000
1000
0000
0000
0100
0010
,  // measure 9
0100
1000
0001
0100
1001
0000
0000
0000
,  // measure 10
0010
0000
1000
0000
0100
0000
1000
0001
0100
0000
0000
0010
1000
0000
0100
0000
,  // measure 11
0010
0000
0001
0000
0100
0000
0001
1000
0100
0000
0000
0010
0001
0000
0100
0000
,  // measure 12
0010
0000
1000
0000
0100
0000
1000
0001
0100
0000
0000
0010
1000
0000
0100
0000
,  // measure 13
0010
0001
0000
0000
0100
0000
0010
1000
0001
0000
0010
0000
1001
0000
0000
0000
,  // measure 14
0010
0000
0001
0000
0100
0000
0001
1000
0100
0000
0000
0010
0001
0000
0100
0000
,  // measure 15
0010
0000
1000
0000
0100
0000
1000
0001
0100
0000
0000
0010
1000
0000
0100
0000
,  // measure 16
0010
0000
0001
0000
0100
0000
0001
1000
0100
0000
0000
0010
0001
0000
0100
0000
,  // measure 17
0010
1000
0000
0000
0100
0000
0010
0001
1000
0000
0010
0000
1001
0000
0000
0000
,  // measure 18
0001
0100
0010
0100
0001
0010
0001
0100
,  // measure 19
0010
0000
1000
0000
0100
0000
1000
0000
0010
0000
0100
0000
0001
0000
1000
0001
,  // measure 20
1000
0100
0010
0100
1000
0010
1000
0100
,  // measure 21
0110
1001
0110
1001
,  // measure 22
0100
0001
1000
0000
0100
0010
0001
1000
,  // measure 23
0010
0000
0100
0000
1010
0000
0001
0010
,  // measure 24
0100
1000
0001
0000
0100
0010
1000
0001
,  // measure 25
0010
0000
0100
0000
0011
0000
1000
0100
,  // measure 26
0010
0001
1000
0000
0010
0100
0001
1000
,  // measure 27
0100
0000
0010
0000
1100
0000
0001
0100
,  // measure 28
0010
1000
0001
0000
0010
0100
1000
0001
,  // measure 29
0100
0000
0010
0000
0101
0000
1000
0100
,  // measure 30
001M
0100
1000
0000
0010
0100
1000
0010
,  // measure 31
0100
0010
1000
0000
0100
0010
1000
0100
,  // measure 32
M010
0100
1000
0000
0100
0010
1000
0100
,  // measure 33
0010
0100
1000
0000
0110
0000
0001
0100
,  // measure 34
001M
0100
0001
0000
0010
0100
0001
0010
,  // measure 35
0100
0010
0001
0000
0100
0010
0001
0100
,  // measure 36
M010
0100
0001
0000
001M
0100
1000
0000
,  // measure 37
M110
0000
100M
0000
M100
0010
010M
0010
,  // measure 38
0200
1000
0000
2300
0001
0000
3002
0100
,  // measure 39
0000
0203
0010
0300
1002
0100
0000
1003
,  // measure 40
0020
0100
0000
0230
0010
0000
0320
1000
,  // measure 41
0000
1030
0000
0001
1000
0001
0100
0010
,  // measure 42
0200
0001
0000
0302
1000
0000
2003
0100
,  // measure 43
0000
3200
0010
0300
2001
0100
0000
3001
,  // measure 44
0020
0100
0000
0230
0010
0000
0320
0001
,  // measure 45
0000
0031
0000
1000
0001
1000
0100
0010
,  // measure 46
0001
0010
1000
0010
0001
0010
1000
0010
,  // measure 47
000M
0010
M000
0010
1000
0001
0010
0100
,  // measure 48
1000
0000
0001
0100
0001
0000
1000
0100
1000
0000
0001
0000
1000
0000
0100
0000
,  // measure 49
0000
0110
0000
0100
0010
0001
0100
0001
,  // measure 50
1000
0010
0001
0010
1000
0010
0001
0010
,  // measure 51
M000
0010
000M
0010
0001
1000
0010
0100
,  // measure 52
0001
0000
1000
0100
1000
0000
0001
0100
0001
0000
1000
0000
0001
0000
0100
0000
,  // measure 53
0000
0110
0000
0100
0010
1000
0100
1000
,  // measure 54
0001
0100
0001
0010
0001
0100
0001
0010
,  // measure 55
0110
0101
1010
0110
,  // measure 56
1000
0010
1000
0100
1000
0010
1000
0100
,  // measure 57
0110
0101
1010
0110
,  // measure 58
0001
0010
0001
0100
0001
0010
0001
0100
,  // measure 59
0110
1100
0011
0110
,  // measure 60
1000
0100
1000
0010
1000
0100
1000
0010
,  // measure 61
0100
0001
0100
0001
0100
0001
1000
0100
1000
0100
1000
0100
,  // measure 62
0010
0000
0001
0100
0000
0000
0010
0000
1000
0100
0000
0100
,  // measure 63
1000
0000
0001
0100
0000
0100
0001
0000
0000
1001
0000
0000
,  // measure 64
0010
0000
1000
0100
0000
0000
0010
0000
0001
0100
0000
0001
,  // measure 65
0100
0000
0100
000M
1000
0000
0110
0000
0000
2002
0000
3003
,  // measure 66
0010
0000
1000
0001
0000
0010
0100
0000
0000
2000
0000
0000
,  // measure 67
3010
0000
0001
1000
0000
0010
0100
0000
0000
0002
0000
0000
,  // measure 68
0103
0001
0100
2000
0000
0000
3100
1000
0100
0002
0000
0000
,  // measure 69
0013
0100
0000
0100
0010
0001
0100
0010
,  // measure 70
1000
0010
0100
0000
0001
0010
0100
0000
,  // measure 71
0010
0001
1000
0010
0100
0001
0010
0100
,  // measure 72
1000
0010
0100
0010
1000
0001
0100
0010
,  // measure 73
0100
0001
1000
0100
0010
0001
0010
0100
,  // measure 74
1000
0100
0010
0100
1000
0001
0010
0100
,  // measure 75
0010
0001
0100
0010
1000
0010
0M00
0010
,  // measure 76
0001
1000
0100
0010
0100
1000
0001
0010
,  // measure 77
0001
0100
1000
0100
0001
0010
1000
0010
,  // measure 78
0001
1000
0100
0010
0001
0100
0010
1000
,  // measure 79
0100
0010
0001
0010
0100
1000
0010
0100
,  // measure 80
0001
0010
0100
0010
0001
1000
0100
0010
,  // measure 81
0100
1000
0001
0100
0010
1000
0010
0100
,  // measure 82
0001
0100
0010
0100
0001
1000
0010
0M0M
,  // measure 83
0010
0100
M0M0
0100
1000
0010
0100
0010
,  // measure 84
1000
0001
0100
0010
0100
0001
1000
0010
,  // measure 85
1000
0100
0001
0100
1000
0010
0001
0010
,  // measure 86
0200
0010
0000
0320
1000
0000
2030
0100
,  // measure 87
3000
0210
0000
0310
0001
0010
0100
1000
,  // measure 88
0200
0010
0000
0320
0001
0000
0032
0100
,  // measure 89
0003
0210
0000
0310
M000
0100
0001
1000
,  // measure 90
0200
0010
0000
0320
0001
0000
0032
0100
,  // measure 91
0003
0210
0000
0310
1000
0010
0100
0001
,  // measure 92
0200
0010
0000
0320
1000
0000
2030
0100
,  // measure 93
3000
0210
0000
0310
000M
0100
1000
0001
,  // measure 94
1001
20M2
0M00
0000
,  // measure 95
0000
00M0
0MM0
0M00
,  // measure 96
0000
0MM0
0MM0
0000
,  // measure 97
3003
0000
0000
0000
;

//---------------dance-single - D. D'Amato----------------
#NOTES:
     dance-single:
     D. D'Amato:
     Medium:
     9:
     0.725,0.746,0.363,0.328,0.125,508.000,42.000,38.000,13.000,0.000,0.000,0.725,0.746,0.363,0.328,0.125,508.000,42.000,38.000,13.000,0.000,0.000:
0000
0000
0000
0000
,
0000
0000
0000
0000
,
0000
0000
0000
0000
,
0010
0000
0001
0000
1000
0000
0000
1010
0000
0000
0010
0000
1000
0001
0000
0000
,
0110
0000
0000
0000
0010
0000
1001
0000
0000
0000
0100
0000
0001
1000
0001
1000
,
0100
0000
1000
0000
0001
0000
0000
0101
0000
0000
0100
0000
0010
0000
1000
0000
,
0100
0000
0000
0000
0110
0000
0000
0000
0010
0000
0001
0000
0100
0010
0100
0010
,
1000
0000
0001
0000
0010
0000
0100
1000
0001
1000
0000
0100
0000
0000
1000
0000
,
0100
0010
M00M
0100
1001
0000
0000
0000
,
0001
0000
0100
0000
0010
0000
0000
0000
0110
0000
0000
1010
0000
0000
1001
0000
,
1000
0000
0100
0000
0010
0000
0000
0000
0110
0000
0000
0011
0000
0000
1001
0000
,
0001
0000
0100
0000
0010
0000
0000
0000
0110
0000
0000
1010
0000
0000
1001
0000
,
1000
0100
0010
0001
0100
0000
0110
0000
,
1000
0000
0100
0000
0010
0000
0000
0000
0110
0000
0000
0011
0000
0000
1001
0000
,
0001
0000
0100
0000
0010
0000
0000
0000
0110
0000
0000
1010
0000
0000
1001
0000
,
1000
0000
0100
0000
0010
0000
0000
0000
0110
0000
0000
0011
0000
0000
1001
0000
,
0001
0100
0010
1000
0100
0000
0110
0000
,
0001
0100
1000
0100
0000
0010
1000
0100
,
0000
0001
0100
0001
0000
1000
0010
0100
,
1000
0100
0001
0100
0000
0010
0001
0100
,
0020
0001
0230
1000
,
0310
1000
0001
0000
0100
0000
0010
1000
,
0010
0000
0100
0000
0010
0000
1000
0001
,
0010
0000
0100
0000
1000
0000
0001
0010
,
0001
0000
1000
0000
0001
0000
0010
0100
,
0001
0000
1000
0000
0010
0000
0100
0001
,
0100
0000
0010
0000
0100
0000
0001
1000
,
0100
0000
0010
0000
0001
0000
1000
0100
,
1000
0000
0001
0000
1000
0000
0100
0010
,
0100
0001
1000
0000
0010
0000
1001
0000
,
0100
0010
1000
0000
0100
0010
0001
0100
,
0010
1000
0001
0000
0010
0000
1001
0000
,
0100
0010
0001
0000
0100
0010
1000
0100
,
0010
0001
1000
0000
0010
1000
0001
0000
,
0100
0001
1000
0000
0100
1000
0001
0000
,
2010
3100
0012
0103
,
0110
0000
1001
0000
0100
0001
1000
0100
,
0020
0000
0000
0032
0000
0000
0203
0000
,
0000
2300
0000
3000
0100
0010
0000
0010
,
0200
0000
0000
0302
0000
0000
0023
0000
,
0000
2030
0000
3010
0001
1000
0010
0100
,
0020
0000
0000
2030
0000
0000
3200
0000
,
0000
0302
0000
0003
0100
0010
0000
0010
,
0200
0000
0000
2300
0000
0000
3020
0001
,
0000
0032
0000
0013
1000
0001
0010
0100
,
0010
0000
0001
0010
0100
0010
0000
0100
,
0000
1000
0000
0010
0100
0010
1000
0000
,
0001
0100
0010
1000
0010
0100
0001
0100
,
0000
0110
0000
0010
1000
0100
0010
0000
,
0001
0000
1000
0010
0100
0010
0000
0100
,
0000
0001
0000
0010
0100
0010
0001
0000
,
1000
0100
0010
0001
0010
0100
1000
0100
,
0000
0110
0000
0010
0001
0100
0010
1000
,
0001
0100
0001
0000
1000
0010
1000
0000
,
0002
0100
0010
1003
,
1000
0100
1000
0000
0001
0010
0001
0000
,
2000
0010
0100
3001
,
0001
0100
0001
0000
1000
0010
1000
0000
,
0002
0100
0010
1003
,
1000
0100
1000
0000
0001
0010
0001
0000
,
1000
0000
0100
0000
0010
0000
0001
0000
0010
0000
0100
0000
,
1000
0000
0010
0100
0000
0000
0001
0000
0010
0100
0000
0010
,
0000
0000
0001
0000
0000
1000
0010
0000
0000
0101
0000
0000
,
1000
0000
0100
0010
0000
0000
0001
0000
0100
0010
0000
0000
,
0100
0000
0001
0000
0010
0000
1100
0000
0000
2002
0000
3003
,
0010
0001
0100
2000
,
3010
1000
0100
0002
,
0013
2000
3010
0002
,
0013
0100
0000
1000
0001
0000
0100
0010
,
1000
0100
0001
0010
,
1000
0001
0100
0010
0001
0000
0010
0000
,
1000
0001
0100
0010
0001
0000
0010
0000
,
1000
0001
0100
0010
0001
0010
1000
0100
,
0010
0100
1000
0100
0010
0001
0010
0100
,
0010
0001
0010
0100
1000
0100
00M0
0100
,
1000
0001
0100
0010
0100
0001
0100
0010
,
1000
0010
0100
0000
0001
0100
0020
0000
,
1030
0001
0100
0000
0001
1000
0100
0000
,
1000
0001
0100
0001
1000
0000
0100
0000
,
0001
1000
0100
0000
1000
0001
0100
0000
,
0001
1000
0100
1000
0001
0000
0010
0000
,
1000
0001
0010
0001
1000
0000
0010
0100
,
0000
0000
0100
0010
0000
0100
0001
1000
,
0010
1000
0001
0000
0010
0001
1000
0000
,
0100
1000
0001
1000
0010
0100
0010
0100
,
0002
0000
0000
0013
0000
0000
2100
0000
,
0000
0001
0000
3010
0100
0001
0010
0100
,
2000
0000
0000
0001
0000
0000
3010
0100
,
0000
1010
0000
0001
0100
0001
0010
0100
,
2000
0000
0000
3010
0000
0000
0102
0000
,
0000
1000
0000
0013
0100
1000
0010
0100
,
0002
0000
0000
1000
0000
0000
0013
0100
,
0000
0011
0000
1000
0100
1000
0010
0000
,
0100
20M2
0M00
0000
,
0000
00M0
0MM0
0M00
,
0000
0MM0
0MM0
0000
,
3003
0000
0000
0000
;

//---------------dance-single - D. D'Amato----------------
#NOTES:
     dance-single:
     D. D'Amato:
     Easy:
     7:
     0.573,0.580,0.552,0.302,0.035,366.000,64.000,35.000,7.000,0.000,0.000,0.573,0.580,0.552,0.302,0.035,366.000,64.000,35.000,7.000,0.000,0.000:
0000
0000
0000
0000
,
0000
0000
0000
0000
,
0000
0000
0000
0000
,
0001
0000
0000
0000
1000
0000
0000
0100
0000
0000
0010
0000
0001
0000
0000
0000
,
0100
0000
0010
1000
0000
0100
0010
0100
,
1000
0000
0000
0000
0001
0000
0000
0100
0000
0000
0010
0000
1000
0000
0100
0000
,
0010
0000
1001
0000
0100
0000
0010
0100
,
0001
0000
0000
0000
1000
0000
0100
0000
0010
0000
0000
0001
0000
0000
0100
0000
,
0010
1000
0000
0001
0200
0000
0300
0000
,
0002
0000
0000
0000
0023
0000
0000
0230
,
0000
0000
0000
0000
2300
0000
0000
0000
0010
3000
0000
0000
0100
0000
0000
0000
,
0002
0000
0000
0000
0023
0000
0000
0230
,
0000
0000
0000
0000
2300
0000
0000
0000
0010
3000
0000
0000
0100
0000
0000
0000
,
0002
0000
0000
0000
0023
0000
0000
0230
,
0000
0000
0000
0000
2300
0000
0000
0000
0010
3000
0000
0000
0100
0000
0000
0000
,
0002
0000
0000
0000
0023
0000
0000
0230
,
0000
0000
0000
0000
2300
0000
0000
0000
0010
3000
0000
0000
0100
0000
0000
0000
,
0001
0010
0001
0000
0000
0110
0000
0000
,
1001
0000
0000
0000
0110
0000
1000
0010
,
1000
0001
0000
0000
0100
0000
1001
0000
,
0120
1030
0210
0301
,
0010
1000
0100
1000
,
0010
0000
0010
0000
0100
0000
0100
0010
,
0100
0001
0010
0001
,
0100
0000
0100
0000
0010
0000
0010
0100
,
0010
1000
0100
1000
,
0010
0000
0010
0000
0100
0000
0100
0010
,
0100
0001
0010
0001
,
0100
0000
0100
0000
0010
0100
0010
0100
,
0001
0010
0100
0010
,
0100
0011
0100
1010
,
0001
1000
0001
1000
,
0101
1000
0011
0100
,
1001
0010
0100
0010
,
1100
0010
0101
1000
,
0120
0031
0210
1300
,
0110
0000
1001
0000
0100
0010
0100
0010
,
0100
0000
0000
1001
0000
0000
1010
0000
,
0000
0101
0000
0000
0010
1000
0000
0001
,
0100
0000
0000
1001
0000
0000
0011
0000
,
0000
1100
0000
0010
0001
1000
0000
0001
,
0100
0000
0000
1001
0000
0000
0011
0000
,
0000
1100
0000
0000
0010
0001
0000
1000
,
0100
0000
0000
1001
0000
0000
0010
1000
,
0000
0101
0000
0010
1000
0001
1000
0000
,
0100
0000
0010
0000
0001
0010
0000
0100
,
0000
1000
0000
0001
0000
0100
0010
0000
,
1000
0M00
1000
0000
0001
00M0
0001
0100
,
0000
0010
0000
0100
0001
0000
0010
0001
,
0100
0000
0010
0000
1000
0010
0000
0100
,
0000
0001
0000
1000
0000
0100
0010
0000
,
0001
0M00
0001
0000
1000
00M0
1000
0100
,
0000
0010
0000
0100
1000
0000
0010
1000
,
0100
0001
0010
1000
,
1100
0101
0011
1010
,
0100
1000
0010
0001
,
0101
1100
1010
0011
,
0010
1000
0100
0001
,
0011
1010
1100
0101
,
0010
0001
0100
1000
,
2020
0000
0000
3030
0202
0000
0000
0303
,
0010
0000
0000
1000
0000
0000
0100
0000
0000
0010
0000
0001
,
0000
0000
0100
0000
0000
0001
1000
0000
0000
0100
0000
0000
,
0010
0001
0100
0010
,
1000
0000
0001
0000
0010
0000
0100
0000
0000
2002
0000
3003
,
0010
0010
0010
2000
,
3010
0010
0010
0002
,
0103
2000
3100
0002
,
1003
0010
0000
0100
0001
0000
0110
0000
,
1000
1000
1000
1000
,
0001
0001
0001
0001
,
1000
1000
0001
0001
,
1000
0001
1000
0001
,
0010
0100
1000
0100
,
0010
0001
0010
0M00
,
1000
0010
0100
0001
,
0200
0000
0320
0000
,
1030
0001
1000
0001
,
0010
0100
0010
0100
,
1000
0001
1000
0001
,
0100
0010
0100
0010
,
0100
0001
1000
00M0
,
0100
000M
0010
0001
,
0010
0100
0010
0100
,
1000
0001
1000
0001
,
0110
0000
0000
1010
0000
0000
1001
0000
,
0000
0101
0000
1000
0001
0000
0100
0000
,
1001
0000
0000
0011
0000
0000
1000
0001
,
0000
0110
0000
0000
0101
0000
1010
0000
,
0110
0000
0000
0101
0000
0000
1001
0000
,
0000
1100
0000
0001
1000
0000
0100
0000
,
1001
0000
0000
1010
0000
0000
0001
1000
,
0000
0110
0000
0000
1100
0000
0011
0000
,
0100
2002
0000
0000
,
0000
0000
0000
0000
,
0000
0000
0000
0000
,
3003
0000
0000
0000
;

//---------------dance-single - M. Calfin----------------
#NOTES:
     dance-single:
     M. Calfin:
     Beginner:
     1:
     0.245,0.241,0.112,0.000,0.000,186.000,13.000,0.000,0.000,0.000,0.000,0.245,0.241,0.112,0.000,0.000,186.000,13.000,0.000,0.000,0.000,0.000:
0000
0000
0000
0000
,
0000
0000
0000
0000
,
0000
0000
0000
0000
,
0000
0000
0000
0000
,
0010
0000
0100
0000
,
0010
1000
0000
0000
,
0010
0000
0100
0000
,
0010
0000
1000
0000
,
0001
0000
0010
0000
,
1001
0000
0010
0000
,
1001
0000
0100
0000
,
1010
0000
0001
0000
,
0110
0000
0100
0000
,
1001
0000
0010
0000
,
0110
0000
0100
0000
,
1001
0000
0010
0000
,
0110
0000
0100
0000
,
1001
0000
0010
0000
,
0100
0000
0100
0000
,
0010
0000
0001
0000
,
0100
0000
0010
0000
,
1000
0000
0100
0000
,
0010
0000
0100
0000
,
0010
0000
1000
0000
,
0100
0000
0001
0000
,
0010
0000
0010
0000
,
0100
0000
0010
0000
,
0100
0000
1000
0000
,
0100
0000
1000
0000
,
0001
0000
1000
0000
,
0010
0000
0100
0000
,
0001
0000
0010
0000
,
0001
0000
0100
0000
,
1000
0000
0010
0000
,
0100
0000
1000
0000
,
0010
0000
0001
0000
,
0000
0001
0000
0000
,
0001
0000
0000
0100
0000
0000
0010
0000
,
0000
1000
0000
0000
0100
0000
0000
0000
,
1000
0000
0000
0100
0000
0000
0010
0000
,
0000
0001
0000
0000
0100
0000
0000
0000
,
0001
0000
0000
0100
0000
0000
0010
0000
,
0000
1000
0000
0000
0100
0000
0000
0000
,
1000
0000
0000
0010
0000
0000
0100
0000
,
0000
0001
0000
0000
0100
0000
0001
0000
,
0010
0000
0010
0000
,
0100
0000
0100
0000
,
1000
0000
1000
0000
,
0001
0000
0000
0000
,
0001
0000
0001
0000
,
0001
0000
1000
0000
,
1000
0000
1000
0000
,
0010
0000
0100
0000
,
1001
0000
0100
0000
,
0010
0000
0100
0000
,
0001
0000
1000
0000
,
1000
0000
0010
0000
,
1000
0000
1000
0000
,
0010
0000
1000
0000
,
0100
0000
0100
0000
,
0100
0000
0010
0000
,
1001
0000
0100
0000
,
0010
0000
0100
0000
,
1001
0000
0010
0000
,
0010
0001
0000
0000
,
0100
0000
0010
0000
,
0100
0000
0010
0000
,
1000
0000
1000
0000
,
0001
0000
0010
0000
,
0100
0000
0010
0000
,
0100
0000
0001
0000
,
1000
0000
0100
0000
,
1000
0000
0100
0000
,
0010
0000
0100
0000
,
1000
0000
0100
0000
,
0001
0000
0010
0000
,
1000
0000
0100
0000
,
0001
0000
1000
0000
,
0100
0000
0010
0000
,
0100
0000
1000
0000
,
0100
0000
1000
0000
,
0100
0000
0010
0000
,
0001
0000
0100
0000
,
0010
0000
1000
0000
,
0100
0000
0000
0000
0000
0001
0000
0000
,
0010
0000
0000
0100
0000
0000
1000
0000
,
0000
0001
0000
0000
0100
0000
0000
0000
,
0010
0000
0000
1000
0000
0000
0100
0000
,
0000
0001
0000
0000
0000
0010
0000
0000
,
0100
0000
0000
1000
0000
0000
0100
0000
,
0000
0010
0000
0000
0100
0000
0000
0000
,
1000
0000
0000
0100
0000
0000
0010
0000
,
0000
0001
0000
0000
0100
0000
0000
0000
,
1001
0000
0000
0000
;
