#TITLE:Disconnected Zeo;
#SUBTITLE:;
#ARTIST:G5;
#TITLETRANSLIT:;
#SUBTITLETRANSLIT:;
#ARTISTTRANSLIT:;
#GENRE:Trance;
#CREDIT:;
#BANNER:Disconnected Zeo-bn.png;
#BACKGROUND:Disconnected Zeo-bg.png;
#LYRICSPATH:;
#CDTITLE:;
#MUSIC:Disconnected Zeo.ogg;
#OFFSET:-0.004;
#SAMPLESTART:75.760;
#SAMPLELENGTH:9.480;
#SELECTABLE:YES;
#BPMS:0.000=152.000;
#STOPS:;
#BGCHANGES:-0.167=Disconnected Zeo.mpg=1.000=1=0=0=StretchNoLoop==CrossFade==,
99999=-nosongbg-=1.000=0=0=0 // don't automatically add -songbackground-;
#KEYSOUNDS:;

//---------------dance-single - K. Ward----------------
#NOTES:
     dance-single:
     K. Ward:
     Medium:
     6:
     0.355,0.000,0.264,0.091,0.000:
0000
0000
0000
0000
,
0000
0000
0000
0000
,
0000
0000
0000
0000
,
0000
0000
0000
0000
,
1000
0000
0000
0011
0000
0000
0000
0000
,
0000
0000
0000
0000
0100
1000
0100
0000
,
0010
0000
0000
0101
0000
0000
0000
0000
,
1000
0100
0010
0000
1001
0000
0000
0000
,
0100
0010
0100
0010
,
0100
0000
0010
0000
0001
1000
0001
0000
,
0010
0100
0010
0100
,
0010
0000
0100
0000
1000
0001
0010
0000
,
0100
0010
0001
1000
,
0010
0000
0001
0000
0010
0100
0001
0000
,
0010
0100
0010
0100
,
1000
0100
0010
0000
0100
0000
1001
0000
,
0000
0010
0000
0100
,
0000
1000
0000
0001
,
0000
1000
0000
0001
,
0000
1000
1001
0000
,
0100
0010
0100
0010
0100
0000
0000
0000
,
0001
1000
0001
1000
0001
0000
0000
0000
,
0100
1000
0100
1001
,
0000
0110
1001
0110
,
1001
0000
0000
0000
,
0100
0000
0000
0000
0000
0000
1000
0001
,
1000
0000
0000
0000
,
0100
0000
0000
0000
0000
0000
0010
0001
,
0100
0010
0100
0000
,
0011
0000
0000
0000
,
1000
0000
0100
0000
0010
0010
0100
0000
,
1001
0000
0000
0000
,
0000
0001
0000
0010
0000
0100
0000
0000
,
0010
0001
0100
1000
,
0000
0001
0000
1000
0000
0001
0000
0000
,
1001
0000
0000
0000
,
0000
1000
0000
0010
0000
1000
0000
0000
,
0100
0001
0010
0100
,
1001
0110
1001
0110
,
1001
0000
0000
0000
,
1000
0010
0100
0001
0010
0100
1000
0000
,
0100
0010
0110
0000
,
0001
0100
0010
1000
0100
0010
0001
0000
,
1000
0001
1001
0000
,
0010
0100
0001
0010
0100
1000
0100
0000
,
0010
0100
0110
0000
,
1000
0010
0100
0000
0001
1000
0100
0000
,
1001
0000
0000
0000
,
0002
1003
2000
3001
,
0002
1003
2000
3001
,
0020
0130
0200
0310
,
0020
0130
0200
0310
,
1000
0100
0001
0000
1000
0100
0001
0000
,
1000
0100
0001
0000
0100
1000
0010
0000
,
0100
0001
0100
0000
0010
0100
1000
0000
,
0100
0001
0010
0000
1001
0000
0110
0000
,
1000
0100
0010
0000
,
0100
0010
0100
0010
0100
0000
0000
0000
,
0001
0100
1000
0000
0001
0100
1000
0000
,
0100
0000
0010
0000
1000
1000
0100
0000
,
0001
0010
0100
0000
,
1000
0001
1000
0001
1000
0000
0000
0000
,
0010
0001
0100
1000
,
1001
0000
0100
0000
0100
0000
0100
0010
,
0000
0000
0110
0000
,
0001
0000
0001
0000
0001
0000
0001
1000
,
0000
0000
0110
1001
,
2002
0000
0000
0000
,
3003
0000
0000
0000
;

//---------------dance-single - K. Ward----------------
#NOTES:
     dance-single:
     K. Ward:
     Easy:
     4:
     0.288,0.000,0.282,0.127,0.000:
0000
0000
0000
0000
,
0000
0000
0000
0000
,
0000
0000
0000
0000
,
0000
0000
0000
0000
,
0001
0000
0000
1000
0000
0000
0000
0000
,
0100
0000
0000
0000
,
1000
0000
0000
0001
0000
0000
0000
0000
,
0100
0100
0100
0000
,
1001
1000
1000
1000
,
1001
0001
0001
0001
,
1001
1000
1000
1000
,
1001
0110
2002
3003
,
0000
0100
0000
0010
,
0000
0100
0000
0010
,
0000
1000
0000
0001
,
0000
1000
0000
0001
,
0000
0100
0100
0000
,
0010
0010
0010
0000
,
0001
0001
1000
1000
,
0100
1000
0010
0001
,
0000
1000
1000
0000
,
0100
0100
0100
0000
,
0010
0100
0010
0100
,
2002
0000
0000
0000
,
3003
0000
0000
0000
,
0100
0000
0000
0000
,
1000
0001
0100
1000
,
0100
0000
0001
0000
,
1000
0100
0001
0100
,
1000
0000
0001
0000
,
0010
0100
0010
0100
,
1001
0000
0000
0000
,
0100
0100
0100
0100
,
0100
0000
0000
0000
,
0010
0010
0010
0010
,
0010
0000
0000
0000
,
1000
0001
1000
0001
,
1000
0000
0000
0000
,
0100
0100
0010
0010
,
1001
0000
0000
0000
,
1000
0000
0010
0000
0100
0010
0100
0000
,
1001
0000
0110
0000
,
0001
0000
1000
0000
0100
0010
0100
0000
,
0011
0000
0110
0000
,
0001
0000
1000
0000
0100
0010
0100
0000
,
0010
0000
1100
0000
,
0010
0000
0100
0000
1000
0100
0010
0000
,
2002
0000
3003
0000
,
0101
0100
0100
0100
,
0110
0010
0010
0010
,
1010
0100
0100
0100
,
0110
1001
2002
3003
,
1001
0000
1000
0000
0100
0010
0100
0000
,
1001
0000
0001
0000
0010
0100
0010
0000
,
1100
0000
1000
0000
0100
0010
0100
0000
,
1001
0110
2002
3003
,
0000
0001
0000
1000
,
0000
0001
0000
1000
,
0000
0100
0000
0010
,
0000
0100
0010
0110
,
0000
0001
0001
0000
,
1000
1000
1000
0000
,
0100
0010
0100
0010
,
2002
0000
3003
0000
,
0100
0000
0000
0000
,
2200
0000
3300
0000
,
0010
0000
0010
0100
,
1001
0000
0000
0000
;

//---------------dance-single - K. Ward----------------
#NOTES:
     dance-single:
     K. Ward:
     Hard:
     8:
     0.512,0.000,0.236,0.000,0.105:
0000
0000
0000
0000
,
0000
0000
0000
0000
,
0000
0000
0000
0000
,
0000
0000
0000
0000
,
0001
1000
0001
0010
0000
0000
0000
0000
,
1000
0000
1100
0000
0010
0100
1000
0000
,
0100
0010
0100
0001
0000
0000
0000
0000
,
0010
0100
0010
0000
1001
0000
0000
0000
,
1000
0100
0001
0100
0001
0100
1000
0100
,
0001
0100
0001
0010
0100
0001
1000
0001
,
1000
0100
1000
0100
0001
0100
0001
0100
,
1000
0000
0000
1000
0000
0000
0100
0000
0000
0000
0000
0000
0001
0000
1000
0000
0001
0000
1000
0000
0000
0000
0000
0000
,
1100
0010
0001
0000
0100
0010
0001
0000
,
0010
0100
0001
0001
0010
0100
1000
0000
,
0100
0100
0010
0010
0001
0001
1000
1000
,
0010
0000
0000
0100
0000
0000
0001
1000
0001
1000
0000
0000
,
0011
0100
1000
0000
0010
0100
1000
0000
,
0100
0000
0010
0000
1000
0000
1000
0000
0100
0000
0000
0100
0010
0000
0000
0000
,
0001
1000
0100
0001
0100
1000
0010
0100
,
0001
0010
0100
0000
0010
0010
0001
0000
,
1000
0000
0000
1000
0100
0000
0000
0100
0010
0000
0000
0000
0001
0000
0000
0000
,
0100
0010
0100
1000
0100
0000
0M00
0000
,
0010
0100
0001
0000
0010
0100
1000
0000
,
0001
0000
0100
0000
1000
0000
0100
0000
0001
0000
0000
0000
1000
0001
1000
0001
,
1000
0000
0000
0001
0010
0000
0000
0000
0100
0000
0000
0000
0100
0000
0010
0000
,
0001
0000
0000
0000
1000
0001
1000
0000
,
0100
0000
0000
0100
1000
0000
0000
0000
0100
0000
0010
0000
0001
0000
0000
0000
,
0100
0000
0100
0000
0010
0010
0100
0000
,
1000
0000
0000
1000
0100
0000
0000
0000
0001
0000
1000
0000
0001
0000
0000
0000
,
0010
0000
0100
0000
0010
0010
0001
0000
,
1000
0000
0000
1000
0100
0000
0000
0000
0010
0000
0100
0000
0010
0000
0000
0000
,
1001
0000
0100
0000
,
0001
0000
1000
0001
1000
0000
0000
0000
0010
0000
0100
0000
0001
0000
0010
0000
,
0100
0010
0100
0010
,
0001
0000
1000
0001
1000
0000
0000
0000
0100
0000
0010
0000
0100
0000
0010
0000
,
0001
0000
0000
0000
0100
0100
0010
0000
,
0010
0000
0100
0010
0100
0000
0000
0000
0001
0000
1000
0000
0100
0000
0010
0000
,
0100
0000
1000
0000
0001
1000
0001
0000
,
0010
0000
0100
1000
0100
0000
0000
0000
0010
0000
0001
0000
0010
0000
0000
0000
,
1001
0000
0000
0000
,
0010
1100
0010
0101
,
0010
0100
1000
0100
0010
0001
0010
0000
,
0100
0011
0100
0010
,
1100
0000
0000
0010
0100
0000
0011
0000
,
1000
0100
0011
0000
0100
1000
1100
0000
,
0100
0010
0001
0010
0100
0000
1001
0000
,
0010
0100
0101
0000
0010
0100
0010
0000
,
1100
0000
0000
0000
,
0001
1000
0100
0010
0001
0010
0100
0001
,
0010
0100
1000
0100
0001
0100
1000
0000
,
0100
0001
0010
1000
0010
0001
0100
1000
,
0100
0001
0010
0100
0010
0010
1001
0000
,
1000
0100
1000
0100
0001
0100
0001
0100
,
1000
0100
0010
0001
0010
0000
0110
0000
,
0001
0001
0010
0100
1000
1000
0100
0010
,
0100
0000
0000
1001
0000
0000
0001
1000
0001
1000
0000
0000
,
0011
0100
1000
0000
0010
0100
1000
0000
,
1100
0010
0001
0000
0100
0010
0001
0000
,
0010
0100
1000
0000
0100
0010
1000
1000
,
0000
0100
0000
0010
0000
0100
0110
0000
,
0001
0000
0000
0001
0010
0000
0000
0010
0100
0000
0000
0000
1000
0000
0000
0000
,
0100
0010
0001
0100
1000
0000
M000
0000
,
0100
0000
0010
0000
0100
0000
1000
0000
0100
0000
0000
0000
0001
1000
0001
1000
,
0001
0000
0100
0000
0100
0000
0010
0101
,
0000
0010
0010
0000
,
1001
0000
0100
0000
0100
0000
0010
1100
,
0000
0000
0000
0000
0010
0010
0100
0000
,
1001
0000
0000
0000
;

//---------------dance-single - K. Ward----------------
#NOTES:
     dance-single:
     K. Ward:
     Beginner:
     1:
     0.097,0.000,0.064,0.000,0.000:
0000
0000
0000
0000
,
0000
0000
0000
0000
,
0000
0000
0000
0000
,
0000
0000
0000
0000
,
1000
0000
0000
0000
,
0000
0000
0000
0000
,
0001
0000
0000
0000
,
0000
0000
0000
0000
,
0100
0000
0000
0000
,
0100
0000
0000
0000
,
0100
0000
0000
0000
,
0000
0000
0000
0000
,
0010
0000
0000
0000
,
0010
0000
0000
0000
,
0010
0000
0000
0000
,
0000
0000
0000
0000
,
0001
0000
0000
0000
,
1000
0000
0000
0000
,
0001
0000
0000
0000
,
1000
0000
0000
0000
,
0100
0000
0000
0000
,
0010
0000
0000
0000
,
0100
0000
0000
0000
,
1001
0000
0000
0000
,
0010
0000
0000
0000
,
0000
0000
0000
0000
,
1000
0000
0000
0000
,
0000
0000
0000
0000
,
0001
0000
0000
0000
,
0000
0000
0000
0000
,
0100
0000
0000
0000
,
1001
0000
0000
0000
,
0100
0000
0100
0000
,
0100
0000
0000
0000
,
0010
0000
0010
0000
,
0010
0000
0000
0000
,
1000
0000
1000
0000
,
1000
0000
0000
0000
,
0001
0000
1000
0000
,
1001
0000
0000
0000
,
0100
0000
0100
0000
,
0100
0000
0100
0000
,
0010
0000
0010
0000
,
0010
0000
0010
0000
,
1000
0000
1000
0000
,
1000
0000
1000
0000
,
0001
0000
0010
0000
,
1001
0000
0000
0000
,
0100
0000
0000
0000
,
0100
0000
0000
0000
,
0010
0000
0000
0000
,
0010
0000
0000
0000
,
1000
0000
0000
0000
,
1000
0000
0000
0000
,
0001
0000
0000
0000
,
0001
0000
0000
0000
,
0010
0000
0000
0000
,
0100
0000
0000
0000
,
1000
0000
0000
0000
,
0010
0000
0000
0000
,
0100
0000
0000
0000
,
0001
0000
0000
0000
,
0010
0000
0000
0000
,
1001
0000
0000
0000
,
0100
0000
0000
0000
,
1001
0000
0000
0000
,
0010
0000
0000
0000
,
1001
0000
0000
0000
;

//---------------dance-double - M. Emirzian----------------
#NOTES:
     dance-double:
     M. Emirzian:
     Easy:
     3:
     0.191,0.000,0.155,0.055,0.000:
00000000
00000000
00000000
00000000
,
00000000
00000000
00000000
00000000
,
00000000
00000000
00000000
00000000
,
00000000
00000000
00000000
00000000
,
10000000
00000000
01000000
00000000
,
00010000
00000000
00001000
00000000
,
00000010
00000000
00000001
00000000
,
00002002
00000000
00000000
00003003
,
00000010
00001000
00001000
00000000
,
00000100
00000000
00010000
00000000
,
00001000
00000000
01000000
00000000
,
00010000
00000000
10000000
00000000
,
00100000
10000000
10000000
00000000
,
01000000
00000000
00010000
00000000
,
00001000
00000000
00000100
00000000
,
00000001
00000000
00000010
00000000
,
00001000
00000001
00000001
00000000
,
00000100
00000000
00001000
00000000
,
00010000
00000000
00100000
00000000
,
10000000
00000000
01000000
00000000
,
00100000
00010000
00010000
00000000
,
01000000
00000000
00001000
00000000
,
00010000
00000000
00000100
00000000
,
00001000
00000000
00000001
00000000
,
00000100
00000100
00000000
00000000
,
00001001
00000000
00000000
00000000
,
00001000
00001000
00000000
00000000
,
01001000
00000000
00000000
00000000
,
00100000
00100000
00000000
00000000
,
00110000
00000000
00000000
00000000
,
10000000
10000000
00000000
00000000
,
00022000
00000000
00000000
00033000
,
00100000
00001000
00010000
00000000
,
00010100
00000000
00000000
00000000
,
00000001
00001000
00000100
00000000
,
00010100
00000000
00000000
00000000
,
00001000
00010000
01000000
00000000
,
11000000
00000000
00000000
00000000
,
00100000
00010000
01000000
00000000
,
01001000
00000000
00000000
00000000
,
00001000
00000000
00010000
00000000
,
00010100
00000000
00010000
00000000
,
00010010
00000000
00001000
00000000
,
00000110
00000000
00000001
00000000
,
00001100
00000000
00010000
00000000
,
00011000
00000000
00100000
00000000
,
00101000
00000000
10000000
00000000
,
02002000
00000000
00000000
03003000
,
10000000
00000000
01000000
00000000
,
00100000
00100000
00000000
00000000
,
00001000
00000000
00010000
00000000
,
00000100
00000100
00000000
00000000
,
00000001
00000000
00001000
00000000
,
00000100
00000100
00000000
00000000
,
00000001
00000000
00000100
00000000
,
00001000
00001000
00000000
00000000
,
00010000
00001000
00000100
00000000
,
00001000
00000000
00010000
00000000
,
00100000
00000000
00010000
00000000
,
00001000
00000000
00000100
00000000
,
00001000
00010000
01000000
00000000
,
00010000
00000000
00001000
00000000
,
00000100
00000000
00001000
00010000
,
00100000
00000000
00000000
00000000
,
10000000
00000000
00000000
00000000
,
00010000
00000000
00000000
00000000
,
00001000
00000000
00000000
00000000
,
00001001
00000000
00000000
00000000
;

//---------------dance-double - M. Emirzian----------------
#NOTES:
     dance-double:
     M. Emirzian:
     Medium:
     5:
     0.307,0.000,0.236,0.073,0.000:
00000000
00000000
00000000
00000000
,
00000000
00000000
00000000
00000000
,
00000000
00000000
00000000
00000000
,
00000000
00000000
00000000
00000000
,
00010100
00000000
00000000
01001000
00000000
00000000
00000000
00000000
,
00000000
00000000
00010000
00001000
,
01001000
00000000
00000000
00010010
00000000
00000000
00000000
00000000
,
00022000
00000000
00000000
00033000
,
00010000
00001000
00010100
00000000
,
00000001
00000000
00000100
00000010
00001000
00000000
00000000
00000000
,
00001100
00000000
00010100
00000000
,
00010000
00000000
00001000
00010000
00000100
00000000
00010000
00000000
,
00001000
01000000
01010000
00000000
,
00100000
00000000
10000000
01000000
00010000
00000000
00000000
00000000
,
11000000
00000000
00011000
00000000
,
00000010
00000000
00000001
00000010
00001000
00000000
00000010
00000000
,
00000001
00000100
00001001
00000000
,
00000010
00000000
00000100
00001000
00000010
00000000
00000000
00000000
,
00010010
00000000
01001000
00000000
,
00010000
00000000
00001000
01000000
00010000
00000000
10000000
00000000
,
00100000
01000000
01010000
00000000
,
10000000
00000000
00100000
10000000
01000000
00000000
00000000
00000000
,
00110000
00000000
00001100
00000000
,
00000010
00000001
00000100
00001000
,
00000100
00000000
00000000
00000001
00000000
00001000
00000000
00000000
,
00000110
00000000
00000000
00001000
,
00001000
00000000
00000000
00010000
00000000
00010000
00000000
00000000
,
01001000
00000000
00000000
01000000
,
01000000
00000000
00000000
00001000
00000000
00001000
00000000
00000000
,
00101000
00000000
00000000
00000100
,
00000100
00000000
00000000
00000010
00000000
00000010
00000000
00000000
,
00000202
00000000
00000000
00000303
,
00000010
00000000
00001000
00000100
00000001
00000000
00000100
00000000
,
00001000
00000010
00001000
00000000
,
00000010
00000000
00010000
00001000
00010000
00000000
01000000
00000000
,
00010000
00001000
00010000
00000000
,
00100000
00000000
10000000
01000000
00010000
00000000
01000000
00000000
,
10000000
00100000
10000000
00000000
,
00010000
00000000
01000000
00001000
00010000
00000000
00000100
00000000
,
00020200
00000000
00000000
00030300
,
00010000
00001000
00000100
00000001
,
00000100
00001000
00010000
00000000
,
00001000
00000000
00000000
00010000
00000000
00000100
00000000
00000000
,
00011000
00000000
00000000
00001000
,
00010000
00100000
10000000
00100000
,
00010000
00001000
00010000
00000000
,
01000000
00000000
00000000
10000000
00000000
00010000
00000000
00000000
,
22000000
00000000
00000000
33000000
,
00010000
00000000
10000000
00000000
01000000
00100000
00010000
00000000
,
00100000
01000000
10000000
00000000
,
10000000
00000000
01000000
00000000
00010000
01000000
00010000
00000000
,
00001000
00010000
00000100
00000000
,
00010000
00000000
00001000
00000000
00000010
00000100
00001000
00000000
,
00000010
00000100
00000001
00000000
,
00000010
00000000
00001000
00000000
00000100
00000010
00000001
00000000
,
00000010
00001000
00000010
00000000
,
00000001
00000100
00001000
00000000
,
00010000
00000000
00001000
00010000
00000100
00000000
00010000
00000000
,
00001000
00000000
01001000
00000000
,
00001000
00010000
00100000
10000000
,
00100000
00010000
00001000
00000000
,
00010000
00000000
00001000
01000000
00010000
00000000
01000000
00000000
,
10000000
01000000
00010000
00100000
,
00010000
00000000
10000000
00000000
,
01000000
00000000
00010000
00000000
,
00001000
00000000
00000010
00000000
,
00000001
00000000
00000100
00000010
,
00001001
00000000
00000000
00000000
;

//---------------dance-double - M. Emirzian----------------
#NOTES:
     dance-double:
     M. Emirzian:
     Hard:
     9:
     0.601,0.000,0.382,0.109,0.091:
00000000
00000000
00000000
00000000
,
00000000
00000000
00000000
00000000
,
00000110
00000MM0
00000000
00011000
000MM000
00000000
00200000
00000000
,
20300000
00000000
32000000
00000000
03100000
00010000
10000000
01000000
,
00100000
00000000
00000000
00110000
00000000
00000000
00010000
00000000
01000000
00000000
00000000
01001000
00000000
00000000
00001000
00000000
,
00010000
00000000
00000000
00010100
00000000
00000000
00001000
00000000
00010000
00000000
00000100
00000000
00010000
00001000
00010000
00000000
,
00000010
00000000
00000000
00100010
00000000
00000000
00000000
00000010
,
00000100
00000000
00001000
00000000
00000001
00000100
00000010
00001000
,
00000100
00001010
00010010
00010000
,
00001000
00000000
00000000
00001000
01000000
00000000
00001000
00000000
00010000
00000000
00000000
00000000
00100000
00000000
00000000
00000000
,
00010000
00000000
00001000
00000100
00001000
00000000
00010000
00000000
,
00100000
00000000
00000000
10000000
02000000
00000000
00100000
00000000
03200000
00000000
00000000
00000000
00320000
00000000
00000000
00000000
,
10030000
00000000
00000000
00000000
11000000
00000000
00000000
00000000
01010000
00000000
00000000
00000000
00010000
00000000
00000000
00010000
,
00001000
00000000
00000100
00001000
00010000
00000000
00100000
00000000
,
00010000
00000000
00001000
00010000
00000100
00010000
00001000
00000000
,
00000100
00000000
00001000
00000000
00000010
00000000
00000000
00000000
00000001
00000000
00000000
00000001
00000010
00000000
00000100
00000000
,
00001000
00000000
00000110
00000000
00011000
00000000
00100000
01000000
,
00010000
01000000
10000000
00000000
01000000
00000000
00010000
00000000
,
10000000
01000000
00010000
00000000
00100000
10000000
00010000
01000000
,
00001000
00000000
00000000
00001000
00010000
00000000
00001000
00000000
00010000
00000000
00100000
00000000
00010000
00000000
00000000
00000000
,
00001000
00000000
00000000
00000000
00001100
00000000
00000000
00000000
00000101
00000000
00000000
00000000
00000001
00000000
00000000
00000001
,
00001000
00000100
00000001
00000100
00001000
00000010
00001000
00000001
,
00000100
00001000
00000100
00001000
00010000
00001000
00010000
00100000
,
00010000
00100000
10000000
01000000
00010000
01000000
10000000
00100000
,
10000000
00000000
00000000
01010000
00000000
00001100
00000000
00000000
,
00000001
00000100
00000010
00001000
00000000
00011000
00000000
00010000
,
01000000
00100000
10000000
01000000
00000000
01010000
00000000
10000000
,
10000000
01000000
00100000
00010000
00000000
00011000
00000000
00001000
,
00000100
00000010
00000001
00000100
00000000
00001001
00000000
00000010
,
00001000
00000100
00000100
00000000
00011000
00000000
00010000
00100000
,
00010000
01000000
00000000
00011000
00000000
00010100
00000000
00001001
,
00000022
00000000
00000000
00000033
,
00000001
00000100
00000010
00001000
00000000
00011000
00000000
00010000
,
00100000
01000000
10000000
01000000
00000000
01100000
00000000
00010000
,
01000000
00100000
01000000
10000000
00000000
00011000
00000000
00001000
,
00000100
00001000
00000010
00000001
00000000
00001010
00000000
00001000
,
00000100
00000001
00000100
00001000
00000000
00011000
00000000
00010000
,
01000000
00010000
00100000
10000000
00000000
00110000
00000000
00001000
,
00010000
00000010
00000100
00001000
00010000
00100000
01000000
00001000
,
00020200
00000000
00000000
00030300
,
00001000
00000000
00000000
00001000
00000100
00000000
00000010
00000000
00000001
00000000
00000100
00000000
00000010
00000000
00001000
00000000
,
00000100
00000000
00000011
00000000
00001010
00000000
00001000
00010000
,
00001000
00000000
00000000
00001000
00010000
00000000
01000000
00000000
00010000
00000000
00001000
00000000
00000100
00000000
00001000
00000000
,
00010000
00000000
00011000
00000000
01100000
00000000
10000000
01000000
,
00100000
00000000
00000000
00100000
00010000
00000000
01000000
00000000
00100000
00000000
10000000
00000000
01000000
00000000
01000000
00000000
,
00100000
00100000
00001000
00001000
00011000
00000000
00001100
00000000
,
00000100
00000000
00000000
00000100
00000001
00000000
00001000
00000000
00000100
00000000
00000010
00000000
00000001
00000000
00001000
00000000
,
00000220
00000000
00000000
00000330
,
00001000
00000010
00001000
00000001
00001000
00000100
00000010
00001000
,
00000010
00000100
00001000
00000010
00000100
00001000
00010000
00000010
,
00000100
00001000
00010000
00001000
01000000
00100000
00010000
00001000
,
01000000
00001000
00010000
01000000
10000000
00100000
10000000
01000000
,
00100000
00000000
00000000
00100000
00010000
00000000
10000000
00000000
00100000
00000000
00010000
00000000
00100000
00000000
10000000
00000000
,
01000000
00000000
00000000
01000000
00100000
00000000
00001000
00000000
00010000
00000000
00000100
00000000
00001000
00000000
00000100
00000000
,
00000010
00000001
00000010
00001000
00000010
00000100
00001000
00000001
,
00000100
00001000
00000100
00000010
00001000
00000100
00000010
00001000
,
00010000
00100000
00010000
00001000
00010000
00000100
00010000
00001000
,
00100000
01000000
00010000
01000000
10000000
00100000
00010000
00100000
,
01000000
00010000
10000000
01000000
00100000
00010000
00100000
00001000
,
00010000
00000100
00010000
00001000
00010000
00000010
00001000
00000001
,
00000100
00001000
00010000
00000010
00000100
00001000
00010000
00000010
,
00000100
00001000
00010000
00100000
01000000
00001000
00010000
00100000
,
01000000
00010000
01000000
10000000
01000000
00010000
00100000
00010000
,
10000000
00000000
00000000
10000000
01000000
00000000
00100000
00000000
00010000
00000000
00000000
00000000
01000000
00000000
00001000
00000000
,
00010000
00000000
00000000
00010000
00001000
00000000
00000100
00000000
00000001
00000000
00000000
00000000
00000110
00000000
00000000
00000000
,
00000100
00000000
00000000
00000100
00001000
00000000
00000001
00000000
00000100
00000000
00000000
00000000
00001000
00000000
00010000
00000000
,
00001000
00000000
00000000
00001000
00010000
00000000
01000000
00000000
10000000
00000000
00000000
00000000
10100000
00000000
00000000
00000000
,
10010000
M00M0000
00000000
00000000
;

//---------------dance-double - M. Emirzian----------------
#NOTES:
     dance-double:
     M. Emirzian:
     Challenge:
     10:
     0.582,0.000,0.436,0.400,0.100:
00000000
00000000
00000000
00000000
,
00000000
00000000
00000000
00000000
,
00022000
00000000
00000000
00100010
00033000
00000000
00000000
00000001
,
00000100
00000000
00000000
00001010
00000000
00000000
00000100
00000000
00000001
00000000
00000010
00000000
00000100
00000000
00001000
00000000
,
00000010
00000000
00000000
00010010
00000000
00000000
00001000
00000000
00010000
00000000
00000000
01001000
00000000
00000000
00010000
00000000
,
00100000
00000000
00000000
01100000
00000000
00000000
10000000
00000000
00100000
00000000
00010000
00000000
10000000
00010000
10000000
00000000
,
02020000
00000000
00000000
10001000
03030000
00000000
01000000
00000000
,
00001000
00000000
00000000
00000000
00010000
00000000
00000000
00000000
00001000
00010000
00001000
00010000
00000100
00001000
00000100
00001000
,
00000100
00000000
00000011
00000000
00001100
00000000
00000010
00001000
,
00000100
00000000
00000000
00000100
00000001
00000000
00000100
00000000
00000010
00000000
00001000
00000000
00000010
00000000
00000100
00000000
,
00001000
00000000
00000000
00001000
00000001
00000000
00000100
00000000
00000010
00000000
00001000
00000000
00000002
00000000
00000000
00000000
,
00000200
00000020
00001333
00000000
,
00001010
00000000
00100010
00000000
00110000
00000000
00001000
00010000
,
01000000
00000000
00000000
01000000
10000000
00000000
01000000
00000000
00100000
00000000
10000000
00000000
00100000
00000000
01000000
00000000
,
10000000
00000000
00000000
10000000
00010000
00000000
01000000
00000000
00100000
00000000
10000000
00000000
02000000
00000000
00000000
00000000
,
00020000
00200000
03331000
00000000
,
01010000
00000000
01000100
00000000
00001100
00000000
00010000
00000100
,
00001000
00000000
00000000
00001000
00000010
00000000
00000100
00000000
00001000
00000000
00010000
00000000
00001000
00000000
00000010
00000000
,
00000001
00000000
00000000
00000001
00000100
00000000
00000010
00000000
00001000
00000000
00000100
00000000
00000020
00000000
00000000
00000000
,
00002000
00020000
00033130
00000000
,
00000101
00000000
00010001
00000000
00011000
00000000
00001000
01000000
,
00010000
00000000
00000000
00010000
01000000
00000000
00100000
00000000
00010000
00000000
00001000
00000000
01000000
00000000
00001000
00000000
,
00010000
01000000
10000000
00010000
01000000
00100000
00010000
00100000
,
01000000
00010000
10000000
01000000
00100000
00001000
00010000
00000000
,
10002000
00000000
00000000
02010000
00000000
00100000
00000000
00000000
,
13013000
00000000
00000000
01000000
,
02200000
00000000
00000000
00022000
03300000
00000000
00000000
00000000
,
00033110
00000000
00000000
00010100
,
00001200
00000000
00000000
00021000
00000000
00000010
00000000
00000000
,
00031301
00000000
00000000
00000010
,
00200020
00000000
00000000
00000000
00000000
00000000
00022000
00000000
00000000
00300030
00000000
00000000
00000000
00000000
00000000
00000000
,
01033100
00000000
00000000
00000000
,
00110000
00000000
00000000
00010000
10000000
00000000
01000000
00000000
00010000
00000000
00001000
00000000
00010000
00000000
00000100
00000000
,
02000000
00000200
10000000
03000301
,
00000000
00000000
00001000
00010000
00001000
01000000
00000100
00010000
,
00002000
00020000
01000000
00033010
,
00000000
00000000
00010000
00000100
00010000
00001000
00000100
00001000
,
00020000
00200000
20000000
31330000
,
00000000
00000000
10000000
01100000
00000000
00011000
00000000
01000100
,
00022000
00000000
00000000
00033000
,
00010000
00001000
02000000
00020000
00000000
00000000
00000000
00200000
,
20000000
03030000
00000000
00000000
01000000
00000000
00000000
00000000
00001000
00000000
00000000
00000000
30310000
00000000
00000000
00000000
,
00000000
00000000
00000000
00000000
00010000
00044000
00000000
00000000
,
00133000
00000000
00000000
00000000
,
00000100
00010000
00002000
00020000
00000000
00000000
00000000
00000020
,
00233000
01000000
00000100
00311030
,
00000000
00000000
00000000
00000000
00000000
01000100
00000000
00011000
,
02000200
00000000
00000000
03000300
,
01010000
00000000
01000100
00000000
00001100
00000000
00000100
00001000
,
00000001
00000000
00000000
00000001
00000100
00000000
00001000
00000000
00000100
00000000
00000010
00000000
00001000
00000000
00000100
00000000
,
00000010
00001000
00000010
00000100
00010000
00100000
00010000
00001000
,
01000000
10000000
01000000
00001000
00010000
00100000
01000000
00001000
,
00010000
01000000
00100000
10000000
00100000
01000000
10000000
00010000
,
01000000
10000000
01000000
00100000
00010000
00001000
00000100
00000010
,
00000001
00000010
00001000
00000010
00000100
00000001
00000010
00000100
,
00000001
00000100
00000010
00000001
00000100
00001000
00000010
00001000
,
00000100
00001000
01000000
00100000
00010000
00001000
00010000
00000100
,
00010000
00100000
00010000
00001000
00100000
01000000
00010000
00001000
,
00100000
00010000
10000000
01000000
00100000
10000000
00100000
01000000
,
00010000
00001000
00010000
00000010
00001000
00000001
00000010
00000100
,
00001000
00000001
00000010
00001000
00000010
00000100
00000001
00000100
,
00000010
00001000
00010000
01000000
00100000
10000000
00100000
00010000
,
10000000
01000000
00100000
00001000
00000100
00001000
00010000
00000100
,
00000010
00000000
00000000
00000010
00000100
00000000
00001000
00000000
00000001
00000000
00000000
00000000
00000100
00000000
00000010
00000000
,
00001000
00000000
00000000
00001000
00000100
00000000
00001000
00000000
00000010
00000000
00000000
00000000
00011000
00000000
00000000
00000000
,
00010000
00000000
00000000
00100000
01000000
00000000
00010000
00000000
01000000
00000000
00000000
00000000
10000000
00000000
01000000
00000000
,
00100000
00000000
00000000
00100000
10000000
00000000
01000000
00000000
00100000
00000000
00000000
00000000
00110000
00000000
00000000
00000000
,
00100010
00000000
00000000
00000000
;

//---------------dance-single - K. Ward----------------
#NOTES:
     dance-single:
     K. Ward:
     Challenge:
     9:
     0.645,0.000,0.191,0.245,0.414:
0000
0000
0000
0000
,
0000
0000
0000
0000
,
1000
0000
1000
0200
0000
0000
0310
0000
,
0100
1000
0010
0001
0010
0100
0100
0000
,
0110
0000
0001
0020
0000
0000
1030
0000
,
0010
0000
0001
0000
0100
0000
1000
0000
1000
0000
0100
0000
0010
1000
0010
0000
,
0100
0000
0001
2000
0000
0000
3100
0000
,
0001
0000
0100
0000
1000
0000
0000
0000
M010
0100
0010
0100
0001
0100
0001
0100
,
0002
2000
0010
3003
,
1000
0000
0000
1000
0100
0000
0010
0000
0001
0000
0100
0000
1000
0000
0000
0000
,
0100
0010
0100
0010
0100
0000
0010
0000
0100
0000
0000
0000
0001
0000
0000
0000
,
1000
0100
0001
0100
1000
0100
0001
0100
,
2000
0002
0010
3003
,
1000
0001
1000
0001
1000
0000
0010
0000
0100
0000
0000
0000
0011
0000
0000
0000
,
1000
0000
0000
0001
0010
0000
0100
0000
0010
0000
0000
0000
1100
0000
0000
0000
,
0001
0000
0100
0000
1000
0000
0100
0001
0000
0001
0010
0000
0100
0010
0000
0000
,
0002
0200
0010
0303
,
0001
0100
0001
0100
0001
0000
0100
0000
0010
0000
0000
0000
0011
0000
0000
0000
,
1000
0100
0010
0100
1000
0000
0000
0000
0010
0100
0001
0010
0001
0000
0000
0000
,
1000
0000
0100
0000
0001
0000
0100
1000
0000
1000
0100
0000
0010
0100
0000
0000
,
2000
0200
0010
3300
,
0001
0000
0000
1000
0100
0000
0010
0000
0100
0000
1000
0000
1000
0000
0000
0000
,
0010
0000
0000
0001
0010
0000
0100
0000
0100
0000
0000
0000
0011
0000
0000
0000
,
1000
0001
1000
0001
0100
0001
0100
0001
0010
0001
0010
0001
0100
0001
0100
0001
,
1000
0000
0001
1000
0001
0000
1000
0000
0100
0000
0010
0000
0100
0000
1000
0000
,
0200
0000
0000
0000
0310
0000
0000
0000
0100
0000
0100
0000
0010
0100
0010
0000
,
0100
0000
1000
0001
1000
0000
0010
0000
0001
0000
0010
0000
0100
0000
0010
0000
,
0200
0000
0000
0000
1300
0000
0000
0000
0100
0000
0010
0000
0100
0010
0100
0000
,
0001
0000
0010
0001
0010
0000
0001
0000
0100
0000
1000
0000
0100
0000
0010
0000
,
2000
0000
0000
0000
3100
0000
0000
0000
1000
0000
0010
0000
1000
0100
1000
0000
,
0100
0000
0010
0001
0010
0000
0100
0000
0010
0000
0001
0000
0100
0000
1000
0000
,
0200
0000
0000
0000
0000
0000
0000
0000
0000
0000
0000
0000
0010
0000
0000
0000
0000
0000
0000
0000
0000
00M0
0000
0000
1000
0000
0000
0000
0000
0000
0000
0000
0000
M000
0000
0000
0310
0000
0000
0000
0000
0000
0000
0000
MM00
00M0
0000
0000
,
0001
0000
1000
0001
1000
0000
0100
0000
0010
0000
0100
0000
0010
0000
0000
0000
,
1001
0000
0000
M00M
0110
0000
0000
0MM0
1001
0000
0000
M00M
0110
0000
0000
0MM0
,
0001
0000
1000
0001
1000
0000
0100
0000
0010
0000
0100
0000
0010
0000
0000
0000
,
0100
0000
1000
0000
1100
0000
0000
MM00
0001
0000
0100
0000
0110
0000
0000
0MM0
,
0001
0000
1000
0001
1000
0000
0001
0000
0010
0000
0100
0000
0010
0000
0000
0000
,
1001
0000
0000
M00M
0110
0000
0000
0MM0
1001
0000
0000
M00M
0110
0000
0000
0MM0
,
0001
0000
1000
0100
1000
0000
0100
0000
0001
0000
0100
0000
0010
0000
0000
0000
,
2002
0000
0010
3003
,
M0MM
0100
100M
0010
0M00
0001
01M0
1000
,
000M
0010
M001
0100
00M0
1000
0M10
0001
,
M000
0100
100M
0010
0M00
0001
01M0
1000
,
002M
M030
0110
1001
,
0000
0010
100M
0100
M0M0
0001
0M10
1000
,
00M0
0100
M001
0010
0M00
1000
01M0
0001
,
M00M
0010
1000
0100
M0M0
0001
0100
0000
,
M22M
0000
0000
0000
0001
0000
0330
0MM0
,
1000
0000
0010
0000
0100
0000
0001
0010
0000
0010
0100
0000
0010
0000
0001
0000
,
0100
0000
1000
0000
0100
0000
0010
1000
0000
1000
0100
0000
1000
0000
0000
0000
,
0100
0000
1000
0000
0100
0000
0010
0100
0000
0100
0010
0000
0001
0000
1000
0000
,
0010
0000
0100
0000
0001
0000
1000
0100
0000
0100
0010
0000
0100
0010
0000
0000
,
0001
0000
0100
0000
0001
0000
0100
0010
0000
0010
0100
0000
0001
0000
1000
0000
,
0100
0000
0010
0000
0010
0000
0100
1000
0000
0100
1000
0000
0100
0000
0010
0000
,
0001
0000
0100
0000
1000
0000
0100
0010
0000
0100
0010
0000
1000
0000
0100
0000
,
0200
0010
0000
1000
0000
0010
0310
0000
,
0002
2000
0010
3003
,
1000
0100
1000
0100
1000
0000
0100
0000
0010
0000
0000
0000
M11M
0000
0000
0000
,
0001
0000
0000
0001
0100
0000
1000
0000
0100
0000
0000
0000
0001
0000
0000
0000
,
0010
0001
0100
1000
,
0020
0200
0001
0330
,
1000
0000
0000
1000
0100
0000
0001
0000
0100
0000
1000
0000
1000
0000
0000
0000
,
0010
0100
0010
0100
0010
1000
0010
1000
0010
0100
0010
0100
0010
1000
0010
1000
,
0010
0000
0000
0100
0010
0000
0100
0000
1000
0000
0000
0000
0100
0000
0001
0000
,
0010
0100
0010
0100
0010
0000
0100
0000
0010
0000
0000
0000
0001
0000
0100
0000
,
1000
0000
0000
0100
0010
0000
0100
0000
0010
0000
0000
0000
1000
0000
0100
0000
,
0010
0100
0010
0100
0010
0000
0100
0000
0010
0000
0000
0000
0100
0000
0010
0000
,
2002
0000
0000
0000
,
3003
0000
0000
0000
;
