#TITLE:Dawn;
#SUBTITLE:(Perpetual Mix);
#ARTIST:KaW vs. i09;
#TITLETRANSLIT:;
#SUBTITLETRANSLIT:;
#ARTISTTRANSLIT:;
#GENRE:Dance;
#CREDIT:;
#BANNER:Dawn (Perpetual Mix)-bn.png;
#BACKGROUND:Dawn (Perpetual Mix)-bg.png;
#LYRICSPATH:;
#CDTITLE:;
#MUSIC:Dawn (Perpetual Mix).ogg;
#OFFSET:-0.006;
#SAMPLESTART:35.080;
#SAMPLELENGTH:13.810;
#SELECTABLE:YES;
#BPMS:0.000=171.005;
#STOPS:;
#BGCHANGES:0.503=Dawn (Perpetual Mix).mpg=1.000=1=0=0=StretchNoLoop==CrossFade==,
99999=-nosongbg-=1.000=0=0=0 // don't automatically add -songbackground-;
#KEYSOUNDS:;

//---------------dance-single - K. Ward----------------
#NOTES:
     dance-single:
     K. Ward:
     Hard:
     9:
     0.576,0.565,0.161,0.116,0.112,420.000,18.000,13.000,6.000,0.000,0.000,0.576,0.565,0.161,0.116,0.112,420.000,18.000,13.000,6.000,0.000,0.000:
0000
0000
0000
0000
,
0000
0000
0000
0000
,
0000
0000
0000
0000
,
0000
0000
0000
0000
,
0000
1000
0000
0001
0000
1000
0000
0001
,
0000
1000
0000
1000
0000
0010
0000
0010
,
0000
0100
0000
0001
0000
1000
0000
0200
,
0000
0010
0000
1000
0000
0310
0000
0000
,
2002
0000
0000
3003
,
1000
0100
0010
0100
1000
0100
0100
0000
,
0001
0100
0010
0100
0001
0010
0010
0000
,
1000
0100
0010
0100
1000
0001
0001
0000
,
0010
0101
0010
1100
,
0001
0001
1000
0100
0010
0100
0100
0000
,
1000
1000
0010
0100
0010
0001
0001
0000
,
0010
0100
0010
0001
0010
0100
0100
0000
,
0010
2002
0000
3003
,
0000
0000
1000
0000
0000
0010
0000
0000
0100
0000
0000
0001
0000
0000
1000
0000
,
0000
0000
0001
0000
0000
1000
0000
0000
0100
0000
0000
0010
0000
0000
0001
0000
,
0000
0000
0100
0000
0000
0010
0000
0000
1000
0000
0000
0001
0000
0000
0010
0000
,
0100
0000
0100
0000
0010
0001
1000
0000
,
0000
0000
0001
0000
0000
0100
0000
0000
0010
0000
0000
0001
0000
0000
0010
0000
,
0000
0000
0100
0000
0000
0010
0000
0000
1000
0000
0000
0100
0000
0000
0010
0000
,
0000
0000
0100
0000
0000
0010
0000
0000
0001
0000
0000
0100
0000
0000
0010
0000
,
0100
0000
0001
0000
1000
0100
1000
0000
,
0001
0100
0010
0100
0001
0010
0001
0000
,
1000
0100
0010
0100
1000
0100
0010
0000
,
0001
0100
0010
1000
0100
0010
0001
0000
,
1000
0000
0000
1000
0100
0000
0000
0100
0010
0000
0000
0010
0001
0000
0000
0000
,
0010
0100
1000
0010
0000
0001
0010
0000
,
0100
0010
1000
0100
0000
0010
0001
0000
,
0010
0100
1000
1000
0000
0010
0100
0000
,
0010
0101
0010
1100
,
1000
0010
0100
0001
0010
0100
1000
0001
,
1000
0100
0010
0001
0100
0010
1000
0001
,
1000
0001
0010
0100
1000
0100
0010
0000
,
0001
0000
0000
0001
0010
0000
0000
0010
0100
0000
0000
0100
1000
0000
0000
0000
,
0001
0001
0010
0100
0000
1000
1000
0000
,
0100
0010
0001
0100
0000
0010
0010
0000
,
0001
0010
0100
1000
0000
0100
0100
0000
,
0010
0001
0010
0100
,
2002
0000
0000
0000
,
3003
M00M
0MM0
M00M
,
0000
1000
0200
0000
0000
0310
0200
0000
,
0000
1300
0002
0000
0000
0103
0010
0000
,
0100
0100
0010
0010
,
1000
0000
1000
0000
0001
0010
0100
0000
,
1000
0000
0100
0000
0100
0010
0001
0000
,
0100
0000
0000
0010
0000
1001
0000
0000
,
0100
0100
0100
0000
0010
0001
0010
0000
,
1000
1000
1000
0000
0001
0010
0100
0000
,
0010
0010
0010
0000
0001
0100
1000
0000
,
0100
0010
0100
0010
,
0001
0001
0001
0000
0100
0000
1001
0000
,
0100
0100
0100
0000
0010
0000
1100
0000
,
0010
0001
0100
0000
1000
1000
1000
0000
,
0100
0000
0010
0000
0001
0010
0100
0000
,
1000
0100
0010
0001
0010
0000
0101
0000
,
0001
0100
0010
1000
0100
0000
1100
0000
,
0001
0010
0100
1000
0010
0100
0001
0010
,
0200
0000
1000
0310
,
1001
0000
0000
0000
1100
0000
0000
0000
0000
0000
0000
1000
0100
0000
0010
0000
,
0001
0100
0010
0100
1000
0100
0010
0000
,
0001
1000
0001
0010
0100
1000
0100
0000
,
1000
0100
0010
0001
0100
0010
1000
0000
,
0001
0000
0000
0001
0010
0000
0000
0010
0100
0000
0000
0100
1000
0000
0000
0000
,
0010
0100
0001
0010
0100
0010
0001
0000
,
1000
0001
0010
0100
1000
0100
0010
0000
,
0100
1000
0010
0100
0001
0010
0100
0000
,
1000
0000
0000
1000
0100
0000
0000
0100
0010
0000
0000
0010
0001
0000
0000
0000
,
1000
0100
0010
0001
0100
0010
1000
0001
,
1000
0001
0010
0100
1000
0001
0100
0010
,
1000
0100
0010
0001
0100
0010
1000
0001
,
0010
0001
0100
0001
1000
0100
0010
0001
,
0001
0010
0100
1000
0010
0100
0001
0010
,
0001
0010
0100
1000
0010
0100
0001
1000
,
0001
1000
0100
0010
0001
0010
0100
0010
,
0001
0110
1001
0110
,
2002
0000
0000
0000
,
3003
0000
0000
0000
;

//---------------dance-single - K. Ward----------------
#NOTES:
     dance-single:
     K. Ward:
     Easy:
     4:
     0.278,0.279,0.134,0.080,0.000,194.000,15.000,9.000,0.000,0.000,0.000,0.278,0.279,0.134,0.080,0.000,194.000,15.000,9.000,0.000,0.000,0.000:
0000
0000
0000
0000
,
0000
0000
0000
0000
,
0000
0000
0000
0000
,
0000
0000
0000
0000
,
0002
0000
0003
0000
,
2000
0000
3000
0000
,
0200
0000
0300
0000
,
0020
0000
0030
0000
,
1001
0000
0000
0000
,
0100
0100
0000
0000
,
0010
0010
0000
0000
,
0100
0100
0000
0000
,
0001
1000
0100
0010
,
0001
0001
0000
0000
,
1000
1000
0000
0000
,
0100
0100
0000
0000
,
0001
0001
0000
0000
,
1001
0000
0000
0000
,
1001
0000
0000
0000
,
1001
0000
0000
0000
,
0100
0010
0100
0010
,
1001
0000
0000
0000
,
1001
0000
0000
0000
,
1001
0000
0000
0000
,
0220
0000
0330
0000
,
0001
0100
0001
0100
,
0010
0100
0010
0100
,
0001
1000
0001
1000
,
0100
0100
0100
0000
,
1000
0100
1000
0100
,
0010
0100
0010
0100
,
1000
0001
1000
0001
,
0100
0000
0010
0000
,
1000
0001
0000
0001
,
0100
0001
0000
0001
,
1000
0001
0000
0001
,
0100
0100
0100
0000
,
1000
0100
0000
0100
,
1000
0100
0000
0010
,
1000
0100
0000
0100
,
1000
0010
0001
0010
,
1001
0000
0000
0000
,
0000
0000
0000
0000
,
0020
0000
0000
0000
,
0030
0000
0000
0000
,
1000
0001
1000
0001
,
1000
0001
1000
0001
,
0100
0100
0010
0010
,
0220
0000
0330
0000
,
0001
0010
0001
0000
0000
0000
0000
0000
,
1000
0100
1000
0000
0000
0000
0000
0000
,
0010
0100
0010
0000
0000
0000
0000
0000
,
0001
0000
1000
0000
,
0100
1000
0100
0000
0000
0000
0000
0000
,
0010
0001
0010
0000
0000
0000
0000
0000
,
0100
0010
0100
0000
0000
0000
0000
0000
,
0010
1000
0100
0010
,
0001
0010
0000
1001
,
0010
0010
0000
1001
,
0100
0100
0000
1001
,
0010
0000
0000
0000
,
0110
1001
0000
0000
,
0001
1000
0001
1000
,
0100
1000
0100
1000
,
0001
0010
0001
0100
,
0010
0010
0010
0000
,
0010
1000
0100
1000
,
0010
1000
0100
1000
,
0010
1000
0100
0010
,
0001
0000
1000
0000
,
0100
1000
0000
0001
,
1000
0100
0000
0001
,
0100
0010
0000
1000
,
0100
0100
0100
0000
,
0001
1000
0000
0001
,
0100
0010
0000
0100
,
0001
0010
0000
1000
,
0100
0010
0001
0010
,
0100
0000
0000
0000
;

//---------------dance-single - J. Frederick----------------
#NOTES:
     dance-single:
     J. Frederick:
     Medium:
     6:
     0.445,0.422,0.125,0.188,0.000,313.000,14.000,21.000,0.000,0.000,0.000,0.445,0.422,0.125,0.188,0.000,313.000,14.000,21.000,0.000,0.000,0.000:
0000
0000
0000
0000
,
0000
0000
0000
0000
,
0000
0000
0000
0000
,
0000
0000
0000
0000
,
0000
1001
0000
0110
,
0000
1100
0000
0011
,
0000
0101
0000
1001
,
2002
3003
0220
0330
,
2002
0000
0000
0000
0000
0000
0000
3003
,
0010
0100
1000
0100
,
0010
0001
0100
0001
,
1000
0010
0100
0010
,
2000
3001
0020
0130
,
1000
0100
0010
0001
,
0100
0001
1000
0010
,
0100
0001
0010
0100
,
2000
3100
0020
0031
,
0100
0000
0001
0000
1000
0001
1000
0000
,
0001
0000
0100
0000
0010
1000
0010
0000
,
0100
0000
0001
0000
0010
0001
0010
0000
,
0100
1000
0100
0010
,
0001
0000
0100
0000
0001
1000
0001
0000
,
0100
0000
0010
0000
1000
0010
1000
0000
,
0001
0000
0010
0000
0100
0010
0100
0000
,
1000
0100
0010
0001
,
1000
0000
0001
0100
0000
0001
0010
0001
,
0100
0000
0001
1000
0000
0010
0100
0010
,
1000
0000
0010
0100
0000
0001
0010
0000
,
0001
1000
0001
1000
,
0001
0000
0010
0100
0000
1000
0100
0000
,
0010
0000
0001
0100
0000
0001
1000
0000
,
0001
0000
0100
0010
0000
1000
0010
0000
,
0100
0001
0010
0100
,
1000
0000
0100
0010
0000
0001
0100
0000
,
0001
0000
1000
0001
0000
0100
0010
0000
,
1000
0000
0010
0100
0000
0001
0010
0000
,
0100
1000
0100
0010
,
0001
0000
0100
0001
0000
1000
0100
0000
,
0010
0000
0001
0100
0000
0001
1000
0000
,
0010
0000
0100
0010
0000
1000
0001
0000
,
0010
0100
1000
0100
,
0020
0000
0000
0000
0000
0000
0000
0030
,
0002
0000
0000
0000
0000
0000
0000
0003
,
2000
0000
0000
0000
0000
0000
0000
3000
,
0020
0030
0200
0300
,
0001
0001
0001
0001
,
1000
1000
1000
1000
,
0010
0010
0010
0010
,
0200
0300
0020
0030
,
1000
0000
0001
0000
1000
0001
1000
0000
,
0001
0000
1000
0000
0001
1000
0001
0000
,
0010
0000
0100
0000
0010
0100
0010
0000
,
0100
0000
0010
0000
0100
0010
0100
0000
,
1000
0000
0100
0000
1000
0100
1000
0000
,
0100
0000
1000
0000
0100
1000
0100
0000
,
0010
0000
0001
0000
0010
0001
0010
0000
,
0001
0000
0010
0000
0001
0010
0001
0000
,
0100
0001
1000
0001
,
0010
0100
1000
0100
,
0010
0001
0100
0001
,
1000
0010
0100
0010
,
1001
2002
0000
3003
,
1000
0000
0001
0010
0000
0100
1000
0000
,
0100
0000
0010
0001
0000
0100
0001
0000
,
1000
0000
0010
0100
0000
0010
1000
0000
,
0001
0000
0010
0000
0100
1000
0100
0000
,
0010
0000
0001
0100
0000
0001
1000
0000
,
0001
0000
0010
0100
0000
1000
0000
0000
,
0010
0000
0001
0100
0000
0001
1000
0000
,
0010
0100
0010
1000
,
0001
0000
0010
0000
0100
1000
0100
0000
,
0010
0000
0001
0000
0100
0001
0100
0000
,
0010
0000
1000
0000
0010
1000
0010
0000
,
0100
0000
0001
0000
0010
0001
0010
0000
,
0100
0000
1000
0000
0100
0010
0001
0000
,
0100
0000
0001
0000
1000
0010
0100
0000
,
0010
0000
1000
0000
0001
0010
0100
0000
,
0110
0000
1001
0000
0010
0100
0010
0000
,
2002
0000
0000
3003
;

//---------------dance-single - K. Ward----------------
#NOTES:
     dance-single:
     K. Ward:
     Challenge:
     10:
     0.724,0.636,0.286,0.411,0.237,489.000,32.000,46.000,19.000,40.000,0.000,0.724,0.636,0.286,0.411,0.237,489.000,32.000,46.000,19.000,40.000,0.000: // measure 1
0000
0000
0000
0000
,  // measure 2
0000
0000
0000
0000
,  // measure 3
0000
0000
0000
0000
,  // measure 4
0000
0000
0000
0000
,  // measure 5
1000
0000
0100
0000
0010
0000
0000
0100
0010
0000
0001
0000
0100
0000
0000
0010
,  // measure 6
1000
0000
0100
0000
0010
0000
0000
0001
1000
0000
0001
0000
0010
0000
0000
0100
,  // measure 7
0010
0000
0100
0000
1000
0000
0000
1000
0001
0000
0100
0000
0010
0000
0000
0010
,  // measure 8
0100
0000
0001
0000
0010
0000
0000
0001
1000
0000
0100
0000
0010
0000
0000
0000
,  // measure 9
2002
0000
0000
3003
,  // measure 10
1000
0000
0100
0000
1000
0100
0000
0000
M000
0000
0010
0000
0100
0010
0000
0000
,  // measure 11
0M00
0000
0001
0000
1000
0001
0000
0000
M000
0000
0100
0000
0010
0100
0000
0000
,  // measure 12
00M0
0000
0001
0000
1000
0001
0000
0000
M000
0000
0010
0000
0100
0010
0000
0000
,  // measure 13
0001
0100
1000
0100
0001
0010
0100
1000
,  // measure 14
1000
0000
0001
0000
0100
0001
0100
0000
0000
000M
0010
0000
1000
0010
1000
0000
,  // measure 15
0000
00M0
0100
0000
0010
0100
0010
0000
0000
0M00
0001
0000
1000
0001
1000
0000
,  // measure 16
0000
000M
0100
0000
0010
0100
0010
0000
0000
0M00
0010
0000
0001
0000
0010
0000
,  // measure 17
0100
0110
0201
1000
,  // measure 18
0301
0000
0010
0000
0100
0010
0000
0010
0001
0000
1000
0000
0001
0000
0001
0000
,  // measure 19
0010
0000
0100
0000
1000
0100
0000
0100
0010
0000
0100
0000
1000
0000
1000
0000
,  // measure 20
0010
0000
0100
0000
0001
0010
0000
0010
0100
0000
0010
0000
0001
0000
0001
0000
,  // measure 21
0010
1100
0010
0101
,  // measure 22
1000
0000
0100
0000
0010
0100
0000
0010
0100
0000
0000
0000
1001
0000
0000
0000
,  // measure 23
1000
0000
0010
0000
0100
0010
0000
0100
0010
0000
0000
0000
0011
0000
0000
0000
,  // measure 24
1000
0000
0100
0000
0010
0100
0000
0010
0100
0000
0000
0000
0010
0000
0001
0000
,  // measure 25
0001
0100
1000
0000
1000
0100
0001
0001
,  // measure 26
1000
0100
1000
0100
0001
0100
0001
0100
,  // measure 27
1000
0001
1000
0001
0100
1000
0100
1000
,  // measure 28
0100
0010
0100
0010
1000
0010
1000
0000
,  // measure 29
2200
0000
0010
3300
0202
0000
0010
0303
,  // measure 30
0001
0100
0001
0100
1000
0100
1000
0100
,  // measure 31
0001
1000
0001
1000
0100
0010
0100
0010
,  // measure 32
0100
1000
0100
1000
0010
0100
0010
0000
,  // measure 33
0202
0000
1000
0303
2002
0000
0010
3003
,  // measure 34
0001
0010
0100
1000
0001
0010
0100
1000
,  // measure 35
1000
0100
0010
0001
1000
0100
0010
0001
,  // measure 36
0001
0100
0010
0100
1000
0100
0010
0000
,  // measure 37
2200
0000
0001
0000
0010
0000
0001
3300
,  // measure 38
1000
0100
0010
0001
1000
0001
0010
0100
,  // measure 39
1000
0100
0010
0001
1000
0001
0100
0010
,  // measure 40
0100
1000
0100
0010
1000
0100
0010
0000
,  // measure 41
0202
0000
1000
0000
0010
0000
1000
0303
,  // measure 42
2002
0000
0010
0000
,  // measure 43
0010
0000
0000
0000
0010
3003
0000
M00M
,  // measure 44
0010
0000
0100
0000
0010
0100
0000
0000
0001
0000
1000
0000
0001
1000
0000
0000
,  // measure 45
0100
0010
0001
0001
0010
0100
1000
0100
,  // measure 46
1000
1000
0010
0010
0100
0100
0001
0001
,  // measure 47
1000
1000
0001
0001
0010
0010
0100
0100
,  // measure 48
1000
1000
0100
0100
0010
0010
0100
0010
,  // measure 49
1001
0000
0000
0110
0000
0012
0000
0000
,  // measure 50
1003
0000
0100
0000
0010
0000
0100
1000
0000
1000
0100
0000
0010
0000
0010
0000
,  // measure 51
0100
0000
1000
0000
0010
0000
0100
0001
0000
0001
0010
0000
0001
0000
0001
0000
,  // measure 52
0100
0000
0010
0000
1000
0000
0100
0010
0000
0010
0100
0000
1000
0000
1000
0000
,  // measure 53
0001
0100
1000
0000
1000
0100
0001
0000
,  // measure 54
2200
0000
0001
0000
0010
0000
0001
3300
,  // measure 55
0202
0000
1000
0000
0010
0000
1000
0303
,  // measure 56
2200
0000
0010
0000
0001
0000
0010
3300
,  // measure 57
1000
0000
0001
0000
1000
0000
100M
0001
0000
1000
0001
0000
1000
0000
0000
0000
,  // measure 58
0202
1000
0010
1303
,  // measure 59
2200
0001
0010
3301
,  // measure 60
0220
1000
1000
0330
,  // measure 61
2002
0000
0000
0000
0000
0000
0000
0000
3003
0000
0000
0000
M01M
0100
0010
0100
,  // measure 62
0010
0000
0000
0000
0000
0000
0000
0000
00M0
0000
0000
0000
1100
0000
0000
0000
0000
0000
0000
0000
0000
0000
0000
0000
MMM0
0000
0000
0000
0000
0000
0000
0000
0000
1000
0000
0000
0100
0000
0000
0000
0000
0000
0010
0000
0000
0000
0000
0000
,  // measure 63
0001
0010
0100
0010
0001
0010
0100
0010
,  // measure 64
0100
1000
0100
0010
0100
1000
0010
0001
,  // measure 65
0010
1000
0010
1000
0100
0010
0001
0000
,  // measure 66
0202
0000
0010
0303
2020
0000
0001
3030
,  // measure 67
1000
0100
0010
0100
1000
0010
0001
0010
,  // measure 68
1000
0001
1000
0001
0010
0100
0010
0100
,  // measure 69
1000
0010
0001
0010
1000
0100
0010
0000
,  // measure 70
2200
0000
0010
3300
0202
0000
0010
0303
,  // measure 71
1000
0000
0100
0000
0010
0000
0001
0000
1000
0000
0100
0000
0010
0000
0001
1000
,  // measure 72
0001
0000
0010
0000
0100
0000
1000
0000
0001
0000
0010
0000
0100
0000
1000
0001
,  // measure 73
1000
0010
0100
0010
0001
0010
0100
0000
,  // measure 74
0202
1000
0010
1303
,  // measure 75
0001
0000
0010
0000
0100
0000
1000
0000
0001
0000
0010
0000
0100
0000
1000
0001
,  // measure 76
1000
0000
0010
0000
0100
0000
1000
0000
0100
0000
0010
0000
1000
0000
0010
0100
,  // measure 77
0010
0100
0001
0010
0100
1000
0100
0000
,  // measure 78
2200
0000
0001
0000
0010
0000
0001
3300
,  // measure 79
2002
0000
0000
0000
,  // measure 80
3003
0000
0000
0000
;

//---------------dance-double - M.Emirzian----------------
#NOTES:
     dance-double:
     M.Emirzian:
     Easy:
     4:
     0.298,0.314,0.107,0.134,0.000,206.000,12.000,15.000,0.000,0.000,0.000,0.298,0.314,0.107,0.134,0.000,206.000,12.000,15.000,0.000,0.000,0.000:
00000000
00000000
00000000
00000000
,
00000000
00000000
00000000
00000000
,
00000000
00000000
00000000
00000000
,
00000000
00000000
00000000
00000000
,
00100000
00000000
00100000
00000000
,
01000000
00000000
01000000
00000000
,
00010000
00000000
00010000
00000000
,
10000000
00000000
01000000
00100000
,
20020000
00000000
00000000
30030000
,
00100000
00010000
00000000
01000000
,
01000000
00001000
00000000
00010000
,
00010000
00000100
00000000
00001000
,
00000100
00000010
00000001
00001000
,
00000100
00000010
00000000
00000001
,
00000100
00000010
00000000
00001000
,
00001000
00000100
00000000
00010000
,
00001000
00022000
00033000
00010000
,
00001000
01000000
00100000
00000000
,
10000000
01000000
00010000
00000000
,
00100000
00001000
00010000
00000000
,
00001000
00010000
00000100
00001000
,
00000100
00000010
00000001
00000000
,
00000010
00001000
00000100
00000000
,
00000100
00000001
00000010
00000000
,
00002200
00000000
00000000
00003300
,
00010000
00000000
00000100
00010000
,
00001000
00000000
00000100
00001000
,
00010000
00000000
01000000
00010000
,
00100000
10000000
01000000
00000000
,
00110000
00000000
10000000
00100000
,
01000000
00000000
00010000
01000000
,
00001000
00000000
00010000
00001000
,
00000100
00000001
00000010
00000000
,
00000110
00000000
00000001
00001000
,
00000100
00000000
00000010
00000100
,
00001000
00000000
00010000
00001000
,
00010000
00000100
00001000
00000000
,
01001000
00000000
00100000
00010000
,
01000000
00000000
01000000
00010000
,
00100000
00000000
00100000
10000000
,
10000000
01000000
00100000
00000000
,
00020000
00000000
00000000
00000000
,
02030000
00000000
00000000
00000000
,
03002000
00000000
00000000
00000000
,
00023000
00000000
00030200
00000000
,
00000310
00000100
00000100
00000000
,
00000010
00000010
00000010
00000000
,
00001000
00001000
00001000
00000000
,
00000202
00000000
00000000
00000303
,
00000010
00000000
00001000
00000010
,
00000000
00010000
00001000
00000000
,
10000000
01000000
00000000
00100000
,
00010000
01000000
00001000
00010000
,
00000000
00000100
00010000
00000000
,
00001000
00000010
00000000
00000001
,
00000100
00000000
00000010
00001000
,
00000000
00010000
00000100
00010000
,
00001000
00000000
00010000
00000000
,
00001000
01000000
00010000
00000000
,
00100000
01000000
00000000
00010000
,
10000000
00000000
00000000
00100000
,
20020000
00000000
30030000
01000000
,
01000000
00000000
00100000
00100000
,
00010000
00000000
01000000
00001000
,
00010000
00000000
00010000
00001000
,
00000100
00001000
00010000
00000000
,
00000100
00000000
00000010
00000010
,
00000100
00000000
00000001
00001000
,
00000100
00000000
00000001
00000010
,
00001000
00010000
01000000
00000000
,
10000000
00000000
00100000
00100000
,
01000000
00000000
10000000
01000000
,
00010000
00000000
00001000
00000010
,
00000001
00000100
00000001
00000000
,
00000110
00001000
00000100
00000000
,
00011000
01000000
00010000
00000000
,
00110000
01000000
00001000
00000000
,
00100000
00001000
00010000
00000100
,
00001100
00000000
00000000
00000000
;

//---------------dance-double - M.Emirzian----------------
#NOTES:
     dance-double:
     M.Emirzian:
     Medium:
     6:
     0.384,0.384,0.089,0.072,0.000,283.000,10.000,8.000,0.000,0.000,0.000,0.384,0.384,0.089,0.072,0.000,283.000,10.000,8.000,0.000,0.000,0.000:
00000000
00000000
00000000
00000000
,
00000000
00000000
00000000
00000000
,
00000000
00000000
00000000
00000000
,
00000000
00000000
00000000
00000000
,
00000000
00100000
00000000
00000000
00000000
00100000
00000000
00000000
,
00000000
01000000
00000000
00000000
00000000
01000000
00000000
00000000
,
00000000
00010000
00000000
00000000
00000000
00010000
00000000
00000000
,
00000000
10000000
00000000
00000000
00000000
10000000
00000000
00000000
,
20020000
00000000
00000000
30030000
,
00000000
10000000
01000000
00000000
00000000
00100000
00010000
00000000
,
00000000
00001000
00010000
00000000
00000000
00000100
00001000
00000000
,
00000000
00000010
00000100
00000000
00000000
00000001
00001000
00000000
,
00000000
00000100
00001000
00000000
00000000
00010000
00001000
00000000
,
00000000
01000000
00010000
00000000
00000000
00100000
10000000
00000000
,
00000000
00010000
01000000
00000000
00000000
00001000
00010000
00000000
,
00000000
00001000
00000010
00000000
00000000
00000001
00000100
00000000
,
00001001
00000110
00000000
00000010
,
00001000
00000000
00000100
00000000
00000010
00000100
00000000
00000100
,
00000000
00000000
00000001
00000000
00000100
00001000
00000000
00001000
,
00000000
00000000
00100000
00000000
10000000
01000000
00000000
01000000
,
00000000
00000000
00100000
00000000
00010000
01000000
00000000
01000000
,
00000000
00000000
10000000
00000000
00100000
00010000
00000000
00010000
,
00000000
00000000
00001000
00000000
00010000
00000100
00000000
00000100
,
00000000
00000000
00000010
00000000
00001000
00000100
00000000
00002200
,
00000000
00000000
00000000
00003300
,
00000001
00000000
00000000
00000010
00000000
00000010
00000100
00000000
,
00001000
00000000
00000000
00000010
00000000
00000010
00001000
00000000
,
00000010
00000000
00000000
00010000
00000000
00010000
00001000
00000000
,
00000100
00000000
00001000
00000000
00010000
00001000
01000000
00000000
,
00010000
00000000
00000000
01000000
00000000
01000000
10000000
00000000
,
00100000
00000000
00000000
00010000
00000000
00010000
00001000
00000000
,
00000100
00000000
00000000
00001000
00000000
00001000
00010000
00000000
,
00000010
00001000
00000100
00000000
00000010
00000001
00000100
00000000
,
00000001
00000000
00000000
00000100
00000000
00000100
00000010
00000000
,
00000100
00000000
00000000
00001000
00000000
00001000
00010000
00000000
,
00001000
00000000
00000000
00000100
00000000
00000100
00001000
00000000
,
00010000
00000000
00001000
00000000
00010000
01000000
10000000
00000000
,
00100000
00000000
00000000
01000000
00000000
01000000
00010000
00000000
,
00100000
00000000
00000000
00001000
00000000
00001000
01000000
00000000
,
00001000
00000000
00000000
00010000
00000000
00010000
00000010
00000000
,
00001000
00000100
00000010
00000000
00000001
00000100
00000010
00000000
,
00001000
00000100
00000000
00000000
00000000
00000100
00000000
00000000
,
00000000
00010000
00000000
00000000
00000000
00010000
00000000
00000000
,
00000000
00001000
00000000
00000000
00000000
00001000
00000000
00000000
,
00000000
01000000
00000000
00000000
00000000
01000000
00000000
00000000
,
10000000
01000000
00100000
00010000
,
10000000
01000000
00010000
00001000
,
00000100
00000010
00001000
00000001
,
00000202
00000000
00000000
00000303
,
00000010
00000000
00001000
00000000
00000100
00000010
00000000
00000010
,
00000000
00000000
00010000
00000000
00001000
01000000
00000000
01000000
,
00000000
00000000
00010000
00000000
00100000
10000000
00000000
10000000
,
00000000
00000000
00010000
00000000
01000000
00001000
00010000
00000000
,
00000100
00000000
00001000
00000000
00000100
00001000
00000000
00001000
,
00000000
00000000
00000001
00000000
00000100
00000010
00000000
00000010
,
00000000
00000000
00001000
00000000
00001000
00000100
00000000
00000010
,
00000000
00000000
00000100
00000000
00001000
00000001
00000100
00000000
,
00000010
00000000
00000010
00000000
00001000
00000100
00000000
00000100
,
00000000
00000000
00010000
00000000
00010000
00001000
00000000
00001000
,
00000000
00000000
00010000
00000000
01000000
00100000
00000000
01000000
,
20020000
00000000
00000000
00000000
00000000
00000000
00000000
30030000
,
11000000
00110000
00000000
00011000
,
00010000
00000000
00000000
00010000
00000000
00010000
00000100
00000000
,
00001000
00000000
00000000
00000010
00000000
00000010
00000100
00000000
,
00000001
00000000
00000000
00000010
00000000
00000010
00000100
00000000
,
00001000
00000000
00000001
00000000
00000100
00001000
00010000
00000000
,
00001000
00000000
00000000
00010000
00000000
00010000
00001000
00000000
,
01000000
00000000
00000000
00100000
00000000
00100000
01000000
00000000
,
00010000
00000000
00000000
10000000
00000000
10000000
01000000
00000000
,
00100000
01000000
10000000
00000000
00100000
00010000
01000000
00000000
,
00100000
00000000
00000000
01000000
00000000
01000000
00001000
00000000
,
00010000
00000000
00000000
01000000
00000000
01000000
00001000
00000000
,
00010000
00000000
00000000
00000010
00000000
00000010
00010000
00000000
,
00001000
00000000
01000000
00000000
00001000
00010000
00000010
00000000
,
00010000
00000000
00000000
00001000
00000000
00001000
00100000
00000000
,
00001000
00000000
00000000
00010000
00000000
00010000
00000010
00000000
,
00001000
00000000
00000000
00000100
00000000
00000100
00000010
00000000
,
00000001
00000100
00000010
00000000
00000100
00001000
00000010
00000000
,
00000110
00000000
00000000
00000000
;

//---------------dance-double - M.Emirzian----------------
#NOTES:
     dance-double:
     M.Emirzian:
     Hard:
     9:
     0.631,0.593,0.456,0.098,0.250,432.000,51.000,11.000,5.000,0.000,2.000,0.631,0.593,0.456,0.098,0.250,432.000,51.000,11.000,5.000,0.000,2.000:
00000000
00000000
00000000
00000000
,
00000000
00000000
00000000
00000000
,
00000000
00000000
00000000
00000000
00010000
00000000
00000000
000M0000
,
00011000
00000000
00000000
000M0000
00010010
00000000
00000000
000M0000
,
00010000
00001000
00000000
00000010
00000000
00001000
00000000
00010000
,
00000000
00100000
00000000
00010000
00000000
00001000
00000000
00000020
,
00000000
00001000
00000000
00000100
00000000
00000031
00000000
00000010
,
00000000
00000100
00000000
00010000
00000000
00001000
00000000
01000000
,
02020000
00000000
00000000
03030000
,
00000000
00000000
01000000
00000000
01000000
00100000
00000000
00000000
00000000
00000000
10000000
00000000
10000000
01000000
00000000
00000000
,
00000000
00000000
00100000
00000000
00100000
00010000
00000000
00000000
00000000
00000000
00001000
00000000
00001000
00010000
00000000
00000000
,
00000000
00000000
00000200
00000000
00001000
00000000
00000000
00000000
00000000
00000000
00010000
00000300
00001000
00000000
00000000
00000000
,
00000000
00000000
02000000
00000000
00010000
00000000
00000000
00000000
00000000
00000000
00001000
03000000
00010000
00000000
00000000
00000000
,
00000000
00000000
00000010
00000000
00000010
00010000
00000000
00000000
00000000
00000000
00000100
00000000
00000100
00001000
00000000
00000000
,
00000000
00000000
00000100
00000000
00000100
00000001
00000000
00000000
00000000
00000000
00000100
00000000
00000100
00000010
00000000
00000000
,
00000000
00000000
00020000
00000000
00001000
00000000
00000000
00000000
00000000
00000000
00000100
00030000
00001000
00000000
00000000
00000000
,
00010100
00000000
00000000
00000000
00011000
00000000
00000000
00000000
00000000
00000000
00000000
00010000
00001000
00000000
01000000
00000000
,
00010000
00000000
00000000
00000000
11000000
00000000
00000000
00000000
10100000
00000000
00000000
01000000
00000000
00000000
00010000
00000000
,
10000000
00000000
00000000
00000000
11000000
00000000
00000000
00000000
01100000
00000000
00000000
00100000
00000000
00000000
00001000
00000000
,
00010000
00000000
00000000
00000000
00110000
00000000
00000000
00000000
00011000
00000000
00000000
00000100
00000000
00000000
00000010
00000000
,
00010000
00001000
00000010
00000001
00000100
00000010
00000100
00000000
,
00000001
00000000
00000000
00000000
00000110
00000000
00000000
00000000
00001010
00000000
00000000
00010000
00000000
00000000
00000100
00000000
,
00010000
00000000
00000000
00000000
01001000
00000000
00000000
00000000
01010000
00000000
00000000
00100000
00000000
00000000
01000000
00000000
,
10000000
00000000
00000000
00000000
10100000
00000000
00000000
00000000
01100000
00000000
00000000
00010000
00000000
00000000
00100000
00000000
,
00404000
00000000
00000000
00303000
,
00100000
00000000
00001000
00010000
00000000
00010000
00100000
00010000
,
00001000
00000000
00000010
00000100
00000000
00000100
00010000
00001000
,
00010000
00000000
00000100
00000010
00000000
00000010
00000100
00001000
,
00000100
00000000
00010100
00000000
00001000
00010000
00010010
00000000
,
00010000
00000100
00001000
00000010
00001000
00000100
00000010
00000100
,
00001000
00000001
00000100
00000010
00001000
00000100
00010000
00001000
,
01000000
00100000
00010000
00001000
01000000
00100000
10000000
01000000
,
00100000
00010000
01010000
00000000
01000000
00001000
00011000
00000000
,
00010000
00000000
00000010
00000100
00000000
00000100
00001000
00010000
,
00001000
00000000
00000010
00000100
00000000
00000100
00010000
00000010
,
00000100
00000000
00000001
00000100
00000000
00000100
00001000
00010000
,
00100000
00000000
01001000
00000000
00001000
01000000
01010000
00000000
,
00110000
00000000
00000000
00100000
01000000
00000000
00000000
01000000
10000000
00000000
00000000
10000000
00100000
00000000
00000000
00000000
,
00110000
00000000
00000000
00100000
00010000
00000000
00000000
00010000
00001000
00000000
00000000
00001000
00000100
00000000
00000000
00000000
,
00000110
00000000
00000000
00000010
00000100
00000000
00000000
00000100
00000001
00000000
00000000
00000001
00000010
00000000
00000100
00000000
,
00001000
00000100
00000110
00000000
00000100
00010000
00011000
00000000
,
00000100
00002000
00000000
00010000
00000000
00000100
00000000
00013000
,
00000000
00200000
00000000
10000000
00000000
00010000
00000000
10300000
,
00000000
01000000
00000000
00100000
00000000
00000100
00000010
00000100
,
00000000
00010000
00000000
00100000
00000000
01000000
00000000
10010000
,
00000000
00000000
01000000
00100000
00000000
00000000
00010000
00100000
00000000
00000000
00001000
00010000
00000000
00000000
00001000
01000000
,
00000000
00000000
00001000
00010000
00000000
00000000
00000010
00001000
00000000
00000000
00000100
00000010
00000000
00000000
00001000
00000010
,
00000000
00000000
00000100
00001000
00000000
00000000
00000001
00000100
00000000
00000000
00000010
00001000
00000000
00000000
00000100
00000000
,
00010100
00000000
00000000
00001100
00000000
00011000
00000000
01010000
,
00100000
00000000
00000000
00000000
01000000
00000000
00000000
00100000
00000000
00100000
00000000
00010000
10000000
00000000
00000000
00000000
,
00100000
00000000
01020000
00000000
00100000
00100000
00130000
00000000
,
01001000
00000000
00000000
00000000
01000000
00000000
00000000
00010000
00000000
00010000
00000000
00100000
00001000
00000000
00000000
00000000
,
00010000
00001000
00010000
00000010
00001000
00000100
00000010
00000000
,
00000001
00000000
00000000
00000000
00000100
00000000
00000000
00000010
00000000
00000010
00000000
00001000
00000001
00000000
00000000
00000000
,
00000010
00000000
00002100
00000000
00000010
00000010
00003010
00000000
,
00000101
00000000
00000000
00000000
00001000
00000000
00000000
00000100
00000000
00000100
00000000
00010000
00001000
00000000
00000000
00000000
,
00010000
00001000
01000000
00010000
01000000
00100000
10000000
01000000
,
00100000
00000000
00000000
00000000
00100000
00000000
00000000
00010000
00000000
00010000
00000000
00100000
00001000
00000000
00000000
00000000
,
00010000
00000000
00120000
00000000
00001000
00001000
00031000
00000000
,
00010010
00000000
00000000
00000000
00001000
00000000
00000000
00000100
00000000
00000100
00000000
00000010
00000001
00000000
00000000
00000000
,
00001100
00000000
00000000
00000000
00000000
00000000
00000000
00000000
00000000
00000000
00000000
00000000
00100000
01000000
00010000
10000000
,
00100000
00000000
00000000
00000000
11000000
00000000
00000000
00000000
MM000000
00000000
00000000
00100000
00010000
00000000
10000000
00000000
,
01000000
00000000
00100000
00010000
00000000
00010000
01000000
00001000
,
00010000
00000000
00100000
00010000
00000000
00010000
00001000
00000010
,
00000100
00000000
00001000
00000001
00000000
00000001
00000100
00000010
,
00001000
00000000
00010010
00000000
00001000
00000100
00010100
00000000
,
00001000
00000100
00000010
00000001
00001000
00000010
00000100
00000010
,
00001000
00000100
00010000
00001000
00100000
00010000
01000000
00100000
,
01000000
00010000
01000000
00100000
10000000
01000000
00100000
00001000
,
00010000
00001000
00010100
00000000
00001000
00000010
00001001
00000000
,
00001000
00000000
00000010
00000100
00000000
00000100
00001000
00010000
,
00100000
00000000
00100000
00010000
00000000
00010000
00001000
01000000
,
00100000
00000000
01000000
00010000
00000000
00010000
00100000
00001000
,
01000000
00000000
00110000
00000000
01000000
10000000
10100000
00000000
,
01000000
00010000
01000000
00100000
10000000
01000000
00100000
00010000
,
01000000
00001000
00010000
00000010
00000100
00001000
00000100
00000001
,
00000100
00000010
00000100
00000001
00000010
00000100
00001000
00000001
,
00000100
00000010
00001001
00000000
00001000
00000100
00010100
00000000
,
00011000
00000000
00000000
00000000
;

//---------------dance-double - M.Emirzian----------------
#NOTES:
     dance-double:
     M.Emirzian:
     Challenge:
     10:
     0.743,0.697,0.215,0.054,0.501,552.000,24.000,6.000,7.000,0.000,0.000,0.743,0.697,0.215,0.054,0.501,552.000,24.000,6.000,7.000,0.000,0.000:
00000000
00000000
00000000
00000000
,
00000000
00000000
00000000
00000000
,
00000000
00000000
00000000
00000000
00000000
00000000
00000000
000M0000
,
00010001
00000000
00000000
0000M000
00001100
00000000
00000000
000000M0
,
00000010
00000100
00000000
00002000
00000000
00100000
00000000
00010000
,
00000000
01003000
00000000
00100000
00000000
00020000
00000000
00000010
,
00000000
00001000
00000000
00030100
00000000
00000010
00000000
00000001
,
00000000
00010000
00000000
00001000
00000000
10000000
00000000
00100000
,
20020000
00000000
00000000
00000000
00000000
00000000
30030000
M00M0000
,
00000000
00000000
10000000
00000000
01000000
00100000
01000000
00000000
00000000
00000000
00010000
00000000
01000000
00100000
01000000
00000000
,
00000000
00000000
00000010
00000000
00010000
00001000
00010000
00000000
00000000
00000000
00000001
00000000
00000010
00000100
00000010
00000000
,
00000000
00000001
00000100
00000010
00001000
00000100
00000010
00000100
,
00000000
00000100
00001000
00000010
00010000
00100000
10000000
00010000
,
00000000
00000000
01000000
00000000
00100000
01000000
00100000
00000000
00000000
00000000
00001000
00000000
00100000
00010000
00100000
00000000
,
00000000
00000000
00001000
00000000
00010000
00000100
00010000
00000000
00000000
00000000
00000001
00000000
00000100
00000010
00000100
00000000
,
00000000
00000000
00001000
00000000
01000000
00010000
01000000
00000000
00000000
00000000
00000100
00000000
00010000
00001000
00010000
00000000
,
00101000
00000000
00000000
00000000
01001000
00000000
0M00M000
00000000
00000000
00000000
00000000
01000000
00010000
00000000
01000000
00000000
,
00100000
00000000
10000000
00000000
00100000
01000000
00000000
01000000
00010000
00000000
00010000
00100000
00000000
00100000
00010000
00000000
,
01000000
00000000
00001000
00000000
00010000
00000100
00000000
00010000
00001000
00000000
00010000
00000010
00000000
00001000
00000010
00000000
,
00001000
00000000
00001000
00000000
00000100
00000010
00000000
00000010
00000001
00000000
00000001
00000100
00000000
00000100
00000001
00000000
,
00001000
00000000
00000000
00001000
00000100
00000000
00000000
00000100
00010000
00000000
00000000
00010000
00001000
00000000
01000000
00000000
,
00001000
00000000
00010000
00000000
00100000
00010000
00000000
00010000
00100000
00000000
00100000
01000000
00000000
01000000
00010000
00000000
,
01000000
00000000
00100000
00000000
10000000
01000000
00000000
00100000
00010000
00000000
00100000
00001000
00000000
00010000
00001000
00000000
,
00001000
00000000
00010000
00000000
00000100
00010000
00000000
00001000
01000000
00000000
00001000
00010000
00000000
00000010
00010000
00000000
,
00001000
00000000
00000000
00010000
00001000
00000000
00000000
00001000
00010000
00000000
00000000
00010000
00000010
00000000
00001000
00000000
,
00000100
00000000
00000000
00000100
00000010
00000000
00000001
00000000
00000000
00000001
00001000
00000000
00000010
00000000
00000100
00000000
,
00001000
00000000
00000000
00001000
00010000
00000000
00100000
00000000
00000000
00100000
00010000
00000000
00001000
00000000
01000000
00000000
,
00100000
01000000
00001000
00010000
01000000
10000000
01000000
00100000
,
01000000
00000000
11000000
00000000
00100000
01000000
01001000
00000000
,
10000000
01000000
00100000
00001000
00010000
00100000
01000000
00100000
,
00010000
00000000
00000010
00000000
00000100
00000000
00000010
00000000
00001000
00000000
00000000
00001000
00000010
00000000
00000100
00000000
,
00000010
00001000
00000100
00000010
00000001
00001000
00000010
00010000
,
00000100
00000010
00000001
00000000
00001000
00000010
00010010
00000000
,
00001000
00000000
00000000
00001000
00010000
00000000
00000010
00000000
00000000
00000010
00010000
00000000
00001000
00000000
00010000
00000000
,
00000100
00000000
00000000
00000100
00010000
00000000
00001000
00000000
00000000
00001000
01000000
00000000
00100000
00000000
10000000
00000000
,
01000000
00100000
01000000
10000000
01000000
00100000
00001000
00000100
,
00000001
00000000
00000101
00000000
00001000
00000100
00010100
00000000
,
00001000
00000010
00000100
00001000
00010000
00000010
00000100
00000010
,
00010000
00100000
01000000
00001000
00010000
01000000
00100000
00001000
,
00010000
00100000
01000000
10000000
00010000
00100000
01000000
00010000
,
10000000
01000000
00100000
00000000
00010000
01000000
01001000
00000000
,
01000000
00000000
00100000
00000000
10000000
00010000
10000000
00000000
00000000
00000000
00100000
00000000
00001000
00010000
00000100
00000000
,
00000000
00000000
00000010
00000000
00010000
00001000
00100000
00000000
00000000
00000000
10000000
00000000
00001000
00010000
00001000
00000000
,
00000000
00000000
00001000
00000000
00100000
00010000
01000000
00000000
00000000
00000000
00100000
00000000
00000010
00001000
00000100
00000000
,
00000000
00000000
00001000
00000000
01000000
00010000
00100000
00000000
00000000
00000000
01000000
00000000
00000100
00001000
00000010
00000000
,
00000000
00000000
00000010
00000100
00000000
00000000
00000001
00000100
00000000
00000000
00000010
00001000
00000000
00000000
00000010
00010000
,
00000000
00000000
00001000
00010000
00000000
00000000
00001000
01000000
00000000
00000000
00010000
01000000
00000000
00000000
00100000
10000000
,
00000000
00000000
01000000
00100000
00000000
00000000
01000000
10000000
00000000
00000000
00010000
01000000
00000000
00000000
00100000
00000000
,
10010000
00000000
00000000
01000100
00000000
00011000
00000000
00010010
,
00001000
00000000
00010000
00000000
00001000
00000000
00010000
00000010
00000000
00001000
00000000
00000010
00010000
00000000
00001000
00000000
,
00000000
00000000
00010000
00000100
00000000
00000000
00000100
00001000
00000000
00000000
00001000
00000010
00000000
00000000
00000010
00000100
,
00000000
00000000
00000100
00000000
00000010
00000000
00001000
00000001
00000000
00001000
00000000
00000001
00000100
00000000
00000010
00000000
,
00000000
00001000
00000100
00000010
00000100
00010000
00100000
01000000
,
00000000
00000000
00010000
00000000
01000000
00000000
00100000
01000000
00000000
00010000
00000000
01000000
00100000
00000000
10000000
00000000
,
00000000
00000000
10000000
01000000
00000000
00000000
01000000
00100000
00000000
00000000
00100000
00010000
00000000
00000000
00010000
01000000
,
00000000
00000000
01000000
00000000
00001000
00000000
00010000
00000010
00000000
00001000
00000000
00000010
00010000
00000000
00001000
00000000
,
00000000
00010000
00100000
00010000
00001000
00000010
00000100
00000010
,
00000000
00000000
00000001
00000000
00000100
00000010
00000000
00000010
00001000
00000000
00001000
00000100
00000000
00000100
00000010
00000000
,
00000000
00000000
00000100
00000000
00001000
00000100
00000000
00000100
00010000
00000000
00010000
00001000
00000000
00001000
01000000
00000000
,
00000000
00000000
00100000
00000000
01000000
00001000
00000000
00100000
00010000
00000000
10000000
01000000
00000000
00100000
00010000
00000000
,
20020000
00000000
00000000
00000000
00000000
00000000
00000000
00000000
00000000
00000000
30030000
00000000
10000000
01000000
00100000
00010000
,
10000000
00000000
00000000
00000000
01001000
00000000
00000000
00000000
00000000
00000000
00000000
00100000
01000000
00000000
00100000
00000000
,
00010000
00000000
00000000
00010000
01000000
00000000
00100000
00000000
00000000
00100000
01000000
00000000
00010000
00000000
00100000
00000000
,
00001000
00000000
00000000
00001000
00010000
00000000
00000100
00000000
00000000
00000100
00001000
00000000
00000010
00000000
00000100
00000000
,
00000010
00001000
00000001
00001000
00000100
00000010
00000100
00010000
,
00000100
00000000
00001100
00000000
00000100
00010000
00011000
00000000
,
00010000
00000010
00000100
00000010
00001000
00000100
00000010
00000100
,
00100000
00010000
01000000
00100000
00010000
00001000
01000000
00100000
,
00010000
00100000
01000000
00010000
10000000
01000000
00100000
00001000
,
00010000
00000010
00001000
00000000
00000010
00000100
00001001
00000000
,
00000001
00000000
00000000
00000001
00000100
00000000
00000010
00000000
00000000
00000010
00000100
00000000
00001000
00000000
01000000
00000000
,
00001000
00000000
00000000
00001000
00010000
00000000
00001000
00000000
00000000
00001000
01000000
00000000
00100000
00000000
01000000
00000000
,
00001000
00010000
01000000
10000000
00001000
10000000
01000000
00100000
,
00010000
00000000
01010000
00000000
00100000
00010000
00101000
00000000
,
00010000
00100000
01000000
00001000
00010000
00000010
00000100
00001000
,
00010000
00000010
00001000
00000100
00000010
00000100
00010000
00000100
,
00000010
00000100
00001000
00000100
00010000
00000010
00000100
00000001
,
00000100
00001000
00010000
00000000
00100000
01000000
10010000
00000000
,
11000000
00000000
00000000
00000000
;

//---------------dance-single - J. Frederick----------------
#NOTES:
     dance-single:
     J. Frederick:
     Beginner:
     1:
     0.093,0.105,0.027,0.000,0.000,70.000,3.000,0.000,0.000,0.000,0.000,0.093,0.105,0.027,0.000,0.000,70.000,3.000,0.000,0.000,0.000,0.000:
0000
0000
0000
0000
,
0000
0000
0000
0000
,
0000
0000
0000
0000
,
0000
0000
0000
0000
,
1000
0000
0000
0000
,
0000
0000
0000
0000
,
0000
0000
0000
0000
,
0001
0000
0010
0000
,
0110
0000
0000
0000
,
1000
0000
0000
0000
,
0000
0000
0000
0000
,
0000
0000
0000
0000
,
0001
0000
0010
0000
,
0100
0000
0000
0000
,
0000
0000
0000
0000
,
0000
0000
0000
0000
,
1000
0000
0001
0000
,
0100
0000
0000
0000
,
0010
0000
0000
0000
,
1000
0000
0000
0000
,
0001
0000
0000
0000
,
0100
0000
0000
0000
,
0010
0000
0000
0000
,
1000
0000
0000
0000
,
0001
0000
0000
0000
,
0100
0000
0000
0000
,
0010
0000
0000
0000
,
1000
0000
0000
0000
,
0001
0000
0000
0000
,
0100
0000
0000
0000
,
0010
0000
0000
0000
,
1000
0000
0000
0000
,
0001
0000
0000
0000
,
0100
0000
0000
0000
,
0010
0000
0000
0000
,
1000
0000
0000
0000
,
0001
0000
0000
0000
,
0100
0000
0000
0000
,
0010
0000
0000
0000
,
1000
0000
0000
0000
,
0001
0000
0000
0000
,
0110
0000
0000
0000
,
0000
0000
0000
0000
,
0000
0000
0000
0000
,
1000
0000
0001
0000
,
0100
0000
0000
0000
,
0000
0000
0000
0000
,
0000
0000
0000
0000
,
0010
0000
1000
0000
,
0001
0000
0000
0000
,
1000
0000
0000
0000
,
0100
0000
0000
0000
,
0010
0000
0000
0000
,
1000
0000
0000
0000
,
0001
0000
0000
0000
,
0100
0000
0000
0000
,
0010
0000
0000
0000
,
1001
0000
0000
0000
,
0100
0000
0000
0000
,
0010
0000
0000
0000
,
1000
0000
0000
0000
,
0001
0000
0000
0000
,
0100
0000
0000
0000
,
0010
0000
0000
0000
,
1000
0000
0000
0000
,
0001
0000
0000
0000
,
0100
0000
0000
0000
,
0010
0000
0000
0000
,
1000
0000
0000
0000
,
0001
0000
0000
0000
,
0100
0000
0000
0000
,
0010
0000
0000
0000
,
1000
0000
0000
0000
,
0001
0000
0000
0000
,
0100
0000
0000
0000
,
0010
0000
0000
0000
,
1000
0000
0000
0000
,
0001
0000
0000
0000
,
0100
0000
0000
0000
;

//---------------dance-single - M. Poveromo----------------
#NOTES:
     dance-single:
     M. Poveromo:
     Edit:
     10:
     0.839,0.954,0.116,0.197,0.528: // measure 1
0000
0000
0000
0000
,  // measure 2
0000
0000
0000
0000
,  // measure 3
0000
0000
0000
0000
,  // measure 4
0000
0000
0000
0000
,  // measure 5
1000
0100
0010
0001
0100
0010
1000
0100
,  // measure 6
1000
0010
1000
0100
0010
0001
0010
1000
,  // measure 7
0010
0100
1000
0100
0001
0100
1000
0010
,  // measure 8
0001
0000
0010
0000
1000
0000
0010
0000
0001
0000
0010
0000
1000
0001
1000
0000
,  // measure 9
2002
0010
0010
3013
,  // measure 10
1000
0000
0100
0000
1000
0100
1000
0000
0M00
0000
0100
0000
0010
0100
0010
0000
,  // measure 11
0M00
0000
0001
0000
1000
0001
1000
0000
000M
0000
0100
0000
0010
0100
0010
0000
,  // measure 12
0M00
0000
0001
0000
1000
0001
1000
0000
000M
0000
0010
0000
0100
0010
0100
0000
,  // measure 13
00M0
0000
0001
0000
1000
0010
0100
0000
00M0
0000
0001
0000
0010
0100
1000
0000
,  // measure 14
0M00
0000
0010
0000
0100
0001
0010
0000
000M
0000
0100
0000
0010
0100
0001
0000
,  // measure 15
0M00
0000
0100
0000
0010
0100
1000
0000
0M00
0000
0001
0000
1000
0100
0010
0000
,  // measure 16
0M00
0000
0100
0000
0010
1000
0010
0000
0000
0000
0010
0000
0001
0010
0001
0000
,  // measure 17
0011
0202
1000
0010
,  // measure 18
0303
0000
1000
0000
0100
0010
0000
0010
0001
0000
0001
0010
0000
0010
0001
0000
,  // measure 19
0010
0000
0100
0000
1000
0100
0000
0100
0010
0000
0010
0001
0000
0001
1000
0000
,  // measure 20
0010
0000
0100
0000
0001
0010
0000
0010
0100
0000
0100
1000
0000
1000
0100
0000
,  // measure 21
0010
0000
0001
0000
1000
0010
0000
0010
0100
0000
0100
0010
0000
0010
1000
0000
,  // measure 22
1000
0000
0100
0000
1000
0010
0000
0100
0001
0000
0010
0001
0000
1000
0100
0000
,  // measure 23
1000
0000
0010
0000
0100
0001
0000
1000
0010
0000
0100
0010
0000
0100
0001
0000
,  // measure 24
1000
0000
0100
0000
0010
0100
0000
0010
1000
0000
0010
0100
0000
0010
0001
0000
,  // measure 25
0001
0000
0100
0000
0010
1000
0000
1000
0100
0000
0100
0010
0000
0010
0001
0000
,  // measure 26
1000
0100
0010
0001
0100
0001
0100
0010
,  // measure 27
1000
0100
1000
0010
0100
0001
1000
0100
,  // measure 28
0010
0001
0010
0001
0100
0010
1000
0100
,  // measure 29
2200
0000
0010
0000
0001
0010
3301
0000
,  // measure 30
0100
0010
0100
0010
0001
0010
0001
0010
,  // measure 31
0100
0001
0100
0010
0100
0010
0001
0010
,  // measure 32
0001
0010
0100
0001
0100
0010
1000
0100
,  // measure 33
1000
0010
0200
0300
0001
0100
0020
0030
,  // measure 34
1000
0100
1000
0100
0010
0001
0100
0001
,  // measure 35
0010
0001
0100
0001
0010
0100
1000
0010
,  // measure 36
1000
0100
1000
0010
1000
0100
0010
0001
,  // measure 37
2000
0000
0200
0000
0010
0001
3310
0000
,  // measure 38
0001
0100
0010
1000
0010
0100
0001
0010
,  // measure 39
0100
1000
0100
0010
0001
0010
0001
0100
,  // measure 40
0001
0100
0001
0010
0100
1000
0010
0100
,  // measure 41
0001
0010
0011
0000
0001
0010
0110
0000
,  // measure 42
1000
0000
0100
0000
0010
0001
0010
0000
000M
0000
0100
0000
0010
1000
0010
0000
,  // measure 43
M000
0000
0010
0000
0100
0010
0100
0000
00M0
0000
0001
0000
1000
0001
1000
0000
,  // measure 44
000M
0000
0010
0000
1000
0001
1000
0000
000M
0000
1000
0000
0100
0010
0100
0000
,  // measure 45
00M0
0000
0010
0000
0001
1000
0001
0000
M000
0000
0010
0000
1000
0001
1000
0000
,  // measure 46
000M
0000
0100
0000
0010
0001
0100
0000
000M
0000
0100
0000
0001
0100
0010
0000
,  // measure 47
0M00
0000
1000
0000
0100
0010
0001
0000
00M0
0000
0010
0000
0100
0001
0100
0000
,  // measure 48
000M
0000
1000
0000
0100
1000
0100
0000
M000
0000
0010
0000
0100
0010
0100
0000
,  // measure 49
2002
0000
0000
0100
0000
0010
0000
0000
,  // measure 50
3003
0000
0001
0000
0010
0000
0100
1000
0000
1000
0100
0000
0010
0000
0100
0000
,  // measure 51
0001
0000
0100
0000
0010
0000
0100
0010
0000
0010
0100
0000
0001
0000
0100
0000
,  // measure 52
0010
0000
0100
0000
1000
0000
0100
1000
0000
1000
0100
0000
1000
0000
0001
0000
,  // measure 53
1000
0000
0001
0000
1000
0000
0100
1000
0000
1000
0100
0000
1000
0000
0100
0000
,  // measure 54
0010
0000
0001
0000
0010
0000
0001
0010
0100
1000
0010
0000
0100
0000
0010
0000
,  // measure 55
1000
0000
0100
0000
0010
0000
0001
0100
0001
0010
0001
0000
0010
0000
0100
0000
,  // measure 56
1000
0000
0100
0000
0010
0000
0100
0010
0100
1000
0100
0000
0010
0000
0100
0000
,  // measure 57
1000
0000
1MM1
0000
1000
0000
0001
1000
0000
0001
1MM0
0000
1000
0000
1001
0000
,  // measure 58
1000
0000
0100
0000
0010
0000
0001
0010
0100
0010
0001
0000
0010
0000
0001
0000
,  // measure 59
0010
0000
0100
0000
1000
0000
0100
0010
0100
1000
0100
0000
0010
0000
0100
0000
,  // measure 60
1000
0000
0001
0000
0100
0000
0010
1000
0010
0100
0001
0000
1000
0000
0010
0000
,  // measure 61
2002
0000
0MM0
0000
0000
0000
0MM0
0000
0000
0000
3003
0000
0010
0100
0010
0100
,  // measure 62
0010
0000
0000
0000
1100
0000
0000
0000
MMMM
0000
0000
0010
0001
0000
0100
0000
,  // measure 63
0001
0010
0001
0000
0010
0000
0001
0000
0100
0010
0100
0000
0010
0000
1000
0000
,  // measure 64
0100
0010
0100
0000
0010
0000
0001
0000
0010
0001
0010
0000
0100
0000
1000
0000
,  // measure 65
0100
1000
0100
0000
1000
0000
0100
0000
1000
0001
1000
0000
0001
0000
0100
0000
,  // measure 66
0202
0000
0010
0000
1000
0010
1000
0303
,  // measure 67
0001
0100
0001
0000
0100
0000
0010
0000
1000
0010
1000
0000
0010
0000
1000
0000
,  // measure 68
0100
1000
0100
0000
1000
0000
0100
0000
0010
0100
0010
0000
0100
0000
0010
0000
,  // measure 69
0001
0010
0001
0000
0010
0000
0100
0000
0010
0100
0010
0000
0100
0000
1000
0000
,  // measure 70
0100
1000
0020
0030
0100
0010
2000
3000
,  // measure 71
0010
1000
0100
0000
1000
0000
0010
0000
0100
0010
1000
0000
0010
0000
0100
0000
,  // measure 72
0001
0100
0010
0000
0001
0000
1000
0000
0001
1000
0010
0000
0100
0000
0010
0000
,  // measure 73
1000
0001
0100
0000
0010
0000
1000
0000
0100
1000
0010
0000
0100
0000
0001
0000
,  // measure 74
0002
0000
0200
0000
0010
1000
0313
0000
,  // measure 75
1000
0010
0100
0000
0010
0000
0100
0000
0001
0100
0010
0000
0100
0000
0001
0000
,  // measure 76
0100
0010
1000
0000
0100
0000
0010
0000
0100
1000
0010
0000
0100
0000
0001
0000
,  // measure 77
0010
0100
1000
0000
0001
0000
0100
0000
0010
1000
0100
0000
1000
0000
0100
0000
,  // measure 78
0010
0100
0010
0100
0010
0100
0010
0001
1000
0001
1000
0001
0010
0100
1000
0000
,  // measure 79
2002
0000
0000
0010
0000
0000
0000
0000
0000
0000
0000
0000
0000
0000
0000
0000
,  // measure 80
3003
0000
0000
0000
;
