#TITLE:Dance Vibrations;
#SUBTITLE:;
#ARTIST:Elpis;
#TITLETRANSLIT:;
#SUBTITLETRANSLIT:;
#ARTISTTRANSLIT:;
#GENRE:Rave;
#CREDIT:;
#BANNER:Dance Vibrations-bn.png;
#BACKGROUND:Dance Vibrations-bg.png;
#LYRICSPATH:;
#CDTITLE:;
#MUSIC:Dance Vibrations.ogg;
#OFFSET:0.005;
#SAMPLESTART:9.060;
#SAMPLELENGTH:15.000;
#SELECTABLE:YES;
#BPMS:0.000=130.000;
#STOPS:;
#BGCHANGES:0.101=Dance Vibrations.mpg=1.000=1=0=0=StretchNoLoop==CrossFade==,
99999=-nosongbg-=1.000=0=0=0 // don't automatically add -songbackground-;
#KEYSOUNDS:;

//---------------pump-single - Crazy----------------
#NOTES:
     pump-single:
     Crazy:
     Hard:
     8:
     0.548,0.000,0.252,0.196,0.168:
00000
00000
00000
00000
,
00000
00000
00000
00000
,
00000
00000
00000
00000
,
00000
00000
00000
00000
,
00200
00000
00000
00000
00000
00000
00000
00000
00300
00000
00000
00001
10000
00000
00001
00000
,
00100
00010
01000
00100
01000
00010
00100
00001
,
10000
00100
10000
00001
00100
00001
10000
00001
,
10000
00100
01000
00100
10000
00100
01000
00100
,
10000
01000
00100
00010
00001
00010
00100
01000
,
10000
00001
10000
00100
10000
00001
00100
00010
,
01000
00100
01000
00010
00001
00010
00100
00001
,
00010
00100
00010
00000
00001
00100
10000
00000
,
10000
00000
00100
00000
00001
00000
00100
00000
10000
00001
00000
00000
00110
00000
00000
00000
,
00002
00000
00000
00010
00013
00000
00100
00000
,
20000
00000
00000
01000
31000
00000
00100
00000
,
00002
00000
00000
00010
00013
00000
00101
00000
,
02000
00000
03000
00010
01000
00010
00100
00000
,
10001
00000
00001
00010
00100
00000
01100
00000
,
00010
00100
00010
00100
01000
00000
10010
00000
,
01100
00000
01000
00100
00010
00000
00110
00000
,
00001
00100
00001
00100
10000
00100
10000
00000
,
20002
00000
00000
00000
30003
00000
00000
00000
04000
00400
00000
00000
00000
00000
03300
00000
,
00000
00010
00010
00100
00010
00100
00010
00000
,
00220
00000
00000
00000
00330
00000
00000
00000
00004
40000
00000
00000
00000
00000
30003
00000
,
00000
00100
00001
10000
00001
00010
00100
01000
,
10000
00000
00000
00000
00100
01000
00000
00000
00010
00100
00000
00000
00001
00000
10000
00000
,
00001
00000
00000
00000
00100
00010
00000
00000
01000
00100
00000
00000
10000
00000
00001
00000
,
10000
00000
00000
00000
00100
01000
00000
00000
00010
00100
00000
00000
00001
00000
10000
00000
,
00100
10000
00001
00100
00001
10000
00100
00000
,
02020
00000
03030
00000
,
00002
00000
10003
00000
,
01110
00000
00000
00000
,
01000
00010
01000
00010
00100
00010
00100
00010
01000
00010
01000
00010
10000
00001
10000
00001
,
00100
00010
00100
00001
00100
00010
00100
00001
,
10000
00100
10000
00100
01000
00010
00100
00010
,
00001
00010
00100
00010
00001
00010
00100
00001
,
00010
00100
01000
00100
00010
00100
01000
00100
,
10000
00100
00001
00100
10000
00010
00100
00001
,
01000
00010
00100
00010
10000
00001
01000
00010
,
00100
00010
00100
01000
00100
00010
00100
01000
,
10000
00100
01000
00010
00100
00001
10000
00000
,
10001
00000
00010
00100
00010
00000
00110
00000
,
01100
00000
01000
00100
01000
00000
11000
00000
,
10100
00000
00010
01000
00100
00000
01100
00000
,
01010
00100
00011
00101
,
10000
00100
10000
00000
00100
00000
00100
00000
01000
00000
01000
00000
00010
00000
00010
00000
,
00100
00010
00100
00000
00010
00000
00010
00000
01000
00000
00001
00000
10000
00000
00001
00000
,
00010
00100
00010
00000
00100
00000
00010
00000
00001
00000
01000
00000
00001
00000
10000
00000
,
00100
01000
00100
00000
10000
00100
10000
00000
00001
00100
00001
00000
10000
00000
10001
00000
,
10000
00000
00100
00000
01000
00000
10000
00000
00100
01000
00100
00000
10000
00000
00001
00000
,
00010
00100
00010
00000
00001
00000
01000
00000
00010
00100
00010
00100
00010
01000
00010
01000
,
00100
10000
00001
00100
00001
00001
10000
00001
,
01000
00100
01000
00100
01000
00010
01000
00010
00100
00010
00100
00010
01000
00000
01100
00000
,
00010
00100
00010
00001
00010
00100
00010
00001
,
00010
00220
00330
00000
10001
02200
03300
00000
,
10000
00100
00001
00100
10000
00100
00001
00100
,
10000
22000
33000
00100
00010
00022
00033
00000
,
00200
00300
00000
00000
;

//---------------pump-double - nitenitemare----------------
#NOTES:
     pump-double:
     nitenitemare:
     Edit:
     1:
     -1.000,-1.000,-1.000,-1.000,-1.000:
;

//---------------dance-single - M. Calfin----------------
#NOTES:
     dance-single:
     M. Calfin:
     Edit:
     9:
     -1.000,-1.000,-1.000,-1.000,-1.000:
;

//---------------dance-single - M. Calfin----------------
#NOTES:
     dance-single:
     M. Calfin:
     Hard:
     7:
     0.522,0.000,0.355,0.550,0.000:
0000
0000
0000
0000
,
0000
0000
0000
0000
,
0000
0000
0000
0000
,
0000
0000
0000
0000
,
2002
0000
0000
3003
,
0001
0000
0100
0010
1000
0100
1000
0100
,
0010
0000
0001
0000
0100
0010
0100
0010
,
1000
0000
0100
0000
1000
0100
0010
0001
,
0100
0000
0010
0000
1000
0100
1000
0000
,
0100
0000
0010
0000
0001
0100
0010
0100
,
0010
0000
1000
0000
0100
1000
0100
0000
,
0011
0000
1100
0000
0100
0010
0100
0000
,
0011
0000
0110
0000
0100
1000
0010
0000
,
0220
0000
0330
0001
0100
0010
1000
0100
,
2200
0000
3300
0100
0010
0001
0100
0010
,
2020
0000
3030
0010
0100
0001
0100
0001
,
0022
0000
0033
0001
0010
0200
1300
0000
,
2200
0000
3300
0100
0010
0001
0100
0010
,
2020
0000
3030
0010
0100
0001
0010
0000
,
0022
0000
0033
0001
0010
0100
1000
0100
,
2200
0000
3300
0100
0010
0002
0103
0000
,
0220
0000
0330
0010
1000
0100
1000
0100
,
0220
0000
0330
0001
0010
0001
0100
0001
,
0022
0000
0033
0001
0100
0010
1000
0100
,
2200
3300
1000
0000
0100
0000
0010
0000
,
0001
0000
0100
0000
0010
1000
0100
0000
,
0010
0000
0001
0000
0100
0010
1000
0000
,
0100
0000
0010
0000
0001
0100
0010
0000
,
1000
0000
0100
0000
0010
0001
0010
0000
,
0022
0000
0033
0001
0100
0010
1000
0100
,
0000
0011
0000
1000
0100
0010
0100
0000
,
0011
0000
0000
0100
0010
1000
0010
0100
,
0000
0001
0000
0100
0001
0010
0100
0000
,
1100
0000
0000
0010
0001
0100
0010
1000
,
0000
0010
0000
0100
0001
0100
0001
0000
,
0011
0000
0000
0010
0100
1000
0100
0010
,
0000
0001
0000
0100
0010
1000
0001
0000
,
0101
0000
0000
0001
0100
0010
1000
0100
,
0000
0010
0000
0001
0100
0010
1000
0000
,
1100
0000
0000
0100
1000
0100
0010
0001
,
0000
0001
0000
0100
0010
1000
0100
0000
,
0110
0000
0000
0010
0001
0100
0010
1000
,
0220
0000
0330
0001
0100
0001
0010
0001
,
0022
0000
0033
0001
0010
0100
1000
0010
,
0220
0000
0330
0001
0100
0001
0010
0100
,
2200
0000
3300
0100
1000
0010
0100
0010
,
0220
0000
0330
0001
0100
0001
0010
0100
,
2200
0000
3300
0100
1000
0010
0100
0001
,
0202
0000
0303
0001
0100
0010
1000
0100
,
2200
0000
3300
0100
0010
0001
0100
0010
,
2020
0000
3030
0010
0100
0001
0010
0100
,
2200
0000
3300
0100
0010
0001
0100
0010
,
2200
0000
3300
0100
1000
0100
0010
0001
,
0202
0000
0303
0010
0100
0010
1000
0010
,
M2MM
0000
0300
0001
0010
0100
1000
0100
,
MM2M
0000
0000
0031
0100
0010
1000
0001
,
M2MM
0000
0000
0310
0000
1000
0100
1000
,
2200
0000
0000
0000
0000
0000
0000
3300
;

//---------------dance-single - M. Calfin----------------
#NOTES:
     dance-single:
     M. Calfin:
     Medium:
     4:
     0.373,0.000,0.047,0.075,0.000:
0000
0000
0000
0000
,
0000
0000
0000
0000
,
0000
0000
0000
0000
,
0000
0000
0000
0000
,
2002
0000
0000
3003
,
0001
0000
0100
0000
0010
1000
0010
0000
,
0100
0000
0001
0000
0010
0100
0010
0000
,
0100
0000
1000
0000
0010
0100
0010
0000
,
0100
0000
0001
0000
1000
0100
1000
0000
,
0100
0000
0010
0000
0001
0100
0010
0000
,
0100
0000
0010
0000
1000
0010
0100
0000
,
0001
0000
0010
0000
0100
1000
0010
0000
,
0100
0001
0010
0100
,
2002
0000
3003
0001
0100
0010
1000
0100
,
0010
0000
0000
0001
0010
0001
0100
0010
,
1000
0000
0000
0010
0100
0001
0100
0001
,
0010
0000
0000
0010
0100
1000
0100
1000
,
0010
0000
0000
0100
0001
0100
0001
0010
,
0100
0000
0000
1000
0100
1000
0001
0100
,
0010
0000
0000
1000
0001
0100
0001
0010
,
0100
0000
0000
1000
0010
0100
0001
0010
,
0100
0000
1000
0000
0010
0100
0001
0000
,
0010
0000
0100
0000
1000
0100
1000
0000
,
0010
0000
0100
0000
0001
0100
0001
0000
,
1000
0100
0010
0001
,
0100
0000
0010
0000
1000
0010
0100
0000
,
0001
0000
0010
0000
0100
1000
0010
0000
,
0100
0000
0001
0000
0010
0001
0010
0000
,
0100
0000
1000
0000
0100
1000
0100
0000
,
0010
0000
0000
0001
0100
0010
1000
0010
,
0000
0100
0000
0001
0010
0100
1000
0000
,
0100
0000
0010
0001
0100
0010
1000
0010
,
0000
0100
0000
0001
0010
0100
1000
0000
,
1100
0100
0010
0001
,
0100
0000
0010
0000
1000
0010
0100
0000
,
0001
0010
0100
1000
,
0010
0000
0100
0000
0001
0100
0001
0000
,
0010
0100
1000
0010
,
0100
0000
0010
0000
1000
0010
0100
0000
,
0001
0010
0100
1000
,
0010
0100
0001
0010
,
2002
3003
0001
0100
,
0010
0000
1000
0000
0100
0010
0001
0000
,
0100
0000
0010
0000
1000
0100
0010
0000
,
0001
0000
0100
0000
0010
1000
0100
0000
,
0010
0000
0001
0000
0100
0010
1000
0000
,
0100
0000
0010
0000
0001
0100
0010
0000
,
1000
0000
0010
0000
0100
0001
0010
0000
,
0001
0000
0100
0000
0010
1000
0100
0000
,
0010
0000
0001
0000
0100
0010
1000
0000
,
0010
0000
0100
0000
0001
0010
0100
0000
,
0010
0000
0100
0000
1000
0010
0100
0000
,
0001
0000
1000
0000
0100
0010
0001
0000
,
0100
0000
0010
0000
1000
0100
0010
0000
,
0001
0000
0100
0000
0010
1000
0100
0010
,
0001
0000
0100
0000
0010
1000
0100
0010
,
0100
0000
0010
0000
0100
0010
0001
0010
,
0220
0000
0000
0330
;

//---------------dance-single - M. Calfin----------------
#NOTES:
     dance-single:
     M. Calfin:
     Easy:
     2:
     0.289,0.000,0.019,0.037,0.000:
0000
0000
0000
0000
,
0000
0000
0000
0000
,
0000
0000
0000
0000
,
0000
0000
0000
0000
,
2002
0000
0000
0000
0000
3000
0003
0000
,
0001
0100
0010
0000
,
0100
0010
0001
0100
,
0010
1000
0010
0100
,
0001
0010
0100
0010
,
0001
0100
0010
1000
,
0100
1000
0010
0100
,
0001
0010
0001
0100
,
0010
1000
0010
0100
,
0010
1000
0010
0100
,
0001
0010
0100
1000
,
0100
0010
0100
0010
,
0001
0100
0010
1000
,
0010
0100
0001
0010
,
0100
1000
0100
0010
,
0001
0100
0010
1000
,
0010
0100
0001
0010
,
0100
1000
0100
0010
,
0100
0010
0001
0010
,
0001
0100
0001
0100
,
0001
0000
0010
0000
0100
1000
0100
0000
,
0010
0001
0100
0010
,
1000
0010
0100
0001
,
0010
0000
0100
0000
1000
0100
1000
0000
,
0100
0010
0001
0100
,
0010
0000
0000
1000
0000
0000
0010
0000
,
0000
0100
0000
0000
0001
0000
0010
0000
,
0100
0000
0000
0000
1000
0000
0000
0010
,
0000
0100
0000
0000
0001
0000
0010
0000
,
0100
1000
0010
0100
,
0001
0010
0100
1000
,
0010
1000
0100
0010
,
0001
0100
0010
0100
,
0010
1000
0010
0100
,
0010
0100
0001
0010
,
0100
1000
0010
1000
,
0010
0000
0100
0000
0001
0100
0001
0000
,
0010
0100
1000
0010
,
0100
0001
0010
0100
,
1000
0010
0100
0001
,
0010
0000
0001
0000
0100
0010
1000
0000
,
0010
0100
0001
0010
,
0100
1000
0010
0100
,
0010
0100
0010
1000
,
0001
0000
0010
0000
0100
1000
0010
0000
,
0100
0001
0010
0100
,
1000
0010
0100
0001
,
0010
0100
1000
0010
,
0100
0000
0001
0000
0010
0100
1000
0000
,
0010
0100
0001
0010
,
0100
0010
0001
0100
,
0010
1000
0100
1000
,
0010
0100
0001
0010
,
0220
0000
0000
0330
;

//---------------dance-single - M. Calfin----------------
#NOTES:
     dance-single:
     M. Calfin:
     Beginner:
     1:
     0.195,0.000,0.084,0.000,0.000:
0000
0000
0000
0000
,
0000
0000
0000
0000
,
0000
0000
0000
0000
,
0000
0000
0000
0000
,
1001
0000
0000
0000
,
0001
0000
0100
0010
,
1000
0000
0100
0000
,
0010
0000
0001
0100
,
0010
0000
1000
0000
,
0001
0000
0100
0001
,
1000
0000
0100
0000
,
0010
0000
0001
0100
,
0001
0000
1000
0000
,
0100
0000
0010
0001
,
0100
0000
0010
0000
,
1000
0000
0100
0010
,
0001
0000
0100
0000
,
0010
0000
1000
0100
,
1000
0000
0001
0000
,
0100
0000
0010
1000
,
0100
0000
0010
0000
,
0001
0100
0010
0000
,
1000
0010
0100
0000
,
0001
0010
0100
0000
,
1000
0100
0010
0000
,
0001
0000
0100
0010
,
1000
0000
0100
0000
,
0010
0000
0001
0100
,
0010
0000
1000
0000
,
0100
0000
1000
0001
,
0100
0000
0010
0000
,
1000
0000
0100
0010
,
0001
0000
0100
0010
,
1000
0000
0001
0100
,
0010
0000
1000
0100
,
0010
0000
0001
0100
,
0010
0000
0010
1000
,
0001
0000
0100
0001
,
0010
0000
0100
1000
,
0010
0000
0100
0000
,
0001
0000
0010
0100
,
1000
0000
0010
0100
,
0001
0000
0010
0000
,
0100
0000
1000
0010
,
0100
0000
0001
0000
,
0100
0000
0010
1000
,
0100
0000
1001
0000
,
0100
0000
1000
0010
,
0100
0000
0101
0000
,
0001
0000
0010
0100
,
1000
0000
0110
0000
,
0010
0000
0100
0001
,
0010
0000
0110
0000
,
1000
0000
0010
0100
,
0001
0000
0110
0000
,
1000
0000
0110
0000
,
0100
0000
0110
0000
,
1001
0000
0000
0000
;

//---------------dance-double - J. Frederick----------------
#NOTES:
     dance-double:
     J. Frederick:
     Easy:
     4:
     0.263,0.000,0.271,0.121,0.000:
00000000
00000000
00000000
00000000
,
00000000
00000000
00000000
00000000
,
00000000
00000000
00000000
00000000
,
00000000
00000000
00000000
00000000
,
00022000
00000000
00000000
00033000
,
00001000
00000010
00000100
00000001
,
00000010
00000000
00000100
00000000
,
00000010
00001000
00000100
00000001
,
00001000
00000000
00010000
00000000
,
00100000
10000000
01000000
00100000
,
00010000
00000000
01000000
00000000
,
00010000
10000000
00100000
01000000
,
00010000
00000000
00001000
00000000
,
00001010
00000000
00000100
00000001
,
00000011
00000000
00000001
00001000
,
00001010
00000000
00000100
00001000
,
00001100
00000000
00001000
00010000
,
00011000
00000000
00010000
00100000
,
00110000
00000000
10000000
01000000
,
01100000
00000000
10000000
00010000
,
10010000
00000000
01000000
00100000
,
00020000
00030000
00010000
00010000
,
00200000
00300000
00100000
00100000
,
20000000
30000000
10000000
10000000
,
02000000
03000000
01000000
01000000
,
00011000
00001000
00001000
00000000
,
00000101
00000100
00000100
00000000
,
00000110
00000010
00000010
00000000
,
00001010
00000010
00000010
00000010
,
00000002
00000000
00000000
00000003
,
00000200
00000000
00000000
00000300
,
00000020
00000000
00000000
00000030
,
00022000
00000000
00000000
00033000
,
00001000
00010000
00001000
00100000
,
00010000
01000000
10000000
00000000
,
01000000
00100000
00010000
10000000
,
01000000
00100000
00010000
00000000
,
00001000
00000010
00000100
00000001
,
00000010
00000001
00000100
00000000
,
00000010
00001000
00000001
00000100
,
00000010
00000000
00001000
00000000
,
00001001
00000100
00000001
00000000
,
00000011
00000010
00000001
00000000
,
00000010
00001000
00000100
00000000
,
00001000
00010000
00100000
00000000
,
00110000
00100000
01000000
00000000
,
11000000
10000000
01000000
00000000
,
01100000
00100000
00010000
00000000
,
00011000
00001000
00000100
00000000
,
00000001
00000100
00000010
00001000
,
00000001
00000000
00000100
00000000
,
00000010
00001000
00010000
00100000
,
10000000
00000000
01000000
00100000
,
00110000
01000000
11000000
00000000
,
01100000
01000000
10010000
00000000
,
10010000
00001000
00001001
00000000
,
00000101
00000001
00001010
00000000
,
00022000
00000000
00000000
00033000
;

//---------------dance-double - J. Frederick----------------
#NOTES:
     dance-double:
     J. Frederick:
     Medium:
     6:
     0.353,0.000,0.215,0.261,0.000:
00000000
00000000
00000000
00000000
,
00000000
00000000
00000000
00000000
,
00000000
00000000
00000000
00000000
,
00000000
00000000
00000000
00000000
,
00022000
00000000
00000000
00033000
,
00011000
00000000
00000010
00000000
00000100
00000001
00000100
00000000
,
00000010
00000000
00001000
00000000
00000001
00000100
00000010
00000000
,
00001000
00000000
00000001
00000000
00000100
00000010
00001000
00000000
,
00010000
00000000
00100000
00000000
00010000
00100000
01000000
00000000
,
10000000
00000000
00100000
00000000
01000000
00100000
00010000
00000000
,
10000000
00000000
01000000
00000000
00100000
00000000
01010000
01000000
,
10000000
00000000
00100000
00000000
01000000
00010000
00100000
00000000
,
00010000
00000000
00001000
00000000
00000010
00000100
00000001
00000000
,
00000202
00000000
00000303
00000000
00000000
00000010
00000001
00000000
,
00000202
00000303
00001000
00000010
,
00002020
00003030
00000100
00000010
,
00000220
00000330
00000001
00001000
,
00002002
00003003
00001000
00000010
,
00002020
00003030
00001000
00010000
,
00022000
00033000
00010000
00100000
,
00220000
00330000
01000000
00100000
,
10000000
00000000
01000000
00000000
00100000
00010000
11000000
00000000
,
10000000
00000000
01000000
00000000
00100000
00010000
01010000
00000000
,
00100000
00000000
00010000
00000000
00001000
00000010
00001010
00000000
,
00000100
00000000
00000001
00000000
00000010
00000001
00000011
00000000
,
00000001
00000100
00000010
00001000
,
00010000
00100000
00010000
01000000
,
10000000
01000000
00100000
00010000
,
00001000
00000010
00000100
00000001
,
00000002
00000000
00000003
00000010
00000001
00000100
00000010
00001000
,
00000000
00000001
00000000
00000100
00000010
00001000
00000001
00000000
,
00000100
00000000
00000000
00000010
00001000
00010000
00100000
01000000
,
00000000
10000000
00000000
01000000
00100000
00010000
01000000
00000000
,
10000000
01000000
00100000
00010000
,
01000000
00000000
10000000
00000000
00100000
01000000
00100000
00000000
,
00010000
00001000
00000010
00000100
,
00000001
00000000
00000010
00000000
00000001
00000100
00000010
00000000
,
00001000
00000001
00000100
00000010
,
00001000
00000000
00010000
00000000
00100000
00010000
00100000
00000000
,
01000000
10000000
01000000
00100000
,
00010000
00000000
10000000
00000000
01000000
00100000
00010000
00000000
,
20000000
30000000
01000000
00100000
,
00020000
00030000
00001000
00000010
,
00000200
00000300
00000001
00000010
,
00000002
00000003
00000100
00000010
,
00002000
00003000
00010000
00100000
,
20000000
30000000
01000000
00100000
,
00020000
00030000
00001000
00000100
,
00000002
00000003
00000010
00000001
,
00000101
00000001
00000010
00000001
,
00001001
00000010
00001000
00000010
,
00000110
00000010
00001000
00010000
,
00011000
00100000
01000000
10000000
,
11000000
00100000
01000000
00000000
,
00110000
00100000
10000000
00000000
,
11000000
00100000
00010000
00000000
,
00001010
00000000
00000100
00000000
00000001
00000000
00000010
00000001
,
00000200
00000000
00000000
00000300
;

//---------------dance-single - D. Renzetti'----------------
#NOTES:
     dance-single:
     D. Renzetti':
     Challenge:
     9:
     0.666,0.000,0.439,0.485,0.294: // measure 1
0000
0000
0000
0000
,  // measure 2
0000
0000
0000
0000
,  // measure 3
0000
0000
0000
0000
,  // measure 4
0000
0000
0000
0000
,  // measure 5
2002
0000
0000
0000
0000
0000
0000
0000
3003
0000
0000
1000
0001
0000
MMMM
0000
,  // measure 6
1000
0010
1000
0100
0010
0001
0100
0020
,  // measure 7
0000
0000
0200
0000
0030
0000
0002
0300
0020
0003
0200
0030
2000
0300
0000
3000
,  // measure 8
0MM1
0100
0001
0010
0100
1000
0010
0200
,  // measure 9
0000
0000
0020
0000
0300
0000
2000
0030
0200
3000
0020
0300
0002
0030
0013
0100
,  // measure 10
10MM
0010
0100
0001
0010
0010
0001
0200
,  // measure 11
0000
0000
0020
0000
0300
0000
2000
0030
0002
3000
0200
0003
0020
0300
0000
0030
,  // measure 12
1M0M
00M0
0100
0000
1000
0000
0010
0000
0100
0000
0100
0000
0001
0000
0020
0000
,  // measure 13
0000
0000
0200
0000
0030
0000
13MM
0000
0010
0100
0001
0000
0010
0000
0100
0000
,  // measure 14
1000
0000
1200
0000
0301
0100
1000
0000
,  // measure 15
0001
0000
0201
0000
1300
0100
0001
1000
,  // measure 16
0100
0000
0120
0000
1030
0010
0001
0000
,  // measure 17
0100
0000
0000
0000
1002
0000
0000
0000
0100
0000
0010
0000
0103
0000
0001
1000
,  // measure 18
0100
0000
0010
0000
0001
0000
0100
0000
1000
0000
0100
0000
0010
0000
1000
0100
,  // measure 19
0001
0000
0100
0000
1000
0000
0010
0000
0001
0000
0010
0000
0100
0000
0001
0010
,  // measure 20
1000
0000
0010
0000
0001
0000
0100
0000
0010
0000
1000
0000
0100
0000
1000
0010
,  // measure 21
0001
0000
0010
0000
0100
0000
0010
0000
1000
0000
0100
0010
0100
0000
1000
0000
,  // measure 22
0001
0000
0101
0000
01MM
0000
0000
0400
0040
0000
0000
0000
0330
0000
0100
0000
,  // measure 23
0001
0000
1001
0000
10MM
0000
0000
4000
0040
0000
0000
3000
0030
1000
0100
0010
,  // measure 24
0001
0000
0011
0000
0M1M
0000
0000
0040
0004
0000
0000
0000
0033
0000
0001
0000
,  // measure 25
1000
0000
1100
0000
M1M0
0000
0000
0400
4000
0000
0000
0000
3300
0000
1000
0000
,  // measure 26
0010
0000
0110
0000
1000
0000
0000
0001
1000
0001
1000
0000
1001
0000
0001
0000
,  // measure 27
0100
0000
0110
0000
0001
0000
0000
1000
0001
1000
0001
0000
1001
0000
0010
0000
,  // measure 28
0100
0000
0101
0000
0001
0000
0000
0001
0100
0001
0100
0000
0110
0000
0010
0000
,  // measure 29
1000
0000
1010
0000
0010
0000
0000
1000
0010
1000
0010
0000
0110
0000
MMMM
0000
,  // measure 30
2002
0000
3000
2000
0013
0002
3010
2000
,  // measure 31
3003
1001
0000
1000
0100
0001
0100
0000
,  // measure 32
2002
0000
0003
0001
0100
0010
0100
3010
,  // measure 33
1000
0100
0010
0001
1000
0010
0100
0001
1000
0100
1000
0100
0010
0001
0010
0001
,  // measure 34
0100
0010
1010
1000
0001
0010
0001
0101
,  // measure 35
0100
0000
0110
0000
0010
0000
2000
0000
0200
3000
0020
0300
0002
0030
0100
0003
,  // measure 36
0010
1000
1010
1000
0001
0010
0001
0011
,  // measure 37
0001
0000
0101
0000
0100
0000
0002
0000
0020
0003
0200
0030
2000
0300
0001
3010
,  // measure 38
0100
1000
1010
0010
0100
0001
1000
1001
,  // measure 39
0001
0000
0011
0000
0001
0000
0200
0000
0020
0300
2000
0030
3001
0000
MMMM
0000
,  // measure 40
1000
0100
0011
0001
0100
0010
1000
1100
,  // measure 41
0010
1100
1000
0001
0010
0002
2000
3003
,  // measure 42
1002
00M0
M103
0000
012M
0000
0M31
0010
,  // measure 43
0102
0M00
1003
000M
12M0
0000
M301
0100
,  // measure 44
1000
0010
0001
0010
0100
0001
0010
0000
,  // measure 45
0001
0000
1000
0000
0001
0000
0100
0000
0010
0000
1000
0000
0100
0000
0010
0100
,  // measure 46
0010
0000
0011
0000
0MM1
0000
0000
0004
0400
0000
0000
0000
0303
0000
0100
0000
,  // measure 47
0010
0000
1010
0000
1MM0
0000
0000
4000
0004
0000
0000
3000
0003
1000
0100
0010
,  // measure 48
0001
0000
0110
0000
M1M0
0000
0000
0400
0040
0000
0000
0000
0330
0000
0010
0000
,  // measure 49
1000
0000
1001
0000
M0M1
0000
0000
0004
0040
0000
0000
0000
0033
0000
0010
0000
,  // measure 50
0100
0000
0110
0000
1M0M
0000
0000
1000
0001
1000
0001
0000
0101
0000
0100
0000
,  // measure 51
0010
0000
1010
0000
M10M
0000
0000
0100
0010
0100
0010
0000
0101
0000
0001
0000
,  // measure 52
1000
0000
1100
0000
M10M
0000
0000
0100
1000
0100
1000
0000
1010
0000
0010
0000
,  // measure 53
0100
0000
1001
0000
M1M0
0000
0000
0100
0001
0100
0001
0010
0100
0000
1000
0000
,  // measure 54
0100
0000
0010
0001
0000
0000
0100
0010
0000
0000
1000
0100
0000
0000
1000
0010
,  // measure 55
0100
0000
0001
0010
0000
0000
0001
1000
0000
0000
0010
1000
0100
0000
0010
0001
,  // measure 56
0000
0000
0100
0001
0000
0000
1000
0010
0000
0000
1000
0100
1000
0000
0010
0100
,  // measure 57
0000
0000
0001
0010
0000
0000
0001
1000
0000
0000
0100
1000
0010
0000
02M0
0000
,  // measure 58
2000
0000
0000
3300
0000
0000
0000
0000
;

//---------------dance-double - S. Venkat----------------
#NOTES:
     dance-double:
     S. Venkat:
     Hard:
     8:
     0.534,0.479,0.504,0.037,0.075,343.000,54.000,4.000,23.000,0.000,4.000,0.534,0.479,0.504,0.037,0.075,343.000,54.000,4.000,23.000,0.000,4.000: // measure 1
00000000
00000000
00000000
00000000
,  // measure 2
00000000
00000000
00000000
00000000
,  // measure 3
00000000
00000000
00000000
00000000
,  // measure 4
00000000
00000000
00000000
00000000
,  // measure 5
M0M00202
00000000
00000000
00000000
00000000
00000000
00000000
00000000
00000303
00000000
00000000
00000010
00010000
00000000
00001000
00000000
,  // measure 6
00101000
00000000
00001000
00100000
00010000
01000000
00100000
10000000
,  // measure 7
0000M000
10000000
0000M000
10000000
00010000
01000000
00001000
00000000
,  // measure 8
01001000
00000000
00010000
00000010
00001000
00000100
00000010
00000001
,  // measure 9
000M0000
00000001
000M0000
00000001
00000100
00000010
00001000
00000000
,  // measure 10
00001010
00000000
00000010
00001000
00000100
00010000
01000000
10000000
,  // measure 11
0000M000
10000000
0000M000
10000000
00100000
00010000
00001000
00000000
,  // measure 12
00011000
00000000
00010000
00000100
00000010
00000001
00000100
00001000
,  // measure 13
M0000000
00000000
00001000
00000000
M0000000
00000000
00001000
00000000
00010000
00001000
00010000
00001000
00010000
00000000
00000000
00000000
,  // measure 14
00001001
00000000
00000001
00000010
00000100
00010000
01000000
10000000
,  // measure 15
10100000
00000000
10000000
01000000
00100000
00001000
00000010
00000001
,  // measure 16
00000101
00000000
00000001
00001000
00000010
00010000
00001000
01000000
,  // measure 17
01100000
00000000
00100000
10000000
01000000
00010000
00000010
00001000
,  // measure 18
00001100
00000000
00000100
00001000
01000000
00010000
00000010
00001000
,  // measure 19
00001001
00000000
00000001
00000010
00001000
00100000
01000000
10000000
,  // measure 20
11000000
00000000
10000000
00001000
00100000
00000010
00010000
00000001
,  // measure 21
00000101
00000000
00000000
00000000
00000001
00000000
00010000
00000000
00000100
00000000
00000000
00010000
00001000
00000000
00100000
00000000
,  // measure 22
00110000
00010000
00100000
01000000
00100000
10000000
00100000
01000000
,  // measure 23
00100000
00010000
00100000
00001000
00100000
00000010
00100000
00001000
,  // measure 24
00010000
00001000
00010000
00000010
00010000
00000100
00010000
00000001
,  // measure 25
M0010000
0000010M
M0010000
0000001M
M0010000
0000100M
00010000
01000M00
,  // measure 26
1000000M
11000000
00000000
10010000
00000000
00101000
00000000
00011000
,  // measure 27
00000000
00010010
00000000
00001001
00000000
00000101
00000000
00000011
,  // measure 28
00000000
00000110
00000000
00010100
00000000
00011000
00000000
01001000
,  // measure 29
00000000
00000000
01100000
00000000
00000000
00000000
10100000
00000000
00000000
00000000
11000000
00000000
00000000
00000000
10000000
01000000
,  // measure 30
10000000
00000000
00000000
01000000
00100000
00010000
02000000
00001000
,  // measure 31
00000000
00010000
03000000
00001000
00020000
00001000
00030100
00000000
,  // measure 32
01000100
00000000
00000100
00001000
01000000
10000000
00100000
01000000
,  // measure 33
00000000
00000000
01000000
00000000
00000000
00000000
01000000
00000000
00010000
00100000
00010000
00100000
00001000
00010000
00001000
00010000
,  // measure 34
00000100
00000000
00000100
00000010
00000001
00000100
00001000
01000000
,  // measure 35
00000M00
01000000
00000M00
01000000
00100000
00010000
00000010
00000000
,  // measure 36
00001010
00000000
00000010
00000100
00001000
00100000
01000000
10000000
,  // measure 37
0000M000
00000000
10000000
00000000
0000M000
00000000
10000000
00000000
01000000
00000000
00100000
00000000
00010000
00000000
00100000
00001000
,  // measure 38
00010000
00000000
00000010
00001000
00000001
00000100
00001000
00100000
,  // measure 39
01100000
00000000
01000000
00100000
01000000
00010000
00001000
01000000
,  // measure 40
01001000
00000000
00001000
00010000
00000010
00000100
00001000
00100000
,  // measure 41
00110000
00000000
00010000
00100000
01000000
10000000
00001000
00010000
,  // measure 42
00010100
00000100
00001000
00000100
00000010
00000100
00000001
00000100
,  // measure 43
00000010
00000100
00001000
00000100
00010000
00000100
01000000
00000100
,  // measure 44
00010000
00001000
00100000
00001000
01000000
00001000
10000000
00001000
,  // measure 45
01000000
00000000
00001000
00000000
00100000
00000000
00001000
00000000
00010000
00000000
00000100
00000000
00000010
00000000
00000001
00000010
,  // measure 46
00000100
00000110
00000000
00001100
00000000
00010100
00000000
00011000
,  // measure 47
00000000
00101000
00000000
00110000
00000000
01100000
00000000
11000000
,  // measure 48
00000000
10010000
00000000
01010000
00000000
01001000
00000000
00011000
,  // measure 49
00000000
00000000
00010010
00000000
00000000
00000000
00001010
00000000
00000000
00000000
00001000
00000001
00000100
00000000
00000010
00000000
,  // measure 50
00001000
00000100
00000001
00000100
00001000
00000100
00000001
00000100
,  // measure 51
00010000
01000000
10000000
01000000
00010000
01000000
10000000
01000000
,  // measure 52
00010000
00000010
00000001
00000010
00001000
00000010
00000001
00000010
,  // measure 53
00010000
00000000
00100000
00000000
10000000
00000000
00100000
00000000
00010000
00000000
00100000
10000000
01000000
00000000
00100000
00000000
,  // measure 54
00040000
00400000
00000000
00000000
00000000
00000000
00000000
00000000
00000000
00000000
00330000
00000000
00000000
00000000
00000000
00000000
,  // measure 55
00100000
00101000
00000000
00011000
00000000
00010100
00000000
00000100
,  // measure 56
00004000
00000400
00000000
00000000
00000000
00000000
00000000
00000000
00000000
00000000
00003300
00000000
00000000
00000000
00000000
00000000
,  // measure 57
00001000
00000000
00001001
00000000
00000000
00000000
00010100
00000000
00000000
00000000
00001000
00010000
00100000
00000000
01000000
00000000
,  // measure 58
0000000M
00000000
00000000
00000000
;

//---------------dance-double - S. Venkat----------------
#NOTES:
     dance-double:
     S. Venkat:
     Challenge:
     10:
     0.638,0.669,0.215,0.215,0.271,433.000,23.000,23.000,23.000,0.000,2.000,0.638,0.669,0.215,0.215,0.271,433.000,23.000,23.000,23.000,0.000,2.000:
00000000
00000000
00000000
00000000
,
00000000
00000000
00000000
00000000
,
00000000
00000000
00000000
00000000
,
00004000
M004000M
00000000
00000000
00000000
0M0000M0
00000000
00M00M00
00000000
M000000M
00000000
00000000
M003300M
00000000
00000000
00000000
,
00200020
00000000
00000000
00000000
00000000
00000000
00000000
00000000
00300030
00000000
00000000
00001000
00000100
00000000
00001100
00000000
,
00000110
00000010
00000001
00000100
00001000
00010000
00200000
10000000
,
00000000
01000000
00300000
00010000
00200000
01000000
10000000
00300000
,
10100000
10000000
00100000
00010000
00001000
00000100
00000002
00000010
,
00000000
00000000
00001000
00000000
00000003
00000000
00010000
00000000
00002000
00000000
00100000
00000000
01003000
00000000
01000000
00100000
,
10000000
01000000
00010000
01000000
00010000
00001000
00000200
00000010
,
00000000
00000001
00000300
00000010
00002000
00000001
00000100
00003000
,
00001100
00000100
00010000
00001000
00100000
00010000
02000000
00001000
,
00000000
00000000
00010000
00000000
03000000
00000000
00100000
00000000
10000000
01000000
00100000
00010000
00100000
00000000
00001000
00010000
,
00000010
00010000
00001000
00010000
00000100
00010000
00100000
10000000
,
01000000
00010000
00001000
00000100
00000010
00000001
00001000
00000100
,
00000010
00100000
00001000
00010000
00000100
00000010
00000001
00000100
,
00001000
00000000
00010000
00000000
00100000
00000000
01000000
00000000
10000000
00000000
00010000
00000000
00100000
00000000
10000000
01000000
,
00100000
00010000
00100000
00001000
01000000
00001000
00010000
00000010
,
00010000
00000100
01000000
00000100
00010000
00001000
00010000
01000000
,
10000000
00100000
10000000
00010000
00100000
00010000
00100000
00001000
,
00010000
00000000
00000010
00000000
00010000
00000000
00000001
00000000
00001000
00000000
00000010
00001000
00000100
00000000
00001000
00000000
,
00000001
00000000
00000200
00000000
0000000M
00000000
00000300
00000010
00001000
00000010
00020000
00000000
00000000
000000M0
00030000
00000000
,
00001000
00000000
02000000
00000000
0000M000
00000000
03000000
00010000
01000000
00100000
20000000
00000000
00000000
00M00000
30000000
00000000
,
01000000
00000000
00200000
00000000
0M000000
00000000
00300000
00010000
00100000
00001000
00020000
00000000
00000000
0000M000
00030000
00000000
,
00000100
00000110
00000000
00000011
00000000
00010001
00000000
00011000
,
01001000
00000000
01000000
00000000
00010000
00000000
10000000
00010000
10000000
00100000
10000000
00000000
01000000
00000000
00100000
00000000
,
00110000
00000000
00010000
00000000
01000000
00000000
00001000
00010000
00000100
00001000
00000100
00000000
00000010
00000000
00000001
00000000
,
00001001
00000000
00001000
00000000
00000010
00000000
00001000
00000010
00010000
00001000
01000000
00000000
00100000
00000000
10000000
00000000
,
11000000
00000000
01000000
00000000
00100000
00000000
00001000
00010000
00001000
00010000
00001000
00000000
00010000
00000000
00000010
00001000
,
00000100
00000000
00000000
00000010
00000001
00000100
00002000
00010000
,
00000000
00100000
00003000
10000000
00020000
00100000
01000000
00030000
,
01010000
00000000
00010000
01000000
00001000
00010000
00000100
00000010
,
00000001
00000010
00000001
00000010
00000100
00010000
00000100
00010000
00001000
00100000
00001000
00100000
01000000
10000000
01000000
00000000
,
11000000
10000000
01000000
00100000
00001000
00010000
00000020
00001000
,
00000000
00000100
00000030
00000100
00000002
00000010
00001000
00000003
,
00001001
00001000
00000010
00010000
00001000
01000000
00200000
00010000
,
00000000
00000000
01000000
00000000
00300000
00000000
01000000
00000000
00020000
00000000
10000000
00000000
00130000
00000000
00100000
00001000
,
00010000
00001000
00000100
00000001
00000010
00001000
00010000
01000000
,
10000000
01000000
00100000
10000000
00010000
01000000
00010000
00001000
,
00000010
00000001
00001000
00000010
00000001
00000010
00001000
00000100
,
00010000
01000000
10000000
01000000
00100000
00001000
00000100
00000001
,
00010000
00000100
01000000
00010000
00100000
00000010
00001000
00000100
,
00010000
00001000
10000000
00100000
01000000
00010000
01000000
00001000
,
00100000
00000010
00010000
00000001
00000010
00000100
00001000
00000010
,
00010000
00000000
00001000
00000000
00100000
00000000
00010000
00000000
10000000
00000000
00100000
00000000
01000000
00000000
00001000
00010000
,
00000100
00000010
00001000
00000010
00000100
00000010
00001000
00000010
,
00001000
00010000
01000000
00010000
00001000
00010000
01000000
10000000
,
10100000
00100000
01000000
10000000
01000000
00100000
01000000
10000000
,
01000000
00000000
00001000
00000000
00010000
00000000
00001000
00000000
01000000
00000000
00001000
00010000
00000100
00000000
00001000
00000000
,
00001001
00000000
00000001
00000000
00000100
00000000
00000010
00001000
00000100
00010000
00001000
00000000
00010000
00000000
00100000
00000000
,
10100000
00000000
10000000
00000000
00100000
00000000
01000000
00010000
00100000
00001000
00010000
00000000
00000100
00000000
00000010
00000000
,
00000110
00000000
00000100
00000000
00001000
00000000
00000001
00000100
00000010
00001000
00000010
00000000
00010000
00000000
00001000
00000000
,
00101000
00000000
00100000
00000000
00010000
00000000
01000000
00001000
00010000
00000000
00001000
00010000
00000010
00000000
00001000
00000000
,
00000100
00010000
M0000100
00010000
00000100
00010000
M0000100
00010000
00000100
00010000
00000100
00000000
00000000
00000000
00000000
00000000
,
00010000
00001000
01000000
00001000
10000000
00001000
00100000
00001000
,
01000000
00001000
0100000M
00001000
01000000
00001000
0100000M
00001000
01000000
00001000
01000000
00000000
00000000
00000000
00000000
00000000
,
01000000
00000000
00001000
00000000
00010000
00000000
00000100
00000000
00000010
00000000
00000001
00001000
00000100
00000000
00001100
00000000
,
M20M020M
00000000
00000000
03000300
00000000
00000000
00000000
00000000
;
