#TITLE:Dance All Night;
#SUBTITLE:;
#ARTIST:Oscillator X;
#TITLETRANSLIT:;
#SUBTITLETRANSLIT:;
#ARTISTTRANSLIT:;
#GENRE:Synth;
#CREDIT:;
#BANNER:Dance All Night-bn.png;
#BACKGROUND:Dance All Night-bg.png;
#LYRICSPATH:;
#CDTITLE:;
#MUSIC:Dance All Night.ogg;
#OFFSET:-0.003;
#SAMPLESTART:84.000;
#SAMPLELENGTH:11.860;
#SELECTABLE:YES;
#BPMS:0.000=140.000;
#STOPS:;
#BGCHANGES:0.526=Dance All Night.mpg=1.000=1=0=0=StretchNoLoop==CrossFade==,
99999=-nosongbg-=1.000=0=0=0 // don't automatically add -songbackground-;
#KEYSOUNDS:;

//---------------dance-single - J. Frederick----------------
#NOTES:
     dance-single:
     J. Frederick:
     Edit:
     9:
     0.639,0.000,0.165,0.392,0.348:
0000
0000
0000
0000
,
0000
0000
0000
0000
,
1000
0001
0010
0100
1000
0100
0010
0001
,
0010
0000
0001
1000
0001
0000
1000
0000
0010
0000
0100
0000
0010
0000
1000
0000
,
0100
0000
0010
0100
0010
0000
0001
0000
1000
0000
0001
0000
0100
0000
0010
0000
,
1000
0010
0100
0001
0010
0100
1000
0100
0010
0000
0001
1000
0010
0100
0010
1000
,
0100
0010
0001
1000
0010
0100
0001
0010
,
0002
0000
2000
0000
0010
0000
0100
3003
,
0000
1000
0010
0100
0001
0010
0100
1000
,
0200
0000
2000
0000
0001
0000
0010
3300
,
0000
1000
0010
0100
0001
0010
0100
1000
,
0200
0000
0000
0000
2000
0000
0000
0000
0010
0300
0000
0000
3100
0000
0001
0000
,
0010
0000
0001
0000
1000
0010
0100
0010
,
1000
0100
0010
0001
0100
0001
1000
0000
,
1000
0000
0010
0000
0100
0000
0001
0010
0000
0010
0100
0000
1000
0000
0100
0000
,
0010
0000
0000
0000
0010
0000
0001
0100
0000
0100
0001
0000
1000
0000
0010
0000
,
0000
0000
0100
0000
0010
0000
1000
0100
0000
0100
0010
0000
0001
0000
0100
0000
,
0001
0000
0000
0000
1000
0000
0001
0100
0000
0100
0001
0000
0010
0000
0001
0000
,
0000
1000
0010
0100
0110
0000
1000
0010
,
0000
0010
0100
0001
0010
0100
1000
0100
,
0000
0100
0010
0001
0011
0000
0010
0001
,
0100
0100
0001
1000
0010
0100
0010
1000
,
0000
0000
1000
0000
0100
0000
0010
0000
0002
0000
0000
0003
1000
0000
0010
0000
,
0100
0010
1000
0100
0010
0001
0100
0001
,
0000
2000
0002
3000
0103
0010
1000
0010
,
0200
0302
0023
0230
,
1300
0000
0100
0000
0010
0001
0000
0100
0010
0000
0100
0001
0000
0100
0010
0000
,
0100
0000
0010
0000
1000
0010
0000
0100
0001
0000
0010
0100
0000
1000
0100
0000
,
0010
0000
0001
0000
0100
0001
0000
1000
0001
0000
0100
0010
0000
1000
0010
0000
,
0100
0000
0010
0000
1000
0100
0000
0010
0001
0000
0010
0100
0000
1000
0010
0000
,
0100
0000
0001
0000
0010
0001
0000
1000
0001
0000
0100
0001
0000
1000
0001
0000
,
0100
0000
0010
0000
1000
0010
0000
0100
0010
0000
0001
0010
0000
0100
0010
0000
,
2000
0000
0200
0000
3310
0001
0010
0100
,
0110
1001
1001
1001
,
1000
0000
0010
0000
0100
0000
0010
0100
0000
0010
1000
0000
0100
0000
0010
0000
,
0001
0000
0010
0000
0100
0000
1000
0100
0000
0000
0010
0000
0001
0000
0000
0000
,
2001
32M0
M320
2030
,
3M20
023M
03M2
0M23
,
M230
23M0
302M
0032
,
M023
2M30
32M0
032M
,
0M32
0000
0203
0000
0301
1000
0M02
0000
,
02M3
0000
0000
0000
M320
0000
0000
0000
203M
0000
0000
0000
00M2
3000
0000
0000
,
0M23
023M
0302
0013
,
0011
1100
0110
0011
,
1000
0000
0001
0000
0100
0000
0001
0100
0000
0100
0001
0000
1000
0000
0010
0000
,
01MM
M100
01MM
M100
,
1000
0000
0010
0000
0100
0000
0010
0001
0000
0001
0010
0000
0100
0000
1000
0000
,
0100
0000
0000
0000
0000
0000
0010
0001
0000
0001
0100
0000
0001
0000
1000
0000
,
1001
0000
0000
0000
0000
0000
0000
0000
1000
0001
1000
0001
1000
0000
0100
0010
,
0100
1000
0010
0100
0001
0000
0001
0010
,
0200
0000
0000
0000
2000
0000
0000
0000
0011
0000
0000
0000
0011
3300
0000
0000
,
1000
0010
0100
0010
1000
0100
0010
0001
,
1000
0000
0000
1000
0001
0000
0000
0001
0100
0000
0010
0000
1000
0000
0000
0000
,
0010
0100
0001
0010
0100
0000
0100
1000
,
0001
0000
0000
0001
1000
0000
0000
1000
0010
0000
0000
0100
0010
0000
1000
0000
,
0100
0000
0100
0000
0010
0001
0100
0001
,
1001
1010
0101
0011
,
0010
0000
0100
0000
1000
0000
0100
0010
0000
0010
0001
0000
0100
0001
1000
0000
,
0001
0000
0100
0000
0010
0000
1000
0010
0000
0001
0010
0000
0100
1000
0000
0000
,
0100
0000
0010
0000
0001
0100
0000
0001
1000
0000
0001
0100
0000
0010
1000
0000
,
0010
0000
0001
0000
0010
0100
0000
0010
1000
0000
0100
0010
0000
0001
1000
0000
,
0100
0000
0010
0000
0001
1000
0000
0001
0100
0000
0001
1000
0000
0010
0100
0000
,
0010
0000
1000
0000
0100
0010
0000
0001
0010
0000
0100
1000
0000
0100
0010
0000
,
0001
0000
0100
0000
0010
1000
0001
0010
,
0100
1000
0100
0010
,
2002
0000
3003
0000
;

//---------------dance-single - K. Ward----------------
#NOTES:
     dance-single:
     K. Ward:
     Hard:
     7:
     0.420,0.453,0.287,0.218,0.057,280.000,33.000,25.000,0.000,0.000,0.000,0.420,0.453,0.287,0.218,0.057,280.000,33.000,25.000,0.000,0.000,0.000:
0000
0000
0000
0000
,
0000
0000
0000
0000
,
0000
0000
0000
0000
,
0000
0000
0000
0000
,
0001
0010
0100
0010
0100
1000
0100
0000
,
1000
0100
0001
0000
0010
0100
0010
0000
,
1001
0000
0100
0010
0100
0000
0010
0100
,
1000
0200
2000
3300
,
0000
0000
1000
0100
0010
0000
0100
0001
,
0010
0200
0020
0330
,
0000
0000
0001
0001
1000
1000
0100
0100
,
0020
0001
0100
0031
,
0100
0010
0100
0000
1000
0100
0010
0000
,
0100
0001
0010
0001
0100
0001
0010
0000
,
0100
0100
0000
0000
,
1000
1000
0000
0000
,
0001
0001
0000
0000
,
0100
1000
0010
0001
,
1001
0000
0100
0000
1000
0100
0010
0000
,
1001
0000
0010
0000
0100
0010
0001
0000
,
0110
0000
0001
0000
0100
0010
1000
0000
,
0110
0001
0110
1000
,
0100
0000
0010
0000
0100
1000
0100
0000
,
0010
0100
0100
0000
0001
0010
0010
0000
,
0000
0100
1000
0000
0100
0010
0000
0000
,
1100
0011
0110
1001
,
0000
0100
0010
0100
1000
0100
0010
0200
,
0000
1000
0000
0010
0000
1300
0000
0000
,
0000
0010
0001
0010
0100
0010
0001
0020
,
0000
0100
0000
0001
0000
0130
0000
0000
,
0000
0001
0010
0100
1000
0100
0010
0200
,
0000
1000
0000
0010
0000
1300
0000
0000
,
0001
0110
1000
0110
,
0001
1000
0001
1000
,
1001
0000
0000
0000
,
0100
0010
0000
0000
0000
0000
0000
0000
,
2000
0100
3200
0010
,
0320
0001
0100
0031
,
0002
0010
0023
0100
,
0230
0010
1000
0310
,
1001
0000
0010
0000
,
1001
0000
0100
0000
,
0011
0100
1100
0000
,
1010
0100
0022
0033
,
0000
0000
1000
0000
0001
0000
1000
0001
0000
0000
0000
0000
0100
0000
0000
0000
,
1010
0000
0000
0000
,
0000
0000
0100
0000
0010
0000
0100
0010
0000
0000
0000
0000
0100
0000
0000
0000
,
0011
0000
0000
0000
0000
0000
0000
0000
1000
0001
1000
0001
1000
0001
1000
0001
,
1000
0000
0000
0000
0000
0000
0000
0000
0010
0100
0010
0000
0100
0000
0000
0000
,
1010
0100
0010
0100
1000
0100
0010
0000
,
0110
1001
0110
2002
,
3003
0001
1000
0001
0010
0100
0010
0000
,
1100
0011
0100
0020
,
0030
0100
0001
0010
0100
1000
0100
0000
,
0110
1001
0110
2200
,
3300
0000
0010
0100
0010
0000
1001
0000
,
0200
0010
1000
0310
,
0000
0001
0010
0100
0020
0000
0100
0130
,
0000
0000
0000
0000
0000
0000
1000
0001
0000
1000
0001
0000
1000
0000
0000
0000
,
0000
0100
0010
0100
2000
0000
0100
3100
,
0000
0000
0000
0000
0000
0000
0010
0100
0000
0010
0100
0000
0001
0000
0000
0000
,
0000
0010
0100
1000
0200
0000
0010
0310
,
0000
0000
0000
0000
0000
0000
0100
0010
0000
0100
0010
0000
0001
0000
0000
0000
,
0100
0010
1000
0000
0010
0100
0001
0000
,
0001
0010
0100
0010
0001
0010
0100
0010
,
0001
0000
0000
0000
;

//---------------dance-single - Blank----------------
#NOTES:
     dance-single:
     Blank:
     Beginner:
     1:
     0.159,0.170,0.070,0.000,0.000,120.000,8.000,0.000,0.000,0.000,0.000,0.159,0.170,0.070,0.000,0.000,120.000,8.000,0.000,0.000,0.000,0.000:
0000
0000
0000
0000
,
0000
0000
0000
0000
,
0000
0000
0000
0000
,
0000
0000
0000
0000
,
0000
0000
0000
0000
,
0000
0000
0000
0000
,
0010
0000
0001
0000
,
1000
1000
1000
0000
,
0001
0000
0010
0000
,
0100
0000
0010
0000
,
1000
0000
1000
0000
,
0001
0000
0010
0000
,
0100
0100
0100
0000
,
1000
0000
0001
0000
,
0010
0000
0001
0000
,
1000
0000
1001
0000
,
0001
0000
1000
0000
,
1001
0000
0001
0000
,
0010
0010
0010
0000
,
0100
0100
0100
0000
,
0001
0000
1000
0000
,
0001
0000
0010
0000
,
0001
0000
1000
0000
,
0100
0000
0100
0000
,
1001
0000
0001
0000
,
0010
0000
0100
0000
,
1000
0000
0001
0000
,
1000
0001
1000
0000
,
0001
0000
0100
0000
,
0001
0000
0010
0000
,
0100
0000
1000
0000
,
1001
0000
0001
0000
,
0100
0000
0010
0000
,
1000
0000
0100
0000
,
0100
0100
0100
0000
,
0010
0000
0001
0000
,
1001
0000
0000
0000
,
1000
0000
0000
0000
,
0001
0000
0000
0000
,
0010
0000
0000
0000
,
0100
0000
0000
0000
,
1000
0000
0000
0000
,
0001
0000
0000
0000
,
0100
0000
0000
0000
,
0010
0000
1000
0000
,
0100
0000
0010
0000
,
0001
0001
0001
0000
,
0100
0000
0010
0000
,
1000
1000
1000
0000
,
1001
0000
0001
0000
,
0010
0000
0100
0000
,
1001
0000
0010
0000
,
0100
0000
1000
0000
,
0001
0000
1000
0000
,
0001
0000
0010
0000
,
0100
0100
0100
0000
,
0001
0000
1000
0000
,
0010
0000
0010
0000
,
0100
0000
0001
0000
,
0001
0000
1000
0000
,
0010
0000
0001
0000
,
0100
0000
0010
0000
,
0010
0000
1000
0000
,
1000
0000
0001
0000
,
0001
0000
0010
0000
,
0110
0000
0000
0000
;

//---------------dance-double - M.Emirzian----------------
#NOTES:
     dance-double:
     M.Emirzian:
     Easy:
     4:
     0.183,0.200,0.157,0.052,0.000,123.000,18.000,6.000,0.000,0.000,0.000,0.183,0.200,0.157,0.052,0.000,123.000,18.000,6.000,0.000,0.000,0.000:
00000000
00000000
00000000
00000000
,
00000000
00000000
00000000
00000000
,
00000000
00000000
00000000
00000000
,
00000000
00000000
00000000
00000000
,
00010000
00000000
01000000
00000000
,
00001000
00010000
00001000
00000000
,
00010000
00000000
00000100
00000000
,
00001010
00000000
00000101
00000000
,
00001000
00000000
00000100
00000000
,
00001000
00000010
00001000
00000000
,
00000100
00000000
00010000
00000000
,
00011000
00000000
01001000
00000000
,
00010000
00000000
00001000
00000000
,
01000000
00010000
01000000
00000000
,
00001000
00000000
00010000
00000000
,
01001000
00000000
01010000
00000000
,
00100000
00000000
10000000
00000000
,
00010000
01000000
00001000
00000000
,
00010000
00000000
00001000
00000000
,
00000100
00000000
00000001
00000000
,
00001000
00000001
00001000
00000000
,
00000010
00000000
00001000
00000000
,
00000100
00001000
00000100
00000000
,
00010000
00000000
00001000
00000000
,
00010000
00001000
01000000
00000000
,
00001000
00000000
00010000
00000000
,
00100000
00100000
00100000
00000000
,
10010000
00000000
00000000
00000000
,
00100000
00100000
00100000
00000000
,
00011000
00000000
00000000
00000000
,
00000100
00000100
00000100
00000000
,
00001001
00000000
00000000
00000000
,
00000010
00000010
00000010
00000000
,
00010000
00010000
00010000
00000000
,
00001000
00000000
00000000
00000000
,
00010000
00000000
00001000
00000000
,
02020000
00000000
00000000
00000000
,
00000000
00000000
00000000
00000000
,
03030000
00000000
00000000
00000000
,
00000000
00000000
00000000
00000000
,
00001000
00000000
00000000
00000000
,
00000000
00000000
00000000
00000000
,
00000000
00000000
00000000
00000000
,
00010000
00001000
00010000
00000000
,
01000000
00000000
00000000
00000000
,
10000000
00000000
00000000
00000000
,
00010000
00000000
00000000
00000000
,
01000000
00000000
00000000
00000000
,
00022000
00000000
00000000
00033000
,
00010000
00010000
00001000
00000000
,
00011000
00000000
00000010
00000000
,
00001000
00001000
00000100
00000000
,
00001010
00000000
00000001
00000000
,
00001000
00001000
00000010
00000000
,
00010010
00000000
00010000
00000000
,
01000000
00000000
10000000
00000000
,
10000000
00100000
10000000
00000000
,
01000000
10000000
00010000
00000000
,
01010000
00000000
00001000
00000000
,
00100000
00001000
00010000
00000000
,
00010100
00000000
00001000
00000000
,
00010000
00001000
00010000
00000000
,
00001010
00000000
00000001
00000000
,
00001000
00000000
00000010
00000000
,
00010000
00001000
00010000
00000000
,
02002000
00000000
00000000
00000000
00000000
03003000
00000000
00000000
;

//---------------dance-double - M.Emirzian----------------
#NOTES:
     dance-double:
     M.Emirzian:
     Medium:
     5:
     0.286,0.314,0.252,0.052,0.000,195.000,29.000,6.000,0.000,0.000,0.000,0.286,0.314,0.252,0.052,0.000,195.000,29.000,6.000,0.000,0.000,0.000:
00000000
00000000
00000000
00000000
,
00000000
00000000
00000000
00000000
,
00000000
00000000
00000000
00000000
,
00000000
00000000
00000000
00000000
,
00100000
00100000
00100000
00000000
,
01000000
01000000
01000000
00000000
,
00010000
00000000
10000000
01000000
00010000
00000000
01000000
00000000
,
11000000
10010000
01010000
00000000
,
00100000
00000000
00010000
01000000
00100000
00000000
01000000
00000000
,
01010000
01001000
00011000
00000000
,
00010000
00000000
00001000
00010000
00001000
00000000
00000100
00000000
,
00001100
00000101
00001001
00000000
,
00000010
00000000
00001000
00000000
00000010
00001000
00000010
00000000
,
00000100
00001000
00010000
00100000
,
10000000
00000000
11000000
00000000
,
00100000
00000000
00000000
00000000
00010000
01000000
00010000
00000000
,
00100000
00000000
00101000
00000000
,
00010000
00000000
00000000
00000000
00001000
00010000
00001000
00000000
,
00011000
00000000
00010100
00000000
,
00001000
00000000
00000000
00000000
00000100
00001000
00000100
00000000
,
00000001
00000000
00001100
00000000
,
00000010
00000000
00000000
00000000
00001000
00000100
00001000
00000000
,
00000010
00000000
00010010
00000000
,
00010000
00000000
00000000
00000000
00001000
00010000
00001000
00000000
,
01000000
00000000
01010000
00000000
,
00010000
10000000
01000000
00010000
,
01000000
00000000
10000000
00000000
00100000
00000000
00000000
01010000
,
00000000
00100000
00010000
01000000
,
00010000
00000000
00100000
00000000
00001000
00000000
00000000
00011000
,
00000000
00010000
00001000
00000100
,
00000001
00000000
00000100
00000000
00001000
00000000
00000000
00000101
,
00000000
00000010
00001000
00000100
,
00001000
00000000
00000010
00000000
00001000
00000010
00001000
00000000
,
00000100
00010000
00001000
01000000
,
00010000
00000000
10000000
00000000
,
01000000
00000000
00010000
00000000
,
20020000
00000000
00000000
00000000
,
30030000
00000000
00000000
00000000
,
10000000
00000000
00000000
00000000
,
00000000
00000000
00000000
00000000
,
00010000
00000000
00000000
00000000
,
00000000
00000000
00000000
00000000
,
00001000
00000000
00000000
00000000
,
00000001
00000100
00001000
00000100
,
00000001
00000000
00000000
00000000
00000010
00000000
00000100
00001000
,
00000100
00000000
00010000
00001000
,
01000000
00000000
00000000
00000000
01000000
00000000
00010000
01000000
,
00010000
00000000
00100000
10000000
,
02020000
00000000
00000000
03030000
,
10000000
00000000
00100000
00000000
00010000
00000000
00000000
10100000
,
00000000
00010000
01000000
00100000
,
01000000
00000000
00010000
00000000
10000000
00000000
00000000
01010000
,
00000000
00001000
00010000
00000100
,
00001000
00000000
00000001
00000000
00000010
00000000
00000000
00001100
,
00000000
00000001
00000100
00001000
,
00000100
00000000
00000001
00000000
00001000
00000100
00001000
00000000
,
00000010
00010000
00001000
00010000
,
01000000
00000000
10000000
01000000
10000000
00000000
00000000
10010000
,
00000000
00010000
01000000
00010000
,
00100000
00000000
00010000
00100000
00010000
00000000
00000000
00101000
,
00000000
00100000
00010000
01000000
,
00001000
00000000
00010000
00001000
00010000
00000000
00000000
00010100
,
00000000
00010000
00001000
00000100
,
00000001
00000000
00000100
00000001
00000100
00000000
00000000
00001010
,
00000000
00000010
00010000
00001000
,
00022000
00000000
00000000
00000000
00000000
00033000
00000000
00000000
;

//---------------dance-double - M.Emirzian----------------
#NOTES:
     dance-double:
     M.Emirzian:
     Hard:
     8:
     0.439,0.486,0.287,0.078,0.104,311.000,33.000,9.000,7.000,0.000,0.000,0.439,0.486,0.287,0.078,0.104,311.000,33.000,9.000,7.000,0.000,0.000:
00000000
00000000
00000000
00000000
,
00000000
00000000
00000000
00000000
,
00000000
10000000
00000000
01000000
00000000
00010000
00000000
00001000
,
00000000
00000100
00000000
00000001
00000000
00000100
00000010
00010000
,
00001000
00000000
00010000
00001000
00000000
00000000
00001000
01000000
00000000
00000000
01000000
00000000
00010000
00000000
00000000
00000000
,
00100000
00000000
00010000
10000000
00000000
00000000
10000000
00000000
01000000
00000000
00100000
00000000
00010000
10000000
00010000
00000000
,
01000000
00100000
10000000
01000000
00100000
00010000
01000000
00001000
,
00010000
01001000
00011000
00010010
,
00010000
00000000
00001000
00010000
00000100
00001000
00000010
00001000
,
00000001
00000011
00001001
00001100
,
00000010
00000000
00001000
00000100
00001000
00000010
00001000
00000001
,
00000100
00001010
00010010
00011000
,
00000100
00000000
00010000
00000000
00001000
01000000
00010000
00100000
,
00010000
11000000
10010000
01010000
,
00100000
00000000
10000000
00000000
00100000
00000000
01000000
00010000
00000000
00010000
01000000
00000000
00100000
00000000
20000000
00000000
,
01000000
00000000
0M000000
00000000
30000000
00000000
00100000
00010000
00000000
00010000
00200000
00000000
00001000
00000000
0030M000
00000000
,
00010000
00000000
00001000
00000000
00010000
00000000
00000100
00001000
00000000
00001000
00000100
00000000
00000010
00000000
00000002
00000000
,
00000100
00000000
00000M00
00000000
00000003
00000000
00000100
00000010
00000000
00000010
00000100
00000000
00000001
00000000
00000000
00000000
,
00001000
00000100
00010000
00000000
00011000
00000000
00000010
00000000
,
00011000
00000000
00100000
00000000
00001000
01000000
00010000
00100000
,
00000000
00010000
01000000
00000000
01001000
00000000
00010000
00000000
,
00010100
00000000
00010000
00001000
00100000
00010000
01000000
00100000
,
00000000
10000000
00010000
00000000
01010000
00000000
00100000
00000000
,
00011000
00000000
00000100
00010000
00000100
00001000
00000001
00001000
,
00000000
00000010
00000100
00000MM0
00000010
00000100
00000MM0
00000001
,
00001000
00000100
00011000
01000000
,
00100000
10000000
00010000
00000000
00100000
00000000
00001000
01000000
,
00000000
00000000
00100000
00000000
00000000
10000000
00000000
00000000
01000000
00000000
00000000
00100000
00000000
00000000
00010000
00000000
,
00000000
01000000
10000000
01000000
00010000
00000000
00100000
00001000
,
00000000
00000000
00010000
00000000
00000000
00001000
00000000
00000000
00010000
00000000
00000000
00100000
00000000
00000000
00010000
00000000
,
00001000
00010000
00000100
00001000
00000001
00000000
00000010
00000100
,
00000000
00001000
00000001
00000100
,
00001000
00000000
00010000
00000000
00001000
01000000
00010000
00100000
,
00010000
01000000
00011000
00000010
,
00001000
00010000
00000000
01001000
00000000
00011000
00000000
00000010
,
00010000
00001000
00000000
00101000
00000000
00011000
00000000
01000000
,
02200000
00000000
00000000
00000000
,
00000000
00000000
00000000
00000000
,
03300000
00000000
00000000
00000000
,
00000000
00000000
00000000
00000000
,
00000100
00000000
00000000
00000000
,
00000000
00000000
00000000
00000000
,
00010000
00000000
00001000
00000000
,
01000000
00100000
10000000
00010000
,
10000000
00000000
00100000
00000000
10000000
00100000
00010000
00000000
,
01100000
00000000
00000000
00000000
,
00001000
00000000
00000100
00000000
00000001
00000010
00001000
00000000
,
00000110
00000000
00000000
00000000
00000000
00000000
00000001
00001000
00000000
00001000
00000001
00000000
00000100
00000000
00000010
00000000
,
00002002
00000000
00000000
00003003
,
00000010
00000100
00001000
00000000
00000010
00000000
00010000
00001000
,
00010000
00010000
00001000
00000100
,
00001000
00010000
00001000
00000000
01000000
00000000
00100000
01000000
,
00000000
01000000
00010000
00000000
00100000
00000000
00001000
00000000
,
01000000
00010000
00100000
00000000
01000000
00000000
10000000
00010000
,
00000000
00010000
01000000
00000000
00100000
00000000
00010000
00000000
,
00001000
00000000
00000010
00000000
00000100
00001000
00000001
00000100
,
00000010
00001000
00001100
01010000
,
00001000
00010000
00001000
00000000
01000000
00000000
00010000
00100000
,
00010000
00000000
00000000
00000000
01000000
00000000
00100000
10000000
00000000
10000000
00100000
00000000
01000000
00000000
00010000
00000000
,
10000000
00000000
01000000
00000000
00010000
00000000
00001000
00010000
,
00001000
00000000
00000000
00000000
00000100
00000000
00000010
00001000
00000000
00001000
00000010
00000000
00000100
00000000
00000001
00000000
,
00001000
00000000
00000100
00000000
00000010
00000000
00000001
00001000
,
00000100
00000000
00000000
00000000
00000010
00000000
00000100
00001000
00000000
00001000
00000100
00000000
00010000
00000000
00001000
00000000
,
00010000
00000000
00000100
00000000
00010000
00001000
01000000
00010000
,
00100000
00010000
11000000
10010000
,
02020000
00000000
00000000
00000000
00000000
03030000
00000000
00000000
;

//---------------dance-double - M.Emirzian----------------
#NOTES:
     dance-double:
     M.Emirzian:
     Challenge:
     9:
     0.558,0.514,0.427,0.131,0.205,385.000,49.000,15.000,5.000,0.000,0.000,0.558,0.514,0.427,0.131,0.205,385.000,49.000,15.000,5.000,0.000,0.000:
00000000
00000000
00000000
00000000
,
00000000
00000000
00000000
00000000
,
00000100
00000000
00001000
00000010
00000000
00000000
00000010
00000100
00000000
00000000
00000101
00000000
00000000
00000000
00000010
00000000
,
00001000
00000000
00000100
00010000
00000000
00000000
00010000
00001000
00000000
00000000
01001000
00000000
00000000
00000000
00010000
00000000
,
01000000
00000000
00100000
10000000
00000000
00000000
10000000
01000000
00000000
00000000
01010000
00000000
00000000
00000000
00010000
00000000
,
01000000
00000000
10000000
00100000
00000000
00000000
00100000
01000000
00000000
00000000
01000000
00000000
00010000
01000000
00010000
00000000
,
01000000
00001000
00100000
00010000
01000000
00010000
00100000
00001000
,
00011000
01001000
00011000
00010010
,
00001000
00010000
00000100
00010000
00001000
00000100
00000001
00001000
,
00001100
00000000
00000011
00000000
00001000
00000001
00000100
00000000
,
00000010
00001000
00000100
00001000
00000010
00000001
00000010
00001000
,
00001010
00010010
00011000
00101000
,
00020000
00000000
02030000
00000000
03001000
00010000
00000100
00010000
,
00001000
00101000
00110000
01100000
,
00010000
00000000
10000000
00000000
01000000
00000000
00100000
00010000
00000000
00010000
00100000
00000000
00010000
10000000
00020000
00000000
,
01000000
00000000
0M000000
00000000
00030000
00000000
00100000
10000000
00000000
10000000
00100000
00000000
01000000
00000000
00010000
00000000
,
10000000
00000000
01000000
00000000
00010000
00000000
00001000
00010000
00000000
00010000
00001000
00000000
00010000
00000100
00020000
00000000
,
00001000
00000000
0000M000
00000000
00030000
00000000
00000010
00000100
00000000
00000100
00001000
00000000
00000001
00000000
00000100
00000000
,
00001000
00000100
00000001
00000010
00000001
00001000
00000100
00001000
,
00000010
00001000
00000100
00010000
00000100
00001000
00000010
00010000
,
00000000
00001000
00010000
00001000
01000000
00010000
00100000
00010000
,
01000000
00001000
00010000
00100000
10000000
00100000
01000000
00010000
,
00000000
10000000
01000000
00010000
01000000
10000000
00100000
10000000
,
01000000
00010000
00001000
00010000
00000100
00010000
00001000
00000010
,
00000000
00000001
00001000
0000M000
00001000
00010000
000M0000
00010000
,
10000000
01100000
00011000
00000110
,
00001000
00000010
00000100
00000001
00001000
00000000
00000100
00000010
,
00000001
00000000
00000100
00000000
00000000
00000010
00000000
00000000
00011000
00000000
00000000
00100000
00000000
00000000
00001000
00000000
,
00010000
00000100
00010000
00001000
01000000
00000000
00001000
00010000
,
00001000
00000000
00100000
00000000
00000000
01000000
00000000
00000000
00011000
00000000
00000000
00000010
00000000
00000000
00010000
00000000
,
00000100
00010000
00001000
01000000
00010000
00000000
10000000
01000000
,
00100000
00000000
00010000
00000000
00000000
01000000
00000000
00000000
00011000
00000000
00000000
00000010
00000000
00000000
00001000
00000000
,
00000001
00000000
00000110
00000000
00001000
00000100
00000010
00000100
,
00000001
00001010
00010010
00011000
,
01000000
00011000
00000000
00100010
00000000
00011000
00000000
01000000
,
00010000
00100000
00000000
01010000
00000000
00001100
00000000
00010100
,
00022000
00000000
00000000
00000000
,
00000000
00000000
00000000
00000000
,
00033000
00000000
00000000
00000000
,
00000000
00000000
00000000
00000000
,
00100000
00000000
00000000
00000000
,
00000000
00000000
00000000
00000000
,
10000000
00010000
00001000
00000001
,
00000010
00000100
00001000
00000100
00010000
00000100
00001000
00000010
,
00001000
00000000
00000100
00000000
00010000
00000000
00001000
00010000
00000000
00010000
00001000
00000000
01000000
00001000
01000000
00000000
,
00020000
20030000
30200000
02300000
,
03010000
00000000
10000000
00000000
01000000
00000000
00100000
00010000
00000000
00010000
00100000
00000000
00010000
10000000
00020000
00000000
,
01000000
00000000
0M000000
00000000
00030000
00000000
00100000
10000000
00000000
10000000
00100000
00000000
01000000
00000000
00010000
00000000
,
00220000
00000000
00000000
00000000
00330000
00000000
00000000
00000000
00010000
00001000
00010000
00001000
00010000
00000000
00000100
00000000
,
00010000
00001000
00000100
00000001
00001000
00000000
00000100
00000010
,
00000001
00000000
00001000
00000000
00000000
00000010
00000000
00000000
00011000
00000000
00000000
01000000
00000000
00000000
00001000
00000000
,
00010000
00000100
00001000
00000010
00001000
00000000
00000100
00010000
,
00001000
00000000
00010000
00000000
00000000
00000010
00000000
00000000
00011000
00000000
00000000
01000000
00000000
00000000
00100000
00000000
,
01000000
00010000
00100000
00010000
01000000
00000000
00010000
10000000
,
01000000
00000000
00100000
00000000
00000000
01000000
00000000
00000000
00011000
00000000
00000000
00000010
00000000
00000000
00000100
00000000
,
00001001
00000000
00001010
00000000
00001000
00000100
00000010
00000100
,
00001100
00010100
01001000
00110000
,
00100000
10000000
01000000
00010000
01000000
10000000
00100000
10000000
,
01000000
00000000
00000000
00000000
00100000
00000000
00010000
00100000
00000000
00100000
00010000
00000000
01000000
00000000
10000000
00000000
,
01000000
00010000
01000000
00001000
01000000
00010000
00100000
00001000
,
00010000
00000000
00000000
00000000
00000100
00000000
00010000
00001000
00000000
00001000
00010000
00000000
00000010
00000000
00001000
00000000
,
00000100
00001000
00000010
00010000
00001000
00000100
00000001
00000010
,
00000001
00000000
00000000
00000000
00000100
00000000
00000010
00001000
00000000
00001000
00000010
00000000
00000100
00000000
00000001
00000000
,
00000110
00000000
00011000
00000000
00100000
10000000
01000000
10000000
,
00100000
01010000
00001100
00010010
,
00202000
00000000
00000000
00000000
00000000
00303000
00000000
00000000
;

//---------------dance-single - J. Frederick----------------
#NOTES:
     dance-single:
     J. Frederick:
     Easy:
     4:
     0.272,0.342,0.279,0.244,0.000,159.000,32.000,28.000,0.000,0.000,0.000,0.272,0.342,0.279,0.244,0.000,159.000,32.000,28.000,0.000,0.000,0.000:
0000
0000
0000
0000
,
0000
0000
0000
0000
,
1000
0001
0010
0000
,
0100
1000
0100
0000
,
0010
0001
0010
0000
,
2002
0000
0000
3003
,
0100
0010
1000
0000
,
0001
1000
0220
0000
,
0330
1000
0001
0000
,
0010
0100
2002
0000
,
3003
0100
0010
0000
,
1000
0010
0100
0000
,
0001
0010
0001
0000
,
1001
1001
1001
1001
,
2000
0000
0000
3000
,
0002
0000
0000
0003
,
0200
0000
0000
0300
,
0020
0000
0000
0030
,
1000
0010
1000
0000
,
0001
0000
0010
0000
,
0100
1000
0100
0000
,
0010
0000
0001
0000
,
0100
0001
1000
0000
,
0010
0000
0100
0000
,
0001
0010
0001
1000
,
2002
0000
0000
3003
,
0100
0010
0100
0010
,
0200
0000
0000
0300
,
0010
1000
0010
1000
,
0020
0000
0000
0030
,
0100
0001
0100
0001
,
0200
0000
0000
0300
,
0001
0000
1000
0000
,
0110
0110
0110
0110
,
0220
0000
0000
0000
,
0000
0000
0000
0330
,
1000
0000
0001
0000
,
0010
0100
1000
0000
,
0010
0000
1000
0000
,
0001
0010
0001
0000
,
0100
0000
0010
0000
,
1000
0010
1000
0000
,
0001
0000
0100
0000
,
1001
1001
2002
3003
,
1000
0001
1000
0000
,
0010
0000
0100
0000
,
0001
0010
0100
0000
,
1000
0000
0001
0100
,
0220
0000
0000
0330
,
1000
1001
0001
0000
,
0010
0110
0100
0000
,
1000
1100
0100
0000
,
0100
0010
0200
0300
,
0010
0100
0010
0000
,
1000
0100
1000
0000
,
0001
0000
0010
0000
,
0011
0011
0011
0011
,
0011
0010
0001
0000
,
1000
0010
0200
0300
,
0010
1000
0100
0000
,
0011
1100
0220
0330
,
0100
0001
0100
0000
,
0010
1000
0020
0030
,
0100
0000
0010
0000
,
1010
1010
1010
0000
,
0220
0000
0330
0000
;

//---------------dance-single - J. Frederick----------------
#NOTES:
     dance-single:
     J. Frederick:
     Medium:
     5:
     0.400,0.371,0.313,0.313,0.000,250.000,36.000,36.000,0.000,0.000,0.000,0.400,0.371,0.313,0.313,0.000,250.000,36.000,36.000,0.000,0.000,0.000:
0000
0000
0000
0000
,
0000
0000
0000
0000
,
1000
0001
0010
0100
,
1000
0100
0010
0001
,
0100
0010
1000
0010
,
0100
0010
0100
0010
0100
0000
0110
0000
,
1000
0000
0001
0010
0100
0000
1000
0000
,
0200
0010
0020
0000
,
0330
0000
1000
0010
1000
0000
0010
0000
,
0100
0002
1000
2000
,
3003
0000
0100
0010
0100
0000
0010
0000
,
1000
0100
2000
3000
,
0100
0000
0010
0000
0001
0010
0001
0000
,
1001
0110
1010
1001
,
0010
0000
0100
0000
1000
0100
0010
0000
,
0001
0000
0100
0000
0010
0000
1000
0010
,
0100
0000
0001
0000
0010
0000
0001
0010
,
0100
1000
0100
0010
,
1001
0000
0100
0010
0200
0000
0300
0000
,
0010
1000
0100
0000
0020
0000
0030
0000
,
0001
0100
0001
0000
2000
0000
3000
0000
,
0001
0100
0001
0000
0020
0000
0030
0000
,
0001
1000
0010
0000
0200
0000
0300
0000
,
0010
0000
1000
0000
0100
0010
0001
0000
,
0200
0300
0020
0030
,
1000
0001
1001
1001
,
0010
0001
0010
0000
0100
0000
1000
0000
,
1100
0011
0220
0330
,
1000
0010
1000
0000
0001
0000
0100
0000
,
0101
0000
1010
0000
0220
0000
0030
0300
,
1000
0010
1000
0000
0001
0000
0010
0000
,
0110
1100
0022
0033
,
0100
0000
0010
0000
1000
0010
1000
0000
,
0110
1001
0110
1001
,
0220
0000
0000
0330
,
2002
0000
0000
3003
,
0100
0010
1000
0100
,
0010
0001
0100
0001
,
1000
0001
0100
0010
,
1000
0001
0010
0100
,
1000
1000
0010
0100
,
0001
0001
0010
0100
,
1100
1100
0011
0011
,
0100
0010
0100
0010
,
2000
0000
0001
0000
0001
0000
0001
3000
,
0020
0000
0100
0000
0100
0000
0100
0030
,
2000
0000
0100
0000
0100
0000
0100
3000
,
0002
0000
0100
0000
0100
0000
0100
0003
,
2002
0000
0000
0000
0000
0000
0000
3003
,
1000
0001
1000
0000
0001
0000
0010
0000
,
0100
1000
0200
0300
,
0010
0001
0010
0000
0001
0000
0100
0000
,
0010
1000
0020
0030
,
0100
0010
0100
0000
0001
0000
0010
0000
,
0100
1000
0200
0300
,
0010
0000
0001
0000
0100
0001
0100
0000
,
1001
0110
1001
1001
,
0010
0100
0010
0000
0100
0000
1000
0000
,
0100
0010
0002
0003
,
0100
0010
1000
0000
0010
0000
0100
0000
,
0001
0010
0200
0300
,
1000
0010
0100
0000
0001
0000
0010
0000
,
0100
1000
0020
0030
,
0100
0000
0010
0000
1000
0010
1000
0000
,
1010
0101
0011
0000
,
2002
0000
3003
0000
;

//---------------dance-single - D. D'Amato----------------
#NOTES:
     dance-single:
     D. D'Amato:
     Challenge:
     9:
     0.572,0.505,0.354,0.112,0.181,410.000,41.000,13.000,0.000,0.000,0.000: // measure 1
0000
0000
0000
0000
,  // measure 2
0000
0000
0000
0000
,  // measure 3
0010
0000
0001
0000
0010
0000
0100
0010
0000
0000
0100
0000
1000
0000
0001
0000
,  // measure 4
0100
0000
0010
0100
0000
0000
0010
0000
0000
0000
0100
0000
0001
0000
0100
0000
,  // measure 5
0010
0000
1000
0000
0010
0000
0100
0010
0000
0000
0100
0000
0001
0000
1000
0000
,  // measure 6
0100
0000
0010
0100
0000
0000
0010
0000
0000
0000
0100
0000
1000
0000
0100
0000
,  // measure 7
0010
0000
0100
1000
0100
0100
0010
0001
,  // measure 8
0200
0000
0310
0000
2000
0000
3100
0010
,  // measure 9
0100
0000
0010
0001
0010
0010
0100
1000
,  // measure 10
0020
0000
0130
0000
0002
0000
0013
0100
,  // measure 11
0010
0000
0001
0001
1000
1000
0010
1000
,  // measure 12
0200
0000
1300
0000
0002
0000
0103
0010
,  // measure 13
2000
0000
3100
0000
0010
0001
0100
1000
,  // measure 14
1100
0000
0101
0000
1100
0000
0101
0100
,  // measure 15
0010
0000
1000
0000
0100
0000
0010
0001
0000
0001
0100
0000
0010
0000
1000
0000
,  // measure 16
0100
0000
0000
0000
0100
0000
0010
0001
0000
0001
0100
0000
0010
0000
0100
0000
,  // measure 17
0000
0000
0010
0000
0100
0000
0010
1000
0000
1000
0100
0000
0010
0000
0001
0000
,  // measure 18
0100
0000
0000
0000
0100
0000
0010
1000
0000
1000
0100
0000
0010
0000
0100
0000
,  // measure 19
1000
0010
0100
0001
0010
0000
0010
0001
,  // measure 20
0000
0010
0100
1000
0010
0100
0001
0010
,  // measure 21
0000
1000
0010
0001
0100
0000
0100
1000
,  // measure 22
0001
0010
0001
1000
0100
0010
0001
1000
,  // measure 23
0000
0001
1000
0000
0001
0000
1000
0010
,  // measure 24
0100
0001
0010
0100
1000
0000
0010
0100
,  // measure 25
0000
0001
1000
0000
0001
1000
0000
1000
,  // measure 26
0200
0310
0002
1003
,  // measure 27
0001
1010
0001
0100
0001
0000
0011
1000
,  // measure 28
0000
0000
0100
0000
0000
0000
1000
0000
0001
0000
0000
0100
0000
0000
0001
0000
,  // measure 29
0010
1001
0100
0010
0100
0000
0110
0001
,  // measure 30
0000
0000
1000
0000
0000
0000
0010
0000
0100
0000
0000
0001
0000
0000
1000
0000
,  // measure 31
0100
0011
1000
0100
1000
0000
1010
0001
,  // measure 32
0000
0000
0100
0000
0000
0000
0001
0000
1000
0000
0000
0100
0000
0000
1000
0000
,  // measure 33
0002
0000
0103
0000
0010
1000
0100
0001
,  // measure 34
0101
0000
1100
0000
0101
0000
1100
0100
,  // measure 35
0010
0000
0001
0000
0010
0000
0000
0010
0001
0000
0000
0001
0100
0000
0000
0100
,  // measure 36
0010
0000
1000
0000
0010
0000
0000
1000
0000
0000
0001
0000
0010
0000
0100
0000
,  // measure 37
1001
0010
0100
0001
,  // measure 38
0010
0001
0100
0010
,  // measure 39
1000
0100
1000
0010
,  // measure 40
0100
0001
0010
0100
,  // measure 41
1000
0100
0010
0000
0001
0100
0010
0000
,  // measure 42
0100
0001
1000
0001
,  // measure 43
0010
0100
1000
0000
0010
0100
0001
0000
,  // measure 44
1000
0010
0100
0001
0010
0100
1000
0001
,  // measure 45
0110
0000
1000
0000
0001
0000
1000
0100
0000
0100
0010
0000
0001
0000
0100
0000
,  // measure 46
0010
1010
1000
1100
,  // measure 47
0010
0000
0001
0000
1000
0000
0001
0100
0000
0100
0010
0000
1000
0000
0100
0000
,  // measure 48
0010
0000
0000
0000
0011
0000
0000
0001
0000
0001
0100
0000
0010
0000
0100
0000
,  // measure 49
2001
0000
0000
0000
0000
0000
0000
0000
3001
1000
0001
1000
0001
0000
1000
0000
,  // measure 50
0001
1100
0001
0010
0001
0000
0101
1000
,  // measure 51
0010
0000
0000
0010
1000
0000
0000
1000
0001
0000
0010
0000
0001
0000
0000
0000
,  // measure 52
0100
1001
0010
0100
0010
0000
0110
0001
,  // measure 53
1000
0000
0000
1000
0100
0000
0000
0100
0010
0000
0001
0000
0100
0000
0000
0000
,  // measure 54
0010
0101
1000
0010
1000
0000
1100
0001
,  // measure 55
0010
0000
0000
0010
0001
0000
0000
0001
1000
0000
0010
0000
1000
0000
0000
0000
,  // measure 56
0002
0000
0103
0000
0010
1000
0100
0001
,  // measure 57
0101
0000
1100
0000
0101
0000
1100
0100
,  // measure 58
1000
0011
1000
0100
1000
0000
1010
0001
,  // measure 59
0100
0000
0000
0100
0001
0000
0100
1000
0000
1000
0100
0000
0001
0000
0100
0000
,  // measure 60
0010
1001
0100
0010
0100
0000
0110
1000
,  // measure 61
0001
0000
0000
0001
0010
0000
0100
1000
0000
1000
0001
0000
0100
0000
0010
0000
,  // measure 62
0100
1010
0001
0100
0001
0000
0011
1000
,  // measure 63
0100
0000
0000
0100
1000
0000
0100
0001
0000
0001
0100
0000
1000
0000
0010
0000
,  // measure 64
2000
0000
3100
0000
0010
0001
0100
1000
,  // measure 65
1100
0000
0101
0000
1100
0000
0101
0100
,  // measure 66
0110
0000
0000
0000
;
