#TITLE:DJ Superstar;
#SUBTITLE:;
#ARTIST:Oscillator X;
#TITLETRANSLIT:;
#SUBTITLETRANSLIT:;
#ARTISTTRANSLIT:;
#GENRE:Synth;
#CREDIT:;
#BANNER:DJ Superstar-bn.png;
#BACKGROUND:DJ Superstar-bg.png;
#LYRICSPATH:;
#CDTITLE:;
#MUSIC:DJ Superstar.ogg;
#OFFSET:-0.002;
#SAMPLESTART:92.640;
#SAMPLELENGTH:11.860;
#SELECTABLE:YES;
#BPMS:0.000=140.513;
#STOPS:;
#BGCHANGES:0.339=DJ Superstar.mpg=1.000=1=0=0=StretchNoLoop==CrossFade==,
99999=-nosongbg-=1.000=0=0=0 // don't automatically add -songbackground-;
#KEYSOUNDS:;

//---------------dance-single - K. Ward----------------
#NOTES:
     dance-single:
     K. Ward:
     Hard:
     6:
     0.434,0.426,0.302,0.164,0.030,298.000,35.000,19.000,0.000,0.000,0.000,0.434,0.426,0.302,0.164,0.030,298.000,35.000,19.000,0.000,0.000,0.000:
0000
0000
0000
0000
,
0000
0000
0000
0000
,
0000
0000
0000
0000
,
0000
0000
0000
0000
,
0002
0000
0003
0000
,
2000
0000
3000
0000
,
0100
0000
0000
0000
0010
0000
0000
0010
,
0100
0000
0000
0100
0010
0000
0000
0000
,
1001
0000
0000
0000
,
1000
0000
1000
0100
0000
0100
0010
0000
,
0001
0000
0010
0100
0000
0100
1000
0000
,
1000
0100
0001
0000
0001
0100
1000
0000
,
0010
0100
0001
0010
0100
0010
0001
0000
,
0001
0000
0001
0010
0000
0010
0100
0000
,
1000
0000
0100
0010
0000
0010
0001
0000
,
0001
0010
1000
0000
1000
0010
0001
0000
,
0010
0100
1000
0200
0000
0310
0000
0000
,
1001
0000
0001
0010
0100
0010
0001
0000
,
1001
0000
0100
0010
0100
1000
0100
0000
,
0110
0001
0110
1000
,
0110
0001
0110
2002
,
3003
0000
0010
0100
0001
0010
0001
0000
,
0011
0000
0100
0010
0100
1000
0100
0000
,
1100
0010
0011
0100
,
1100
0010
1001
1001
,
0010
0000
0100
0001
0010
0100
0000
0010
,
0000
0000
0100
0000
1000
0000
0100
0000
0010
0000
0000
0100
0000
0000
0010
0000
,
0001
0000
1000
0010
0000
0100
1000
0000
,
0200
0010
1000
0310
,
0000
0000
1000
0100
0010
0001
0000
0010
,
0000
0000
0100
0000
1000
0000
0010
0000
0100
0000
0000
0010
0000
0000
0001
0000
,
0010
0000
0100
0001
0000
0010
0100
0000
,
0020
0000
0000
0200
0000
0000
0330
0000
,
1001
0000
0000
0000
,
1000
0000
0001
0000
1000
0001
1000
0000
0001
0000
0000
0000
0000
0000
0000
0000
,
0100
0000
0010
0000
0100
0010
0100
0000
0010
0000
0000
0000
0000
0000
0000
0000
,
0100
0000
1000
0000
0100
1000
0100
0000
1000
0000
0000
0000
0000
0000
0000
0000
,
0100
0010
0001
0010
0000
0101
0000
0000
,
1001
0100
1000
0100
0010
0000
0000
0000
,
0100
0001
0010
0100
0010
0000
0100
0000
,
2000
3100
0002
0013
,
0100
0010
0100
2020
0000
0000
3030
0000
,
1001
0000
0100
0010
0000
0010
0100
0000
,
0001
0000
0001
0010
0000
0010
0100
0000
,
0010
0001
0010
0100
0010
0001
0010
0100
,
0020
0000
0100
0000
0001
0001
0031
0000
,
1000
0001
1000
0100
0000
0010
0100
0000
,
0010
0100
1000
0100
0000
0001
0010
0000
,
0100
0001
0010
0000
0100
1000
0100
0000
,
0100
0001
0010
0200
0000
0310
0000
0000
,
1001
0000
1000
0100
0010
0100
1000
0000
,
1001
0000
0010
0100
0010
0001
0010
0000
,
0110
1000
0110
0001
,
0110
1000
0110
2002
,
3003
0000
0100
0010
0100
1000
0100
0000
,
1100
0000
0010
0100
0010
0001
0010
0000
,
0011
0100
1100
0010
,
0011
0100
1001
1001
,
0100
0000
0010
1000
0100
0010
0000
0100
,
0000
0000
0010
0000
0001
0000
0010
0000
0100
0000
0000
0010
0000
0000
0100
0000
,
1000
0000
0001
0100
0000
0010
0001
0000
,
0020
0100
0001
0130
,
1001
0000
0100
0010
0001
0010
0000
0100
,
0000
0000
1000
0000
0001
0000
1000
0000
0010
0000
0000
0100
0000
0000
1000
0000
,
0100
1100
0010
1001
,
0200
0000
0000
0020
0000
0000
0330
0000
;

//---------------dance-single - Blank----------------
#NOTES:
     dance-single:
     Blank:
     Beginner:
     1:
     0.153,0.168,0.060,0.000,0.000,117.000,7.000,0.000,0.000,0.000,0.000,0.153,0.168,0.060,0.000,0.000,117.000,7.000,0.000,0.000,0.000,0.000:
0000
0000
0000
0000
,
0000
0000
0000
0000
,
0000
0000
0000
0000
,
0000
0000
0000
0000
,
1001
0000
0000
0000
,
0001
0000
0000
0000
,
1000
0000
0010
0000
,
0100
0000
0000
0000
,
0001
0000
0000
0000
,
1000
0000
0001
0000
,
1000
0000
0000
0000
,
0100
0000
1000
0000
,
0100
0000
0000
0000
,
0001
0001
0001
0000
,
1000
1000
1000
0000
,
0010
0000
0100
0000
,
0001
0000
1000
0000
,
0001
0001
0001
0000
,
0010
0010
0010
0000
,
0100
0000
0100
0000
,
0100
0000
0010
0000
,
0001
0000
1000
0000
,
1000
0000
0001
0000
,
1000
0000
0001
0000
,
0100
0000
0100
0000
,
0010
0000
1000
0000
,
0010
0000
0100
0000
,
0001
0000
1000
0000
,
0001
0000
1000
0000
,
0001
0000
0010
0000
,
0100
0000
1000
0000
,
0100
0000
1000
0000
,
0001
0000
0100
0000
,
0010
0000
0000
0000
,
1001
0000
0000
0000
,
0010
0000
0000
0000
,
0100
0000
0000
0000
,
0110
0000
0000
0000
,
0001
0000
0000
0000
,
1000
0000
0000
0000
,
1001
0000
0000
0000
,
0010
0000
0100
0000
,
1001
0000
0010
0000
,
0010
0000
1000
0000
,
0100
0000
0100
0000
,
1000
1000
1000
0000
,
0001
0000
0100
0000
,
0010
0000
1000
0000
,
0100
0100
0100
0000
,
0010
0000
0001
0000
,
1000
1000
1000
0000
,
0001
0000
0100
0000
,
1000
1000
1000
0000
,
0001
0000
0100
0000
,
0010
0000
0100
0000
,
0001
0000
1000
0000
,
1000
0000
0001
0000
,
0010
0000
0100
0000
,
0100
0000
0100
0000
,
1000
0000
0001
0000
,
1000
0000
0001
0000
,
1000
1000
1000
1000
,
0000
0001
0000
1000
,
0000
0001
0000
0000
,
0110
0000
0000
0000
,
1001
0000
0000
0000
;

//---------------dance-double - M.Emirzian----------------
#NOTES:
     dance-double:
     M.Emirzian:
     Easy:
     2:
     0.101,0.170,0.026,0.052,0.000,73.000,3.000,6.000,0.000,0.000,0.000,0.101,0.170,0.026,0.052,0.000,73.000,3.000,6.000,0.000,0.000,0.000:
00000000
00000000
00000000
00000000
,
00000000
00000000
00000000
00000000
,
00000000
00000000
00000000
00000000
,
00000000
00000000
00000000
00000000
,
00010000
00000000
00000000
00000000
,
01000000
00000000
00000000
00000000
,
00010000
00000000
00000000
00000000
,
01000000
00000000
00000000
00000000
,
02020000
00000000
03030000
00000000
,
00010000
00000000
00000000
00000000
,
00100000
00000000
00000000
00000000
,
00001000
00000000
00000000
00000000
,
00000100
00000000
00001000
00000000
,
00000100
00000000
00000000
00000000
,
00000001
00000000
00000000
00000000
,
00001000
00000000
00000000
00000000
,
00000010
00000000
00000000
00000000
,
00000000
00001000
00000000
00000000
,
00000000
00000100
00000000
00000000
,
00010000
00000000
00001000
00000000
,
00010000
00000000
00000000
00000000
,
00000000
10000000
00000000
00000000
,
00000000
00010000
00000000
00000000
,
10000000
00000000
01000000
00000000
,
10000000
00000000
00000000
00000000
,
00010000
00000000
00000000
00000000
,
00100000
00000000
00000000
00000000
,
00001000
00000000
00000000
00000000
,
00010000
00000000
00001000
00000000
,
00010000
00000000
00000000
00000000
,
00000100
00000000
00000000
00000000
,
00000010
00000000
00000000
00000000
,
00000001
00000000
00001000
00000000
,
00000220
00000000
00000330
00000000
,
00000001
00000000
00000000
00000000
,
00001000
00000000
00000000
00000000
,
00010000
00000000
00000000
00000000
,
10000000
00000000
00000000
00000000
,
01000000
01000000
00000000
00000000
,
00001000
00000000
00000000
00000000
,
00000100
00000100
00000000
00000000
,
00000001
00000000
00000000
00000000
,
00001000
00000000
00000000
00000000
,
00000100
00000000
00000000
00000000
,
00010000
00000000
00000000
00000000
,
00001000
00000000
00010000
00000000
,
00001000
00000000
00000000
00000000
,
01000000
00000000
00000000
00000000
,
00010000
00000000
00000000
00000000
,
10000000
00000000
00000000
00000000
,
00000000
01000000
00000000
00000000
,
00000000
00100000
00000000
00000000
,
00001000
00000000
00010000
00000000
,
00001000
00000000
00000000
00000000
,
00000000
00000001
00000000
00000000
,
00000000
00000100
00000000
00000000
,
00001000
00000000
00000010
00000000
,
00001000
00000000
00000000
00000000
,
00010000
00000000
00000000
00000000
,
00001000
00000000
00000000
00000000
,
01000000
00000000
00000000
00000000
,
00010000
00000000
01000000
00000000
,
00010000
00000000
00000000
00000000
,
10000000
00000000
00000000
00000000
,
01000000
00000000
00000000
00000000
,
20020000
00000000
00000000
30030000
;

//---------------dance-double - M.Emirzian----------------
#NOTES:
     dance-double:
     M.Emirzian:
     Medium:
     4:
     0.201,0.227,0.069,0.069,0.000,147.000,8.000,8.000,0.000,0.000,0.000,0.201,0.227,0.069,0.069,0.000,147.000,8.000,8.000,0.000,0.000,0.000:
00000000
00000000
00000000
00000000
,
00000000
00000000
00000000
00000000
,
00000000
00000000
00000000
00000000
,
00000000
00000000
00000000
00000000
,
01000000
00000000
00010000
00000000
,
01000000
00000000
00000000
00000000
,
00010000
00000000
10000000
00000000
,
00010000
00000000
00000000
00000000
,
02020000
00000000
03030000
00000000
,
00001000
00000000
00000000
00010000
00000000
00000000
00000000
00001000
,
00010000
00000000
00000000
00000100
00000000
00000000
00000000
00000000
,
00000010
00000000
00000001
00000000
,
00000100
00000100
00000100
00000000
,
00000010
00000000
00000000
00001000
00000000
00000000
00000000
00000010
,
00010000
00000000
00000000
00001000
00000000
00000000
00000000
00000000
,
00010000
00000000
00001000
00000000
,
01000000
01000000
01000000
00000000
,
00000000
00010000
01000000
00010000
,
00000000
00100000
10000000
00100000
,
10000000
00000000
00010000
00000000
,
00100000
00100000
00100000
00000000
,
00000000
00001000
00010000
00001000
,
00000000
00000100
00010000
00000100
,
00010000
00000000
00000010
00000000
,
00000001
00000001
00000001
00000000
,
00000010
00000000
00010000
00000000
,
00001000
00000000
00010000
00000000
,
00100000
00000000
10000000
00000000
,
00010000
00010000
00010000
00000000
,
10000000
00000000
01000000
00000000
,
00010000
00000000
00001000
00000000
,
00000100
00000000
00000001
00000000
,
00001000
00001000
00001000
00000000
,
00002020
00000000
00000000
00003030
,
00000000
00000000
00000010
00000000
00000000
00001010
00000000
00000000
,
00000000
00000000
01000000
00000000
00000000
01010000
00000000
00000000
,
00000000
00000000
00001000
00000000
00000000
00011000
00000000
00000000
,
00000000
00000000
10000000
00000000
00000000
10010000
00000000
00000000
,
01000000
00000000
01000000
00000000
00000000
00000000
00000000
00010000
,
01000000
00000000
00001000
00000000
00000000
00000000
00000000
00010000
,
00001000
00010000
00000100
00001000
,
00002020
00000000
00000000
00003030
,
00000001
00000000
00000000
00000100
00000000
00000000
00000000
00000010
,
00001000
00000000
00000000
00000010
00000000
00000000
00000000
00000000
,
00010000
00000000
00001000
00000000
,
01000000
01000000
01000000
00000000
,
00001000
00000000
00000000
00010000
00000000
00000000
00000000
00000100
,
00010000
00000000
00000000
00001000
00000000
00000000
00000000
00000000
,
00010000
00000000
00100000
00000000
,
10000000
10000000
10000000
00000000
,
00000000
01000000
00100000
01000000
,
00000000
00010000
00001000
00010000
,
00001000
00000000
00000100
00000000
,
00000001
00000001
00000001
00000000
,
00000000
00001000
00000100
00001000
,
00000000
00000010
00001000
00000010
,
00001000
00000000
00000100
00000000
,
00010000
00010000
00010000
00000000
,
00001000
00000000
01000000
00000000
,
00010000
00000000
10000000
00000000
,
00100000
00000000
01000000
00000000
,
00010000
00010000
00010000
00000000
,
00100000
00000000
00001000
00000000
,
00010000
00000000
00000100
00000000
,
00000010
00000010
00000010
00000010
,
00002002
00000000
00000000
00003003
;

//---------------dance-double - M.Emirzian----------------
#NOTES:
     dance-double:
     M.Emirzian:
     Hard:
     8:
     0.490,0.426,0.173,0.069,0.000,369.000,20.000,8.000,0.000,0.000,0.000,0.490,0.426,0.173,0.069,0.000,369.000,20.000,8.000,0.000,0.000,0.000:
00000000
00000000
00000000
00000000
,
00000000
00000000
00000000
00000000
,
01000000
00000000
00001000
00010000
00000000
00010000
00000000
00000000
,
00001000
00000000
00001000
00010000
00000000
00000100
00000000
00000000
,
00010000
00000000
00001000
00010000
00000010
00001000
00000000
00000100
,
00001000
00000001
00001000
00000000
00000100
00000000
00000000
00000010
,
00000001
00000000
00000010
00000001
00000010
00000001
00000010
00000100
,
00001000
00000010
00010000
00000000
00000000
00000010
00001000
00000100
,
00020200
00000000
00030300
00000000
,
00001000
00000000
00000010
00000100
00000000
00001100
00000000
00001000
,
00010000
00000000
00100000
00010000
00000000
00110000
00000000
00010000
,
00100000
10000000
01000000
10000000
01000000
00010000
01000000
00010000
,
00001000
00010000
00001000
00000010
00000000
00001010
00000000
00000001
,
00000010
00000000
00000100
00000001
00000000
00001100
00000000
00000100
,
00010000
00000000
00001000
01000000
00000000
01010000
00000000
10000000
,
01000000
10000000
01000000
00010000
01000000
00010000
00001000
00010000
,
00001000
00000010
00000001
00000010
00000000
00000001
00000000
00000000
,
00010000
00000100
00001000
00000100
00010000
00000000
00010010
00000000
,
00000010
00001000
00000100
00000010
00000100
00000010
00000001
00000000
,
00000010
00001000
00000100
00000000
00000010
00001000
00000100
00000000
,
00000010
00000100
00000010
00000100
00010000
00001000
00010000
00000000
,
00010000
00001000
00010000
00100000
00010000
00000000
00011000
00000000
,
00001000
01000000
00100000
01000000
00001000
01000000
00100000
00000000
,
10000000
01000000
10000000
01000000
00010000
01000000
00010000
00001000
,
00010000
00001000
00000010
00001000
00000010
00000001
00000010
00000000
,
00000100
00000000
00010000
00001000
00010000
00000010
00000000
00001100
,
00000000
00001000
00000100
00000001
00000100
00000000
00000010
00000000
,
00000100
00000001
00000010
00000000
00000100
00001000
00000100
00000000
,
00000010
00001000
00010000
01000000
,
00100000
00000000
00001000
01000000
00001000
00010000
00000000
00110000
,
00000000
00010000
00100000
10000000
00100000
00000000
01000000
00000000
,
00010000
10000000
00100000
10000000
00100000
00010000
00100000
00010000
,
00001000
00010000
00001000
00000100
00001000
00000100
00000001
00000000
,
00002002
00000000
00000000
00003003
,
00000010
00001000
00010000
00001000
00000000
00000100
00000000
00001000
,
00010000
00000000
00000000
01000000
00100000
00000000
00000000
00010000
,
00000100
00000000
00000000
00001000
00000000
00100000
00000000
00001000
,
00010000
00000000
00000100
00000010
00000000
00001001
00000000
00000000
,
00000010
00001000
00000010
00000000
00000100
00000000
00000001
00000100
,
00001000
00000100
00001000
00000000
00010000
00000000
00001000
01000000
,
00010000
01000000
00010000
10000000
01000000
00010000
01000000
00010000
,
00001000
00010000
00022000
00000000
00000000
00000000
00033000
00000000
,
10000000
00000000
01000000
00100000
00000000
00110000
00000000
00100000
,
00010000
00000000
00001000
00010000
00000000
01000000
00000000
00010000
,
00001000
00010000
00001000
00000100
00001000
00000100
00000001
00000100
,
00000001
00000100
00001000
00000100
00000000
00000101
00000000
00000010
,
00001000
00000000
00000010
00000100
00000000
00010010
00000000
00010000
,
00001000
00000000
00000100
00000010
00000000
00010000
00000000
00010000
,
00001000
00010000
00001000
00000100
00001000
00000100
00001000
00010000
,
00001000
00010000
00100000
00010000
00000000
00100000
00000000
00000000
,
10000000
01000000
00100000
00010000
01000000
00000000
10010000
00000000
,
00100000
01000000
00001000
00010000
00001000
01000000
00100000
00000000
,
00010000
10000000
01000000
10000000
01000000
00010000
01000000
00010000
,
00001000
00010000
00001000
00000010
00000001
00000010
00000001
00000000
,
00000100
00000010
00010000
00001000
00010000
00000000
00000110
00000000
,
00000001
00000010
00001000
00000010
00000001
00000010
00001000
00000000
,
00000010
00001000
00000100
00000000
00000010
00001000
00000100
00000000
,
00000010
00001000
00000010
00000100
00001000
00010000
00001000
00000000
,
00000100
00000000
00001000
00010000
00001000
01000000
00000000
01100000
,
00000000
00100000
00010000
00001000
00010000
00000000
01000000
00000000
,
10000000
00100000
10000000
00100000
00010000
00100000
00010000
00001000
,
00010000
00001000
00000010
00000001
00000010
00000001
00000100
00000000
,
00000001
00000000
00001000
00000100
00000010
00000001
00000000
00000101
,
00000000
00000001
00000010
00001000
00000010
00000000
00000100
00000000
,
00001000
00000001
00000100
00000000
00001000
00010000
01000000
00000000
,
20000000
00000000
00000000
00020000
00000000
00000000
30030000
00000000
;

//---------------dance-single - J. Frederick----------------
#NOTES:
     dance-single:
     J. Frederick:
     Easy:
     2:
     0.206,0.337,0.104,0.225,0.000,129.000,12.000,26.000,0.000,0.000,0.000,0.206,0.337,0.104,0.225,0.000,129.000,12.000,26.000,0.000,0.000,0.000:
0000
0000
0000
0000
,
0000
0000
0000
0000
,
0000
0000
0000
0000
,
0000
0000
0000
0000
,
1001
2002
0000
3003
,
0101
0202
0000
0303
,
2020
3030
0202
0303
,
0220
0000
0000
0330
,
2002
0000
0000
3003
,
0100
0001
0010
0000
,
0100
1000
0010
0000
,
0100
0010
0100
0010
,
0200
0000
0000
0300
,
1000
0000
0001
0000
,
0010
0100
1000
0000
,
0010
0000
0100
0000
,
2002
0000
0000
3003
,
0000
0010
0100
0010
,
0000
0001
1000
0001
,
1000
0000
0010
0000
,
0100
0100
0100
0100
,
0000
0001
0010
0001
,
0000
1000
0100
1000
,
0001
0000
0100
0000
,
0010
0100
0010
0200
,
0300
1000
0001
0000
,
0010
0100
1000
0000
,
0001
0000
1000
0000
,
0010
0000
0100
0000
,
0010
1000
0100
0000
,
0010
0000
0001
0000
,
2000
3000
0002
0003
,
0220
0000
0000
0330
,
2002
0000
0000
3003
,
1000
0000
0000
0000
,
0001
0000
0000
0000
,
0100
0100
0000
0000
,
0010
0010
0000
0000
,
1000
0000
0000
0000
,
0001
0001
0000
0000
,
0020
0030
0200
0300
,
2000
3000
0000
0000
,
0001
0000
0100
0000
,
0010
1000
0010
0000
,
0001
0000
0100
0000
,
1000
0001
1000
0000
,
0010
0000
0100
0000
,
0001
0000
0010
0000
,
0100
1000
0100
0000
,
0020
0000
0000
0030
,
0001
0000
0000
0000
,
1000
0000
0000
0000
,
0010
0000
0100
0000
,
0001
1000
0001
1000
,
0000
0000
0001
0000
,
0000
0000
0100
0000
,
0010
0000
1000
0000
,
0010
0100
0010
0100
,
0010
0000
0000
0000
,
1000
1000
0000
0000
,
0001
0000
0010
0000
,
0100
0000
1000
0000
,
0001
0100
0000
0000
,
0010
1000
0000
0000
,
0001
0000
0010
0000
,
1001
0000
0000
0000
;

//---------------dance-single - J. Frederick----------------
#NOTES:
     dance-single:
     J. Frederick:
     Medium:
     4:
     0.338,0.365,0.078,0.268,0.000,234.000,9.000,31.000,0.000,0.000,0.000,0.338,0.365,0.078,0.268,0.000,234.000,9.000,31.000,0.000,0.000,0.000:
0000
0000
0000
0000
,
0000
0000
0000
0000
,
0000
0000
0000
0000
,
0000
0000
0000
0000
,
1000
0100
1000
0000
0000
0000
0000
0010
,
0001
0010
0001
0000
0000
0000
0000
0100
,
0001
1000
0010
0100
,
0001
0010
0001
0000
1000
0000
0001
0000
,
2002
0000
0000
0000
0000
0000
0000
3003
,
0100
0000
0001
0100
0000
0000
0010
0000
,
1000
0000
0100
0010
0000
0000
0001
0000
,
1000
0000
0001
0100
0001
0000
0010
0000
,
0100
0000
1000
0020
0000
0000
0030
0000
,
0100
0000
0001
0010
0000
0000
0100
0000
,
1000
0000
0010
0100
0000
0000
0001
0000
,
0010
0000
0100
1000
0100
0000
0010
0000
,
0001
0000
0100
0020
0000
0000
0000
0030
,
1000
0000
0100
0010
0001
0000
0100
0000
,
0000
0000
0010
1000
0010
0000
0100
0000
,
0001
0010
0001
0100
,
0101
0000
1010
0000
0100
0001
0020
0000
,
0030
0000
0100
1000
0100
0000
0010
0000
,
0000
0000
0001
0100
0001
0000
0010
0000
,
0001
0000
1000
0001
0000
0100
0010
0000
,
1000
0000
0010
0000
0100
0001
0100
0000
,
0002
0003
0020
0030
,
0100
1000
0020
0030
,
0100
0000
0010
0000
1000
0100
1000
0000
,
0100
0010
0002
0003
,
0200
0300
0020
0030
,
1000
0000
0001
0000
0100
0010
0100
0000
,
0020
0030
2000
3000
,
2002
0000
0000
0000
0000
0000
0000
3003
,
0220
0000
0000
0000
0000
0000
0000
0330
,
1000
0000
0001
0010
0000
0000
0100
0000
,
1000
0000
0010
0100
0000
0000
0001
0000
,
0010
0001
0010
0000
0001
0000
0100
0000
,
0010
0000
1000
0100
0000
0000
0010
0000
,
0001
0000
0100
0000
0000
0000
0000
0001
,
1000
0001
1000
0000
0000
0000
0000
0010
,
0100
0010
0100
0000
0001
1000
0001
0000
,
0010
0100
0010
0100
0000
0000
0000
0000
,
1000
0000
0001
0100
0000
0000
0010
0000
,
1000
0000
0100
0010
0000
0000
0001
0000
,
0100
0001
0100
0000
0010
1000
0010
0000
,
0100
0000
0001
0020
0000
0000
0030
0000
,
0100
0000
1000
0100
0000
0000
0010
0000
,
0001
0000
0100
0001
0000
0000
1000
0000
,
0010
0100
0001
0000
0010
0100
1000
0000
,
2002
0000
0000
3003
,
0100
0000
0010
0100
0010
0000
2000
0000
,
3000
0000
0001
0010
0100
0000
2000
0000
,
3000
0000
0010
0100
0000
0001
0010
0000
,
0100
0000
1000
0000
0100
0010
0100
0000
,
0000
0000
1000
0001
1000
0000
2002
0000
,
3003
0000
0100
0010
0100
0000
0120
0000
,
0130
0000
0010
0100
0000
0100
0001
0000
,
0010
0000
0100
0000
1000
0100
1000
0000
,
0001
0100
0010
1000
,
0100
0010
0002
0003
,
0200
0300
0020
0030
,
1000
0100
0020
0030
,
0001
0100
0020
0030
,
1000
0100
0020
0030
,
0001
1000
0001
0000
,
1001
0000
0000
0000
;

//---------------dance-double - S. Venkat----------------
#NOTES:
     dance-double:
     S. Venkat:
     Challenge:
     10:
     0.695,0.796,0.268,0.216,0.440,505.000,31.000,25.000,0.000,17.000,0.000,0.695,0.796,0.268,0.216,0.440,505.000,31.000,25.000,0.000,17.000,0.000: // measure 1
00000000
00000000
00000000
00000000
,  // measure 2
00000000
00000000
00000000
00000000
,  // measure 3
00000000
00000000
00000000
00000000
,  // measure 4
00000000
00000000
00000000
00000000
,  // measure 5
00011000
00000000
00010000
00001000
01000000
00100000
00010000
00001000
,  // measure 6
00011000
00000000
00001000
00010000
00000100
00000010
00001000
00010000
,  // measure 7
00000010
00000100
00001000
00010000
00100000
01000000
00100000
00010000
,  // measure 8
00001000
00000100
00000010
00001000
00000100
00010000
01000000
00100000
,  // measure 9
00202000
00000000
00000000
00000000
00020000
00333000
00000000
00000000
,  // measure 10
00102000
00000000
00003000
00100000
00010000
00000000
00000010
00000000
00000100
00000000
00001000
00000000
00000010
00000000
00010000
00000000
,  // measure 11
00020010
00000000
00030000
00000010
00001000
00000000
00100000
00000000
01000000
00000000
00010000
00000000
00100000
00000000
00000010
00000000
,  // measure 12
00010000
00001000
00000100
00000010
00001000
00100000
01000000
00010000
,  // measure 13
00100000
01000000
00010000
00002000
00000000
02000000
03003000
00000000
,  // measure 14
01002000
00000000
00003000
01000000
00010000
00000000
00000100
00000000
00000010
00000000
00001000
00000000
00000100
00000000
00010000
00000000
,  // measure 15
00020100
00000000
00030000
00000100
00001000
00000000
01000000
00000000
00100000
00000000
00010000
00000000
01000000
00000000
00000100
00000000
,  // measure 16
01000000
00100000
00010000
00000010
00000100
00001000
00010000
00000010
,  // measure 17
00001000
00000100
00010000
00002000
00000000
00020000
00033000
00000000
,  // measure 18
00001000
00010000
00001000
00000000
00010000
00001000
00100000
00000000
00100000
00010000
01000000
00000000
01000000
00001000
00010000
00000010
,  // measure 19
00001000
00000100
00010000
00000000
00010000
01000000
00100000
00000000
00100000
00010000
00100000
00001000
00010000
00000010
00001000
00000000
,  // measure 20
00001000
00000100
00001000
00000000
00001000
00000010
00100000
00001000
00010000
00000100
01000000
00000000
01000000
00010000
00100000
00010000
,  // measure 21
01000000
00010000
00100000
00000000
00100000
00000010
00001000
00000000
00001000
00000100
00010000
00000000
00010000
00001000
00010000
00000010
,  // measure 22
00100000
00001000
00010000
00000000
00010000
00001000
00000100
00000000
00000100
00000010
00001000
00000000
00001000
00000100
00000010
00000100
,  // measure 23
00010000
00001000
00100000
00000000
00100000
00001000
00010000
00000000
00010000
00001000
00000010
00000000
00000010
00000100
00001000
00000010
,  // measure 24
00000100
00000010
00000100
00000000
00000100
00000010
00001000
00000010
00010000
00001000
01000000
00000000
01000000
00100000
01000000
00010000
,  // measure 25
01000000
00001000
00010000
00000000
00010000
00001000
00010000
00000100
00010000
00000010
00010000
00000000
00010000
00001000
00010000
00001000
,  // measure 26
01000000
00000000
00100000
00010000
00000010
00001000
00000000
00100010
,  // measure 27
00000000
00000000
00010000
00000000
00001000
00000000
01000000
00000000
00000100
00000000
00000000
00000010
00000000
00000000
00001000
00000000
,  // measure 28
01000000
00000000
00001000
00010000
00000000
00000200
02000000
00000000
,  // measure 29
00010000
00000000
00001000
00000000
00010000
00000000
00001000
03000300
,  // measure 30
00010000
00000000
00000100
00001000
01000000
00010000
00000000
01100000
,  // measure 31
00000000
00000000
00001000
00000000
00010000
00000000
00000010
00000000
00000100
00000000
00000000
00001000
00000000
00000000
00100000
00000000
,  // measure 32
00000010
00000000
00000010
00010000
00000000
00002000
02000000
00000000
,  // measure 33
00100000
00000000
00010000
00100000
00000000
00100000
00010000
03003000
,  // measure 34
01111000
00000000
00000000
00000000
,  // measure 35
01010000
00000000
01000000
00000000
00100000
01000000
00010000
00000000
00110000
00000000
00000000
00000000
00101000
00000000
00001000
00000000
,  // measure 36
00010010
00000000
00001000
00000010
00010000
00000000
00000000
00000000
00000000
00000000
00001010
00000000
00000000
00000000
00001000
00000000
,  // measure 37
00000100
00000000
01000000
00000000
00010000
00100000
00001000
00000000
00011000
00000000
00000000
00000000
01001000
00000000
00010000
00000000
,  // measure 38
00101000
00000000
00001000
00010000
00000100
00000000
00010100
00000000
00000100
00001000
00000100
00000000
00001000
00000010
00010000
00000000
,  // measure 39
01000010
00000000
00010000
00001000
00000000
00000000
00000000
00010000
,  // measure 40
00010010
00000010
00000100
00000110
00000000
00000000
00000000
00001100
,  // measure 41
00001000
00000100
00010000
00001000
01000000
00010000
00100000
00001000
,  // measure 42
00101000
00000000
00101000
00110000
00000000
00000000
00000000
00000000
,  // measure 43
01020000
00000000
00030000
00100000
01000000
00000000
00010000
00000000
00001000
00000000
00000010
00000000
00000100
00000000
00001000
00000000
,  // measure 44
00002100
00000000
00003000
00000010
00000100
00000000
00001000
00000000
00010000
00000000
00100000
00000000
01000000
00000000
00001000
00000000
,  // measure 45
00000010
00000100
00010000
00000100
01000000
00001000
00010000
00100000
,  // measure 46
01000000
00001000
00100000
00000010
00010000
00001000
01000000
00000100
,  // measure 47
01000000
00001000
00000100
00000010
00010000
00100000
01000000
00001000
,  // measure 48
00010000
00000100
00000010
00001000
00010000
00100000
01000000
00010000
,  // measure 49
00100000
01000000
00100000
00010000
00100000
00001000
00100000
00000010
,  // measure 50
00100000
00000100
00010000
00002000
00000000
00020000
00033000
00000000
,  // measure 51
00010000
00001000
00010000
00000000
00001000
00010000
00000100
00000000
00000100
00001000
00000010
00000000
00000010
00010000
00001000
01000000
,  // measure 52
00010000
00100000
00001000
00000000
00001000
00000010
00000100
00000000
00000100
00001000
00000100
00010000
00001000
01000000
00010000
00000000
,  // measure 53
00010000
00100000
00010000
00000000
00010000
01000000
00000100
00010000
00001000
00100000
00000010
00000000
00000010
00001000
00000100
00001000
,  // measure 54
00000010
00001000
00000100
00000000
00000100
01000000
00010000
00000000
00010000
00100000
00001000
00000000
00001000
00010000
00001000
01000000
,  // measure 55
00000100
00010000
00001000
00000000
00001000
00010000
00100000
00000000
00100000
01000000
00010000
00000000
00010000
00100000
01000000
00100000
,  // measure 56
00001000
00010000
00000100
00000000
00000100
00010000
00001000
00000000
00001000
00010000
01000000
00000000
01000000
00100000
00010000
01000000
,  // measure 57
00100000
01000000
00100000
00000000
00100000
01000000
00010000
01000000
00001000
00010000
00000010
00000000
00000010
00000100
00000010
00001000
,  // measure 58
00000010
00010000
00001000
00000000
00001000
00010000
00001000
00100000
00001000
01000000
00001000
00000000
00001000
00010000
00001000
00010000
,  // measure 59
00000010
00000000
00001000
00000100
00100000
00010000
00000000
01010000
,  // measure 60
00000000
00000000
01000000
00000000
00000010
00000000
00001000
00000000
00000100
00000000
00000000
00000010
00000000
00000000
00001000
00000000
,  // measure 61
00010000
00000000
01000000
00100000
00000000
00000200
00020000
00000000
,  // measure 62
00000010
00000000
00001000
00000000
00000010
00000000
00001000
00030300
,  // measure 63
00000010
00000000
00010000
01000000
00001000
00000010
00000000
00100010
,  // measure 64
00000000
00000000
00000010
00000000
00000100
00000000
00100000
00000000
01000000
00000000
00000000
00001000
00000000
00000000
00010000
00000000
,  // measure 65
00000100
00000000
00000010
00001000
00000000
00010000
00000010
00000000
,  // measure 66
00011000
00000000
00000200
02000000
00000000
00002000
00020000
03033300
;

//---------------dance-single - D. D'Amato----------------
#NOTES:
     dance-single:
     D. D'Amato:
     Challenge:
     9:
     0.575,0.570,0.354,0.294,0.095,391.000,41.000,34.000,17.000,0.000,0.000:
0000
0000
0000
0000
,
0000
0000
0000
0000
,
0000
0000
0000
0000
,
0000
0000
0000
0000
,
2001
0000
3001
0010
0100
0010
0001
1000
,
1002
0000
0000
0000
1003
0000
0100
0000
0010
0000
0100
1000
0000
1000
0001
0000
,
2000
0000
3001
0010
0000
0100
0000
1000
,
0010
0100
0010
1000
0000
0001
0000
0100
,
2002
0000
0000
3003
,
1020
0000
1000
1000
1000
1030
1000
0100
,
0020
0000
0100
0100
0100
0100
0130
0100
,
1000
0010
0001
0010
1000
0100
0010
0000
,
0001
0010
0100
2000
0000
3002
0000
0003
,
0020
0000
0001
0001
0001
0031
0001
0100
,
0020
0000
0100
0100
0100
0100
0130
0100
,
0001
0010
1000
0010
0001
0100
0010
0000
,
1000
0010
0100
0002
0000
2003
0000
3000
,
1001
0000
0010
0001
1000
0000
1010
0000
,
0101
0000
0100
0001
1000
0000
1100
0000
,
0110
0000
0010
1000
0000
0010
0001
0000
,
1100
0000
0101
0000
0001
0100
1000
0000
,
1001
0000
0010
1000
0001
0000
0011
0000
,
1100
0000
0100
1000
0001
0000
0101
0000
,
0110
0000
0010
0001
0000
0010
1000
0000
,
0101
0000
1100
0000
1000
0100
0001
0000
,
1001
0000
1000
0010
0100
0010
1000
0001
,
1001
0000
0000
0000
0001
0000
0100
0000
0010
0000
0100
0001
0000
0001
1000
0000
,
0002
0000
1003
0010
0000
0010
2000
0000
,
3001
0010
0100
0000
0100
0010
0001
0100
,
1001
0000
0001
0010
0100
0010
0001
1000
,
1001
0000
0000
0000
1000
0000
0100
0000
0010
0000
0100
1000
0000
1000
0001
0000
,
2000
0000
3001
0010
0000
0010
0002
0000
,
2003
0000
3001
0100
0000
0100
0010
0100
,
2002
0000
0000
3003
,
0100
0000
1000
0000
0001
0010
0001
0000
1000
0000
0010
0100
0010
0000
1000
0000
,
0100
0000
0010
0000
0100
1000
0100
0000
0010
0000
0001
1000
0001
0000
0100
0000
,
0010
0000
1000
0000
0100
0010
0100
0000
1000
0000
0001
0100
0001
0000
0010
0000
,
0100
0010
0001
1000
0000
0001
1000
0010
,
M100
0000
0001
0000
1M00
0010
1000
0000
0001
0000
0010
0100
0010
0000
0M01
0000
,
01M0
0000
001M
0000
M100
0001
0100
0000
0010
0000
1000
0001
1000
0000
010M
0000
,
M010
0000
0001
0000
010M
0010
M100
0000
00M1
0000
100M
0100
10M0
0000
0M10
0000
,
M100
001M
1M00
0001
0000
1000
0001
0010
,
0200
0000
1000
1000
1000
1300
1000
0010
,
0200
0000
0010
0010
0010
0010
0310
0010
,
1000
0100
0001
0100
1000
0010
0100
0000
,
0001
0100
0010
2000
0000
3002
0000
0003
,
0200
0000
0001
0001
0001
0301
0001
0010
,
0200
0000
0010
0010
0010
0010
0310
0010
,
0001
0100
1000
0100
0001
0010
0100
0000
,
1000
0100
0010
0002
0000
2003
0000
3000
,
1001
0000
0100
1000
0001
0000
0101
0000
,
1010
0000
0010
1000
0001
0000
0011
0000
,
0110
0000
0100
0001
0000
0100
1000
0000
,
0011
0000
1010
0000
1000
0010
0001
0000
,
1001
0000
0100
0001
1000
0000
1100
0000
,
0011
0000
0010
0001
1000
0000
1010
0000
,
0110
0000
0100
1000
0000
0100
0001
0000
,
1010
0000
0011
0000
0001
0010
1000
0000
,
1001
0000
0001
0100
0010
0100
0001
1000
,
1001
0000
0000
0000
1000
0000
0010
0000
0100
0000
0010
1000
0000
1000
0001
0000
,
2000
0000
3001
0100
0000
0100
0002
0000
,
1003
0100
0010
0000
0010
0100
1000
0010
,
1001
0000
1000
0100
0010
0100
1000
0001
,
1001
0000
0000
0000
0001
0000
0010
0000
0100
0000
0010
0001
0000
0001
1000
0000
,
0002
0000
1003
0100
0000
0100
2000
0000
,
3002
0000
1003
0010
0000
0010
0200
0000
,
0300
0000
0000
0000
;

//---------------dance-single - J. Frederick----------------
#NOTES:
     dance-single:
     J. Frederick & S. Venkat:
     Edit:
     10:
     0.677,0.000,0.130,0.026,0.462: // measure 1
0000
0000
0000
0000
,  // measure 2
0000
0000
0000
0000
,  // measure 3
0000
0000
0000
0000
,  // measure 4
0000
0000
0000
0000
,  // measure 5
1001
0000
0010
0100
1000
0100
0000
0010
,  // measure 6
0000
0000
0100
0000
0001
0000
0010
0000
0100
0000
1000
0100
0000
0100
0010
0000
,  // measure 7
0001
0000
0100
0010
0000
1000
0000
0010
,  // measure 8
0100
0001
0010
0100
0000
1100
0000
0000
,  // measure 9
0011
0000
0100
0001
1000
0010
1000
0100
,  // measure 10
1000
0000
0000
0001
0010
0000
0100
0000
1000
0000
0100
0000
0010
0000
0001
0000
,  // measure 11
0100
0000
0000
0010
1000
0000
0010
0000
0100
0000
0001
0000
0010
0000
0100
0000
,  // measure 12
1000
0100
1000
0000
0001
0010
0001
0000
0010
0100
0010
0000
0110
0000
0100
0000
,  // measure 13
1000
0010
0100
0001
0000
0001
0010
0100
,  // measure 14
1000
0000
0000
0010
0100
0000
0001
0000
0010
0000
0100
0000
1000
0000
0010
0000
,  // measure 15
0100
0000
0000
0010
1000
0000
0001
0000
0010
0000
0100
0000
1000
0000
0010
0000
,  // measure 16
0100
0010
0100
0000
0001
0100
0001
0000
0010
0001
0010
0000
0110
0000
0110
0000
,  // measure 17
1000
0010
0100
0010
0000
0020
0000
0030
,  // measure 18
1000
0001
1000
0000
0100
0010
0100
0000
0010
0001
0010
0000
0100
0010
0100
0000
,  // measure 19
1000
0100
1000
0000
0010
0100
0010
0000
1000
0001
1000
0000
0100
0010
0100
0000
,  // measure 20
0010
0100
1000
0000
0100
1000
0010
0000
0100
0001
0010
0000
0100
1000
0010
0000
,  // measure 21
0100
0001
0010
0000
0001
0100
0001
0000
1000
0010
0100
0000
0010
1000
0100
0000
,  // measure 22
0010
0001
0100
0000
0001
1000
0010
0000
0100
0010
1000
0000
0100
0010
0001
0000
,  // measure 23
0100
0001
0100
0000
0010
1000
0010
0000
0100
0001
0100
0000
0010
1000
0010
0000
,  // measure 24
1000
0010
0100
0000
0001
0010
0100
0000
1000
0010
0100
0000
0001
0010
0001
0000
,  // measure 25
0100
0001
1000
0000
0010
0100
0010
0000
1000
0001
0010
0000
1100
0000
0100
0000
,  // measure 26
1001
0000
0010
0100
1000
0100
0000
0010
,  // measure 27
0000
0000
0100
0000
0001
0000
0010
0000
0100
0000
1000
0100
0000
0100
0010
0000
,  // measure 28
0001
0000
0100
0010
0000
1000
0000
0010
,  // measure 29
0100
0001
0010
0100
0000
1100
0000
0000
,  // measure 30
1001
0000
0010
0100
1000
0100
0000
0010
,  // measure 31
0000
0000
0100
0000
0001
0000
0010
0000
0100
0000
1000
0100
0000
0100
0010
0000
,  // measure 32
0001
0000
0100
0010
0000
1000
0000
0010
,  // measure 33
0100
0001
0010
0100
0000
1100
0000
0000
,  // measure 34
0011
0001
0100
0001
1000
0010
1000
0100
,  // measure 35
0110
0000
0000
0000
1000
0000
0001
0000
0000
0000
0010
0000
0100
1000
0000
0000
,  // measure 36
0110
0000
0000
0000
0100
0000
0001
0000
0000
0000
0010
0000
0001
0100
0000
0000
,  // measure 37
0001
0000
1000
0000
0010
0000
0100
0000
0000
0000
0100
0000
0010
1000
0000
0000
,  // measure 38
0100
0000
0010
0000
0001
0000
0100
0000
0001
1000
0001
0000
1000
0000
0010
0000
,  // measure 39
0100
0000
0100
0010
0000
1000
0100
0010
,  // measure 40
0001
0010
0001
0000
0100
0000
0010
0000
0000
0000
0010
0000
1000
0000
0100
0000
,  // measure 41
0010
0001
0010
0000
0100
0000
1000
0000
0010
1000
0010
0000
0100
0000
0010
0000
,  // measure 42
0100
0001
0010
0100
0000
1000
0010
0000
0000
0000
0100
0000
0001
0000
0000
0000
,  // measure 43
1000
0001
0010
0100
0000
0100
1000
0010
,  // measure 44
0100
0001
0100
0000
0001
0000
0010
0000
0000
0000
0010
0000
0100
0000
1000
0000
,  // measure 45
0100
1000
0100
0000
0010
0001
0010
0000
0001
0100
0001
0000
1000
0010
0100
0000
,  // measure 46
0010
0100
1000
0100
0000
0010
0000
1000
,  // measure 47
1000
0100
1000
0000
0010
0000
0100
0000
0000
0000
0100
0000
0001
0000
0010
0000
,  // measure 48
0001
0010
0001
0000
0100
0000
0010
0000
0000
0000
0010
0000
1000
0000
0010
0000
,  // measure 49
0100
0001
0100
0000
0001
0010
0001
0000
0010
0100
0010
0000
0100
1000
0100
0000
,  // measure 50
1000
0010
0100
0001
0000
0001
0010
0000
,  // measure 51
0100
1000
0100
0000
0010
0001
0010
0000
0001
0100
0001
0000
0100
0010
0100
0000
,  // measure 52
0010
1000
0010
0000
0100
0001
0010
0000
0100
1000
0100
0000
0010
0001
0100
0000
,  // measure 53
0001
1000
0010
0000
0100
0010
1000
0000
0001
0010
0100
0000
1000
0100
0010
0000
,  // measure 54
0001
0100
0010
0000
1000
0010
0100
0000
0001
0010
0100
0000
1000
0010
0100
0000
,  // measure 55
0001
0010
0001
0000
1000
0010
0100
0000
0010
0001
0010
0000
0100
0010
1000
0000
,  // measure 56
0100
0010
0001
0000
1000
0100
0010
0000
0001
1000
0100
0000
1000
0010
1000
0000
,  // measure 57
0010
0100
0010
0000
0100
0001
0010
0000
0100
0010
0100
0000
1000
0010
0100
0000
,  // measure 58
1000
0100
0010
0000
1000
0100
1000
0000
0001
0010
0001
0000
0100
1000
0100
0000
,  // measure 59
0001
0000
0100
0010
1000
0100
0010
0001
,  // measure 60
0100
0000
0001
0000
1000
0000
0010
0000
0100
0000
0001
0010
0000
0010
0100
0000
,  // measure 61
1000
0010
0100
0001
0000
0001
0010
0100
,  // measure 62
1000
0100
1000
0000
0010
0000
0100
0000
0000
0000
0100
0000
0001
0000
0010
0000
,  // measure 63
0001
0000
0000
0001
1000
0000
0010
0000
0100
0000
0010
0000
1000
0000
0100
0000
,  // measure 64
0010
0000
0010
0000
0001
0000
0100
0000
0010
0000
1000
0010
0000
0000
0010
0100
,  // measure 65
0001
0000
0000
0010
0100
0000
1000
0000
0000
0000
0010
0000
0100
0000
0001
0000
,  // measure 66
1001
0000
0200
0020
0000
1000
0001
0000
,  // measure 67
0330
0000
0000
0000
;
