#TITLE:Chopstix;
#SUBTITLE:;
#ARTIST:Sonic Dimension;
#TITLETRANSLIT:;
#SUBTITLETRANSLIT:;
#ARTISTTRANSLIT:;
#GENRE:Silly Pop;
#CREDIT:;
#BANNER:Chopstix-bn.png;
#BACKGROUND:Chopstix-bg.png;
#LYRICSPATH:;
#CDTITLE:;
#MUSIC:Chopstix.ogg;
#OFFSET:-0.043;
#SAMPLESTART:6.780;
#SAMPLELENGTH:11.860;
#SELECTABLE:YES;
#BPMS:0.000=134.000;
#STOPS:;
#BGCHANGES:0.085=Chopstix.mpg=1.000=1=0=0=StretchNoLoop==CrossFade==,
99999=-nosongbg-=1.000=0=0=0 // don't automatically add -songbackground-;
#KEYSOUNDS:;

//---------------dance-single - R. McKanna----------------
#NOTES:
     dance-single:
     R. McKanna:
     Hard:
     8:
     0.545,0.000,0.190,0.000,0.520:
0000
0000
0000
0000
,
0000
0000
0000
0000
,
0000
0000
0000
0000
,
1001
0000
0000
0000
0001
1000
0100
0000
,
0000
0000
0001
0000
0000
0001
0000
0000
0001
0000
0000
0001
0000
0000
0001
0000
,
0100
0000
0010
0000
0000
0010
0000
0000
0010
0000
0000
0010
0000
0000
0010
0000
,
1000
0000
0100
0000
0000
0100
0000
0000
0100
0000
0000
0100
0000
0000
0100
0000
,
0010
0000
0001
0000
0000
0001
0000
0000
0001
0000
0000
0010
0000
0000
0100
0000
,
0000
0000
1000
0000
0000
1000
0000
0000
1000
0000
0000
1000
0000
0000
1000
0000
,
0010
0000
0100
0000
0000
0100
0000
0000
0100
0000
0000
0100
0000
0000
0100
0000
,
0001
0000
0010
0000
0000
0010
0000
0000
0010
0000
0000
0010
0000
0000
0010
0000
,
0100
0000
1000
0000
0010
0000
0100
0001
0000
0000
0000
0000
1000
0000
0010
0000
,
0100
0000
0001
0000
1000
0001
0000
0000
0001
0000
0000
0001
0100
0000
0001
0000
,
0010
0000
0100
0000
1000
0100
0000
0000
0100
0000
0000
0100
0010
0000
0100
0000
,
1000
0000
0010
0000
0100
0010
0000
0000
0010
0000
0000
0010
1000
0000
0010
0000
,
0100
0000
0001
0000
0010
0001
0000
0000
0001
0000
0010
0000
0100
0000
1000
0000
,
0001
0000
1000
0000
0010
1000
0000
0000
1000
0000
0000
1000
0001
0000
1000
0000
,
0010
0000
0100
0000
0001
0100
0000
0000
0100
0000
0000
0100
0010
0000
0100
0000
,
0001
0000
0010
0000
0100
0010
0000
0000
0010
0000
0000
0010
0001
0000
0010
0000
,
0100
0000
1000
0000
0001
0000
1000
0001
0000
0001
0000
0000
0010
0000
0000
0000
,
0101
0000
0000
0010
1100
0000
0000
0010
,
0100
0000
0001
0000
0100
0001
0000
0000
1000
0000
0000
0100
0000
0000
0010
0000
,
0001
0000
0100
0000
0001
0100
0000
0000
0010
0000
0000
1000
0000
0000
0100
0000
,
0010
0000
0001
0000
0010
0001
0000
0000
0100
0000
0000
0010
0000
0000
1000
0000
,
1001
0101
1001
1010
,
0010
0000
1000
0000
0010
1000
0000
0000
0001
0000
0000
0010
0000
0000
0100
0000
,
1000
0000
0010
0000
1000
0010
0000
0000
0100
0000
0000
0001
0000
0000
0010
0000
,
0100
0000
1000
0000
0100
1000
0000
0000
0010
0000
0000
0100
0000
0000
0010
0000
,
0100
0000
0001
0000
0010
0001
0000
0000
1000
0000
0000
0100
0000
0000
0010
0000
,
0001
0000
0100
0000
0010
0100
0000
0000
0001
0000
0000
1000
0000
0000
0100
0000
,
0010
0000
0001
0000
1000
0100
0000
0000
0010
0000
0000
0001
0000
0000
1000
0000
,
1010
0101
0011
1100
,
0100
0000
1000
0000
0010
1000
0000
0000
0001
0000
0000
0010
0000
0000
0100
0000
,
1000
0000
0001
0000
0100
0001
0000
0000
1000
0000
0000
0001
0000
0000
0010
0000
,
0100
0000
1000
0000
0001
1000
0000
0000
1001
0000
0000
0000
0000
0000
0000
0000
,
1001
0000
0101
1010
,
0001
0010
0100
0000
0001
0010
0100
0000
,
0001
0010
0001
0000
0010
0000
0001
0010
0000
0100
0000
1000
0000
0000
0000
0000
,
1000
0010
0100
0000
1000
0010
0100
0000
,
1000
0000
0010
1000
0010
0000
1000
0100
0000
0010
0000
0001
0000
0000
0000
0000
,
0001
0100
1000
0000
1000
0100
0001
0000
,
0001
1000
0001
0000
1000
0000
0001
1000
0000
0100
0000
0001
0000
0000
0000
0000
,
0001
0100
1000
0010
1000
0100
0001
0100
,
1000
0001
1000
0001
1000
0001
1000
0001
1000
0001
1000
0001
1000
0001
1000
0001
,
1000
0000
0110
1001
,
1000
0000
0001
0000
1000
0001
0000
1000
0001
0000
1000
0001
0000
1000
0001
0000
,
0010
0000
0100
0000
1000
0100
0000
1000
0100
0000
1000
0100
0000
1000
0100
0000
,
1000
0000
0010
0000
0100
0001
0000
0100
0001
0000
0100
0001
0000
0100
0001
0000
,
0010
0000
0100
0000
1000
0010
0000
0000
1010
0000
0000
0110
0000
0000
0011
0000
,
0001
0000
0010
0000
0001
0010
0000
0001
0010
0000
0001
0010
0000
0001
0010
0000
,
0100
0000
1000
0000
0010
1000
0000
0010
1000
0000
0010
1000
0000
0010
1000
0000
,
0100
0000
0010
0000
0001
1000
0000
0001
1000
0000
0001
1000
0000
0001
1000
0000
,
0001
0000
0010
0000
0100
0000
1000
0001
0000
0000
0000
0000
1000
0000
0100
0000
,
0010
0000
0001
0000
0000
0001
0000
0000
0001
0000
0000
0001
0000
0000
0001
0000
,
0000
0000
0010
0000
0000
0010
0000
0000
0010
0000
0000
0010
0000
0000
0010
0000
,
0000
0000
0100
0000
0000
0100
0000
0000
0100
0000
0000
0100
0000
0000
0100
0000
,
0000
0000
1000
0000
0000
1000
0000
0000
1000
0000
0000
0100
0000
0000
0010
0000
,
0000
0000
0001
0000
1000
0001
0000
0000
0001
0000
0000
0001
0010
0000
0001
0000
,
0000
0000
1000
0000
0001
1000
0000
0000
1000
0000
0000
1000
0100
0000
1000
0000
,
0000
0000
0010
0000
1000
0010
0000
0000
0010
0000
0000
0010
0100
0000
0010
0000
,
0000
0000
1000
0000
1000
0000
0001
1000
0000
0000
0000
0000
1001
0000
0000
0000
;

//---------------dance-single - K. Ward----------------
#NOTES:
     dance-single:
     K. Ward:
     Easy:
     4:
     0.279,0.000,0.317,0.109,0.000:
0000
0000
0000
0000
,
0000
0000
0000
0000
,
0000
0000
0000
0100
,
1001
0000
0000
0000
,
1000
0001
1000
0000
,
0100
0010
0100
0000
,
1000
0001
1000
0000
,
0010
0100
0010
0000
,
1000
0001
1000
0000
,
0100
0010
0100
0000
,
0001
1000
0001
0000
,
0100
0100
0010
0000
,
1001
0000
0100
0000
,
1001
0000
0010
0000
,
1001
0000
0100
0000
,
0010
0100
0010
0100
,
1001
0000
0010
0000
,
1001
0000
0100
0000
,
1001
0000
0010
0000
,
1001
0110
1001
0000
,
0010
0000
0000
0000
,
0010
0000
0100
0000
0100
0010
0100
0000
,
0001
0000
1000
0000
1000
0001
1000
0000
,
0100
0100
0010
0100
,
1001
0110
1001
0110
,
0001
0000
1000
0000
1000
0001
1000
0000
,
0010
0000
0100
0000
0100
0010
0100
0000
,
1000
0001
1000
1001
,
0000
0200
0300
0020
,
0030
2000
3000
0002
,
0003
0100
0001
0100
,
0000
1001
0110
1001
,
0000
0220
0330
0022
,
0033
2200
3300
2002
,
3003
0100
0010
0100
,
1001
1100
0010
0110
,
1001
0000
0000
0000
,
0010
0000
0000
0000
,
1000
0000
0001
0000
,
0100
0100
0100
0100
,
1001
0000
0000
0000
,
0010
0000
0000
0000
,
1000
1000
0001
0001
,
0010
0100
0010
0100
,
0110
0000
0000
0000
,
0001
0000
1000
0000
0001
1000
0001
0000
,
0100
0000
0100
0000
0010
0100
0010
0000
,
1000
0000
0001
0000
1000
0001
1000
0000
,
0000
0110
1001
0110
,
0001
0000
1000
0000
0001
1000
0001
0000
,
0100
0000
0010
0000
0100
0010
0100
0000
,
1000
0000
0001
0000
1000
0001
1000
0000
,
0000
0110
0000
0010
,
1001
0000
0000
0000
,
0010
0000
0000
0000
,
0100
1000
0010
0001
,
1001
0000
0000
0000
,
0001
0000
0000
0000
,
1000
0000
0000
0000
,
0100
0010
0100
0010
,
0000
0100
0100
1001
;

//---------------dance-double - M. Emirzian----------------
#NOTES:
     dance-double:
     M. Emirzian:
     Easy:
     3:
     0.136,0.000,0.118,0.036,0.000:
00000000
00000000
00000000
00000000
,
00000000
00000000
00000000
00000000
,
00000000
00000000
00000000
00000000
,
00000000
00000000
00000000
00000000
,
00100000
00000000
00000000
00100000
,
00100000
00000000
00000000
00010000
,
00010000
00000000
00000000
00001000
,
00001000
00000000
00010000
00001000
,
00000100
00000000
00000000
00000001
,
00000001
00000000
00000000
00001000
,
00001000
00000000
00000000
00000010
,
00000010
00000000
00001000
00000000
,
00000100
00000000
00000000
00010000
,
00010000
00000000
00000000
00001000
,
00001000
00000000
00000000
00010000
,
00010000
00000000
00001000
00010000
,
01000000
00000000
00000000
10000000
,
10000000
00000000
00000000
00010000
,
00010000
00000000
00000000
00100000
,
00100000
00000000
01000000
10000000
,
01000000
00000000
00000000
00000000
,
10010000
00000000
00000000
00000000
,
00011000
00000000
00000000
00000000
,
00001001
00000000
00000000
00000000
,
00011000
00000000
00000000
00000100
,
00000100
00000000
00000000
00000000
,
00110000
00000000
00000000
00000000
,
00001100
00000000
00000000
00000000
,
01001000
00000000
00000000
00010000
,
00010000
00000000
00000000
00000000
,
00010010
00000000
00000000
00000000
,
01001000
00000000
00000000
00000000
,
00010010
00000000
00000000
00001000
,
00001000
00000000
00000000
00000100
,
00000100
00000000
00000000
00000000
,
00000001
00000000
00000000
00000010
,
00002002
00000000
00000000
00000000
,
00000000
00000000
00000000
00000000
,
00003003
00000000
00000000
00000000
,
00000000
00000000
00000000
00000000
,
00000100
00000000
00000000
00000000
,
00010000
00000000
00000000
00000000
,
00100000
00000000
00000000
00000000
,
20020000
00000000
00000000
00000000
,
00000000
00000000
30030000
00000000
,
10000000
00000000
00000000
01000000
,
01000000
00000000
00000000
00010000
,
00010000
00000000
00000000
00001000
,
00001000
00000000
00010000
00001000
,
00000010
00000000
00000000
00000001
,
00000001
00000000
00000000
00001000
,
00001000
00000000
00000000
00000010
,
00000010
00000000
00000001
00000100
,
00001000
00000000
00000000
00000000
,
00010000
00000000
00000000
00000000
,
00001000
00000000
00000000
00000000
,
01000000
00000000
00000000
00000000
,
00010000
00000000
00000000
00000000
,
10000000
00000000
00000000
00000000
,
01000000
00000000
00000000
00000000
,
00010000
00000000
00000000
00011000
;

//---------------dance-double - M. Emirzian----------------
#NOTES:
     dance-double:
     M. Emirzian:
     Medium:
     5:
     0.287,0.000,0.190,0.036,0.036:
00000000
00000000
00000000
00000000
,
00000000
00000000
00000000
00000000
,
00000000
00000000
00000000
00000000
,
00000000
00000000
00000000
00000000
,
00000000
10000000
00000000
00000000
00110000
00000000
00000000
00100000
,
00001000
00010000
00000000
00000000
00010100
00000000
00000000
00010000
,
00000100
00001000
00000000
00000000
01001000
00000000
00000000
00010000
,
00000010
00001000
00000000
00000000
00010100
00000000
00000000
00000010
,
00000001
00001000
00000000
00000000
00001010
00000000
00000000
00000001
,
00001000
00000100
00000000
00000000
00010100
00000000
00000000
00010000
,
00000100
00001000
00000000
00000000
00011000
00000000
00000000
00010000
,
00001000
00010000
00001000
00000000
02020000
00000000
03030000
00000000
,
00100000
00000000
10000000
00000000
10000000
00100000
10000000
00000000
,
01000000
00000000
00100000
00000000
00010000
00000000
01000000
00001000
,
01000000
00000000
00001000
00000000
00010000
00001000
00010000
00000000
,
00000100
00000000
00010000
00000000
00001000
00010000
00001000
00010000
,
00000000
00000010
00000000
00000000
00001000
00000000
00000000
00000100
,
00000010
00000001
00000000
00000000
00000100
00000000
00000000
00000010
,
00010000
00001000
00000000
00000000
01000000
00000000
00000000
00010000
,
10000000
00010000
10000000
00000000
22000000
00000000
00000000
00000000
,
00000000
00000000
00000000
33000000
,
10000000
00000000
00000000
00000000
00000000
00000000
00000000
00000000
00010000
00000000
00000000
10000000
00000000
00000000
00010000
00000000
,
10000000
00000000
00000000
00000000
00000000
00000000
00000000
00000000
00001000
00000000
00000000
01000000
00000000
00000000
00001000
00000000
,
01000000
00000000
00000000
00000000
00000000
00000000
00000000
00000000
00001000
00000000
00000000
00010000
00000000
00000000
00001000
00000000
,
00010000
00000100
00001000
00000001
,
00000100
00000000
00000000
00000000
00000010
00000000
00000000
00000000
00001000
00000000
00000000
00000010
00000000
00000000
00001000
00000000
,
00000010
00000000
00000000
00000000
00000100
00000000
00000000
00000000
00000001
00000000
00000000
00001000
00000000
00000000
00000001
00000000
,
00001000
00000000
00000000
00000000
00000010
00000000
00000000
00000000
00010000
00000000
00000000
00001000
00000000
00000000
00010000
00000000
,
00001000
00000000
00000000
00000000
01000000
00000000
00000000
00000000
00010000
00000000
00000000
01000000
00000000
00000000
00010000
00000000
,
01000000
00000000
00000000
00000000
00100000
00000000
00000000
00000000
10000000
00000000
00000000
00100000
00000000
00000000
10000000
00000000
,
00100000
10000000
00010000
01000000
,
00001000
00010000
00000100
00001000
,
00000010
00000000
00000000
00000000
00000100
00000001
00001000
00000000
,
00000100
00001000
00000010
00001000
,
00000100
00000000
00010000
00001000
00010000
00000000
00000000
00000000
,
00001000
00000000
00010000
00000000
00100000
10000000
00000000
00010000
,
01000000
00000000
00000000
00000000
,
10000000
00000000
00000000
00000000
,
01000000
00000000
00000000
00000000
,
00001000
00000000
00000000
00000000
,
00000010
00000000
00000000
00000000
,
00000001
00000000
00000000
00000000
,
00000100
00000000
00000000
00000000
,
00000010
00001000
00000100
00010000
,
01001000
00000000
00000000
00000000
,
00000000
00001000
00000000
00000000
00010100
00000000
00000000
00010000
,
00001000
00100000
00000000
00000000
00010010
00000000
00000000
00001000
,
01000000
00010000
00000000
00000000
00110000
00000000
00000000
00010000
,
01000000
10000000
00000000
00000000
01010000
00000000
00000000
00001000
,
01000000
00000000
00010000
00000000
01000000
00010000
01000000
00000000
,
00100000
00000000
10000000
00000000
00100000
00000000
01000000
00010000
,
10000000
00000000
01000000
00000000
00100000
00001000
00100000
00000000
,
00010000
00000000
01000000
00000000
00001000
00010000
00001000
00010000
,
00001000
00000000
00000000
00010000
,
00010100
00000000
00000000
00001000
,
00010010
00000000
00000000
00000100
,
00001001
00000000
00000000
00000010
,
00011000
00000000
00000000
00100000
,
00011000
00000000
00000000
00010000
,
01001000
00000000
00000000
00000000
,
00100000
00000000
01000000
10100000
;

//---------------dance-double - M. Emirzian----------------
#NOTES:
     dance-double:
     M. Emirzian:
     Hard:
     8:
     0.532,0.000,0.353,0.118,0.393:
00000000
00000000
00000000
00000000
,
00000000
00000000
00000000
00000000
,
00011000
00000000
00000000
00000000
00010000
00000000
00000010
00010000
00000000
00010000
00000010
00000000
00001000
00000000
00000001
00000000
,
00000220
00000000
00000000
00000330
,
00000010
00000000
00001000
00000000
00000000
00000100
00000000
00000000
00001020
00000000
00000000
00010000
00000030
00000000
00001000
00000000
,
00000100
00000000
00001000
00000000
00000000
00010000
00000000
00000000
00020100
00000000
00000000
00001000
00030000
00000000
01000000
00000000
,
00010000
00000000
00100000
00000000
00000000
00001000
00000000
00000000
02010000
00000000
00000000
00100000
03000000
00000000
01000000
00000000
,
00001000
00000000
00010000
00000000
00000000
01000000
00000000
00000000
21000000
00000000
00000000
00010000
30000000
00000000
01000000
00000000
,
00001000
00000000
00010000
00000000
00000100
00010000
00000000
00010000
00000100
00000000
00000000
00001000
00000000
00000000
00000010
00000000
,
00001000
00000000
00000100
00000000
00000010
00000001
00000000
00000001
00000010
00000000
00000000
00000100
00000000
00000000
00010000
00000000
,
00000100
00000000
00001000
00000000
00000010
00010000
00000000
00010000
00000010
00000000
00000000
00010000
00000000
00000000
00001000
00000000
,
00100000
00000000
00010000
00000000
01000000
00000000
00001000
01000000
00000000
00000000
00000000
00000000
01000000
00000000
00100000
00000000
,
10000000
00000000
01000000
00000000
00000000
00100000
00000000
00000000
20010000
00000000
00000000
00010000
30000000
00000000
01000000
00000000
,
00001000
00000000
00010000
00000000
00000000
00000100
00000000
00000000
00001002
00000000
00000000
00001000
00000003
00000000
00000010
00000000
,
00010000
00000000
00001000
00000000
00000000
00100000
00000000
00000000
20010000
00000000
00000000
01000000
30000000
00000000
00100000
00000000
,
00001000
00000000
00010000
00000000
00000000
00000100
00000000
00000000
00001001
00000000
00001000
00000000
00000100
00000000
00010000
00000000
,
00001000
00000000
01000000
00000000
00001000
01000000
00000000
01000000
00001000
00000000
00000000
00010000
00000000
00000000
00001000
00000000
,
00100000
00000000
00010000
00000000
10000000
00100000
00000000
00100000
10000000
00000000
00000000
01000000
00000000
00000000
00100000
00000000
,
00010000
00000000
01000000
00000000
00001000
00010000
00000000
00010000
00001000
00000000
00000000
00000100
00000000
00000000
00000001
00000000
,
00001000
00000000
00000100
00000000
00000010
00000000
00000100
00001000
00000000
00000001
00000000
00001000
00000100
00000000
00000000
00000000
,
00001001
00000000
00000000
00011000
10000000
00000000
00000000
00011000
,
00000001
00000000
00001000
00000000
00000100
00000010
00000000
00000000
00000110
00000000
00000000
00000001
00000000
00000000
00001000
00000000
,
00000010
00010000
00001000
00010000
00000100
00001000
00000010
00000000
,
00000100
00000000
00000001
00000000
00001000
00000100
00000000
00000000
00010100
00000000
00000000
00010000
00000000
00000000
00001000
00000000
,
01001000
00010100
00001100
01010000
,
00100000
00000000
10000000
00000000
01000000
00100000
00000000
00100000
01000000
00000000
00000000
10000000
00000000
00000000
00010000
00000000
,
01000000
01000000
00001000
00001000
00010000
00010000
00001000
01000000
,
00001000
00000000
00010000
00000000
00000100
00000000
00001000
00000000
00000100
00000000
00000000
00000010
00000000
00000000
00000100
00000000
,
00001000
00000000
00000000
00001000
00000001
00000000
00000000
00000001
00000100
00000000
00000000
00000100
00000010
00000000
00000000
00000010
,
00001000
00000100
00010000
00001000
00100000
00010000
01000000
00000000
,
00100000
00000000
10000000
00000000
00010000
01000000
00000000
00000000
01100000
00000000
00000000
01000000
00000000
00000000
00010000
00000000
,
00110000
00001010
00101000
00010010
,
00001000
00000000
00000100
00000000
00000010
00000001
00000000
00000001
00000010
00000000
00000000
00000100
00000000
00000000
00000010
00000000
,
00000001
00000000
00000100
00000000
00000010
00001000
00000000
00001000
00000010
00000000
00000000
00010000
00000000
00000000
00001000
00000000
,
00010000
00000000
00000100
00000000
00010000
00001000
00000000
00001000
01000000
00000000
00000000
00000000
00000000
00000000
M00M0000
00000000
,
10010000
00000000
00000000
00000000
0M000000
00000000
00000000
01000000
00000000
00000000
00010000
00000000
00011000
00000000
000MM000
00000000
,
00000110
00000001
00000000
00000001
00000000
00010000
00000000
00010000
,
00000000
00001000
00000000
00001000
00000000
10000000
00000000
10000000
,
00010000
01000000
00100000
00000000
01000000
00001000
00010000
00000000
,
00001000
00000100
00000010
00000000
00010000
00001000
01000000
00000000
,
00100000
10000000
01000000
10010000
,
00100000
00000000
00010000
00000000
01000000
00001000
00011000
00000000
,
00000010
00010000
00011000
00001000
00100000
00001000
00011000
00000000
,
00040000
00000400
00000000
00000000
00000000
00000000
00000000
00000000
00000000
00000000
00000000
00000000
00000000
00000000
00030300
00000000
,
00010100
00000000
00000000
00000000
,
00001000
00000000
00000100
00000000
00000000
00000010
00000000
00000000
00002100
00000000
00000000
00000010
00003000
00000000
00010000
00000000
,
00001000
00000000
01000000
00000000
00000000
00100000
00000000
00000000
01200000
00000000
00000000
01000000
00300000
00000000
00001000
00000000
,
00010000
00000000
00000100
00000000
00000000
00000010
00000000
00000000
00000120
00000000
00000000
00000001
00000030
00000000
00000100
00000000
,
00001000
00000000
00010000
00000000
00000000
00000100
00000000
00000000
00012000
00000000
00000000
01000000
00003000
00000000
00100000
00000000
,
10000000
00000000
00010000
00000000
01000000
00100000
00000000
00100000
01000000
00000000
00000000
00010000
00000000
00000000
10000000
00000000
,
01000000
00000000
00100000
00000000
00001000
00010000
00000000
00010000
00001000
00000000
00000000
00000100
00000000
00000000
00000001
00000000
,
00000010
00000000
00000001
00000000
00000100
00000010
00000000
00000010
00000100
00000000
00000000
00000001
00000000
00000000
00001000
00000000
,
00000100
00000000
00010000
00000000
00001000
00000000
00010000
00000100
00000000
00000000
00000000
00000000
00010000
00000000
00001000
00000000
,
01000000
00000000
00000000
00000000
00010000
00000000
00000000
00000000
10000000
00000000
00000000
00100000
00000000
00000000
10000000
00000000
,
01000000
00000000
00000000
00000000
00010000
00000000
00000000
00000000
00000100
00000000
00000000
00001000
00000000
00000000
00000001
00000000
,
00001000
00000000
00000010
00000000
00010000
00001000
00010000
00000000
,
00010100
00000000
00000000
00000000
00001000
00000000
00000000
00000000
01000000
00000000
00000000
00010000
00000000
00000000
00100000
00000000
,
00010000
00000000
00000000
00000000
10000000
00000000
00000000
00000000
00100000
00000000
00000000
00010000
00000000
00000000
00100000
00000000
,
00010000
00000000
00000000
00000000
00001000
00000000
00000000
00000000
00010000
00000000
00000000
00000100
00000000
00000000
00000010
00000000
,
00000001
00000000
00000100
00000000
00000001
00001000
00000100
00000000
,
00011000
00000000
00000000
00000000
00100000
00000000
00100000
01000000
00000000
00000000
M00M0000
00000000
10010000
00000000
00000000
00000000
;

//---------------dance-double - M. Emirzian----------------
#NOTES:
     dance-double:
     M. Emirzian:
     Challenge:
     9:
     0.610,0.000,0.624,0.018,0.516:
00000000
00000000
00000000
00000000
,
00000000
00000000
00000000
00000000
,
00000001
00000000
00000010
00000000
00001000
00000000
00000010
00000100
00000000
00000100
00000001
00000000
00001000
00000000
00000100
00000000
,
00002002
00000000
00000000
00003003
,
00000010
00000000
00001000
00000000
00000010
00000100
00000000
00000100
00001000
00000000
00001000
00010000
00000000
00010000
01000000
00000000
,
10000000
00000000
00010000
00000000
10000000
00100000
00000000
01000000
00010000
00000000
10000000
00010000
00000000
00100000
00010000
00000000
,
00100000
00000000
00001000
00000000
00010000
00001000
00000000
00001000
01000000
00000000
01000000
00001000
00000000
00001000
00010000
00000000
,
00001000
00000000
00000100
00000000
00000010
00000100
00000000
00000100
00000001
00000000
00000000
00001001
00000000
00000000
00000110
00000000
,
00000100
00000000
00001000
00000000
00000000
00001001
00000000
00000000
00001100
00000000
00000000
00010100
00000000
00000000
01000100
00000000
,
00010000
00000000
00001000
00000000
00000000
00100010
00000000
00000000
00011000
00000000
00000000
10001000
00000000
00000000
10010000
00000000
,
01000000
00000000
00100000
00000000
00000000
00110000
00000000
00000000
01001000
00000000
00000000
00011000
00000000
00000000
00010000
00000000
,
00001000
00000000
01000000
00000000
00100000
00000000
10000000
00010000
00000000
00000000
M00M0000
00000000
00000100
00000000
00000010
00000000
,
00000001
00000000
00000010
00000000
00001000
00000010
00000000
00000010
00000001
00000000
00000100
00000010
00000000
00000010
00010000
00000000
,
00000100
00000000
00001000
00000000
00000010
00010000
00000000
00000100
00001000
00000000
00000100
00010000
00000000
00001000
01000000
00000000
,
00100000
00000000
00010000
00000000
00100000
10000000
00000000
10000000
01000000
00000000
01000000
00010000
00000000
00010000
00001000
00000000
,
01000000
00000000
00001000
00000000
00010000
00001000
00000000
00100000
00001000
00000000
01000000
00000000
00100000
00000000
00010000
00000000
,
00001000
00000000
00100000
00000000
00000000
10010000
00000000
00000000
01100000
00000000
00000000
10010000
00000000
00000000
11000000
00000000
,
00100000
00000000
00010000
00000000
00000000
00101000
00000000
00000000
00011000
00000000
00000000
01000100
00000000
00000000
00011000
00000000
,
00010000
00000000
00000100
00000000
00000000
00001100
00000000
00000000
00010001
00000000
00000000
00001010
00000000
00000000
00000100
00000000
,
00000001
00000000
00000100
00000000
00001000
00000000
00000100
00000001
00000000
00001000
00000000
00000001
00000010
00000000
00000000
00000000
,
00001100
0000MM00
00000000
00011000
01000100
0M000M00
00000000
00110000
,
10001000
00000000
00000000
10000000
00100000
00000000
00000000
00100000
01000000
00000000
00000000
10010000
00000000
00000000
01000000
00000000
,
01000000
00000000
00000000
01000000
00100000
00000000
00000000
00100000
00001000
00000000
00000000
00100010
00000000
00000000
00010000
00000000
,
00001000
00000100
00000010
00010000
00000100
00000010
00000100
00001000
,
00001001
00000110
00011000
01100000
,
10000000
00000000
00000000
10000000
00100000
00000000
00000000
00100000
01000000
00000000
00000000
01001000
00000000
00000000
00001000
00000000
,
00001000
00000000
00000000
00010000
00100000
00000000
00000000
00100000
01000000
00000000
00000000
00011000
00000000
00000000
00001000
00000000
,
01000000
00100000
10000000
00010000
00100000
00001000
01000000
00001000
,
00010000
00000000
00000100
00000000
00001000
00000100
00000000
00000100
00000010
00000000
00000010
00000001
00000000
00000000
00000100
00000000
,
00000010
00000000
00000000
00000010
00001000
00000000
00000000
00001000
00000100
00000000
00000000
01000100
00000000
00000000
00001000
00000000
,
00010000
00000100
00010000
00100000
01000000
00001000
00010000
00000100
,
00000110
00010100
01001000
01100000
,
00010000
00000000
10000000
00000000
00100000
01000000
00000000
01000000
00010000
00000000
00010000
00100000
00000000
00000000
00001000
00000000
,
00001000
00000000
00000000
00001000
00010000
00000000
00000000
00010000
00000100
00000000
00000000
00011000
00000000
00000000
00001000
00000000
,
00010000
00000000
00000100
00000000
00001000
00000010
00000000
00000100
00000001
00000000
00000000
00000000
00000000
00000000
00000000
00000000
,
00011000
00000000
000MM000
00000000
00000000
00000000
00000000
01000100
00000000
00000000
00011000
00000000
00100010
00000000
00000000
00000000
,
00011000
00001000
0000M000
01000000
0M000000
00010000
000M0000
00100000
,
00M00000
00000100
00000M00
00001000
0000M000
00000010
000000M0
00000100
,
00000M00
00001000
0000M000
01000000
0M000000
00100000
00M00000
10000000
,
M0000000
00010000
000M0000
00100000
00M00000
00000100
00000M00
00001000
,
00000001
00000010
00000100
00001000
00000010
00010000
00000100
00001000
,
00000010
00010000
00100000
01000000
00001000
00010000
00001000
00100000
,
00001000
00010000
00000100
00001000
00000001
00000100
00000010
00001000
,
00000400
00040000
00000000
00000000
00000000
00000000
00000000
00000000
00000000
00000000
00000000
00000000
00000000
00000000
00000000
00000000
,
00030300
00000000
00000000
00100000
,
10000000
00000000
00100000
00000000
01000000
10000000
00000000
10000000
00100000
00000000
00100000
00010000
00000000
00010000
00001000
00000000
,
00000100
00000000
00001000
00000000
00010000
00000100
00000000
01000000
00001000
00000000
00010000
00000010
00000000
00001000
00000100
00000000
,
00000010
00000000
00001000
00000000
00000010
00000001
00000000
00000001
00000100
00000000
00000100
00001000
00000000
00001000
00010000
00000000
,
00000100
00000000
00001000
00000000
00000010
00010000
00000000
00010000
00001000
00000000
00000000
01000100
00000000
00000000
00011000
00000000
,
00010000
00000000
00001000
00000000
00000000
01001000
00000000
00000000
01010000
00000000
00000000
10010000
00000000
00000000
01100000
00000000
,
00100000
00000000
00010000
00000000
00000000
01010000
00000000
00000000
01001000
00000000
00000000
01000100
00000000
00000000
00011000
00000000
,
00000100
00000000
00001000
00000000
00000000
00001010
00000000
00000000
00010001
00000000
00000000
00000110
00000000
00000000
00000001
00000000
,
00001000
00000000
00000100
00000000
00000010
00000000
00000001
00001000
00000000
00000000
00000000
00000000
00000010
00000000
00001000
00000000
,
00000010
00000000
00000100
00000000
00000000
00010010
00000000
00000000
00010000
00000000
00000000
00001000
00000000
00000000
00010000
00000000
,
01000000
00000000
01000000
00000000
00000000
11000000
00000000
00000000
00010000
00000000
00000000
01000000
00000000
00000000
00001000
00000000
,
00001000
00000000
00000000
00001000
00010000
00000000
00000000
00000000
00011000
00000000
00000000
00000100
00010000
00000000
00000000
00000100
,
00000010
00000000
00000000
00000001
00000010
00000000
00000000
00001000
00000100
00000000
00000000
00010000
00000000
00000000
00000010
00000000
,
00010000
00000000
00001000
00000000
00000000
01001000
00000000
00000000
00010000
00000000
00000000
00100000
00000000
00000000
00001000
00000000
,
10000000
00000000
00010000
00000000
00000000
00100000
00000000
00000000
00001000
00000000
00000000
00011000
00000000
00000000
00010000
00000000
,
01000000
00000000
00010000
00000000
00000000
00000100
00000000
00000000
00001000
00000000
00000000
00001010
00000000
00000000
00000100
00000000
,
00000001
00000000
00000010
00000000
00000100
00000000
00001000
00000001
00000000
00000000
00000000
00000000
00101000
00000000
00000000
00000000
;

//---------------dance-single - D. Renzetti----------------
#NOTES:
     dance-single:
     D. Renzetti:
     Challenge:
     9:
     0.705,0.000,0.497,0.127,0.782:
0000
0000
0000
0000
,
0000
0000
0000
0000
,
1000
0000
0000
0000
0000
0000
1100
0000
0000
0000
0000
1000
0010
0000
1000
0010
0000
0000
0101
0000
0000
1000
0000
0000
,
1002
0000
0000
0000
0200
0020
2000
3333
,
0100
0000
0010
0000
1000
0010
0000
0100
0001
0000
0010
0001
0000
0100
0001
0000
,
1000
0000
0010
0000
0100
0010
0000
1000
0010
0000
0100
0001
0000
0010
0001
0000
,
0100
0000
0001
0000
0100
0010
0000
0010
1000
0000
1000
0100
0000
0100
0010
0000
,
0001
0000
0100
0000
0010
1000
0000
1000
0010
0000
0000
0100
0000
0000
0001
0000
,
1000
0000
0010
0000
0100
0001
0000
1000
0010
0000
0100
0001
0000
1000
0100
0000
,
1000
0000
1010
0000
0000
1001
0000
0000
0110
0000
0000
0011
0000
0000
0101
0000
,
0001
0000
0100
0000
0001
0010
0000
0001
0100
0000
0010
1000
0000
0100
1000
0000
,
0010
0000
0100
0000
0001
0000
0010
0100
0000
0000
0000
0000
1000
0100
0010
0001
,
0100
0000
0001
0000
0100
0010
0000
1000
0010
0000
0100
0001
0000
0100
0010
0000
,
1000
0000
0010
0000
1000
0001
0000
1000
0010
0000
0100
0010
0000
0100
0001
0000
,
1000
0000
0010
0000
0100
0001
0000
0001
0010
0000
0010
0100
0000
0100
1000
0000
,
0010
0000
0100
0000
0010
0100
0000
0100
0001
0000
0010
0000
0100
0000
1000
0000
,
0010
0000
1000
0000
0100
0010
0000
0001
0100
0000
0010
1000
0000
1000
0100
0000
,
0010
0000
0011
0000
0000
0101
0000
0000
1100
0000
0000
0011
0000
0000
1010
0000
,
1000
0000
0010
0000
0100
0001
0000
0010
0001
0000
0100
0010
0000
1000
0100
0000
,
0000
0000
1000
0000
1000
0000
0010
0100
0000
0001
0000
0100
0000
0010
0000
1000
,
0001
0MM0
0000
0100
0010
MM00
0000
1000
,
0010
0000
0100
0000
0001
0010
0000
0010
0001
0000
0001
0100
0000
0100
1000
0000
,
0100
0000
0010
0000
1000
0100
0000
0100
1000
0000
1000
0010
0000
0010
0001
0000
,
0010
0000
0100
0000
0001
0100
0000
0100
0001
0000
0001
1000
0000
1000
0010
0000
,
1010
0110
1100
0011
,
0100
0000
0010
0000
1000
0010
0000
0010
0001
00M0
0001
0010
0000
0010
0100
0000
,
0010
0000
0100
0000
0001
0100
0000
0100
1000
0M00
1000
0100
0000
0100
0001
0000
,
0010
0000
0001
0000
0001
1000
0000
1000
0010
0000
0010
0100
0000
0100
0001
0000
,
0010
0000
0001
0000
0100
0010
0000
1000
0010
0000
0100
0001
0000
0100
0010
0000
,
1000
0000
1100
0000
0000
1010
0000
0000
0110
0000
0000
0011
0000
0000
1001
0000
,
1000
0000
0100
0000
0010
0100
0000
0100
1000
0000
1000
0001
0000
0001
0100
0000
,
0110
1010
0011
1010
,
0100
0010
0100
0000
0001
0100
0000
0010
1000
0000
0100
1000
0000
0001
0010
0000
,
0001
0100
0001
0000
0100
0010
0000
1000
0010
0000
0100
0001
0000
0010
0001
0000
,
0100
0000
0110
0000
1000
0010
0000
0000
0210
0000
00M0
0000
00M0
0000
00M0
0000
,
0310
0000
0000
0000
1020
0000
0000
1030
0000
0000
0010
0000
0201
0000
0000
0000
,
0301
0100
1020
0000
1030
0010
0201
0000
,
0310
1000
0100
0000
0010
0000
0001
0100
0000
0010
0000
1010
0000
0000
0MM0
0000
,
1000
0010
0210
0000
0301
0100
0120
0000
,
1030
0000
0000
0000
0000
0000
0010
0000
0100
0000
0010
0000
0100
0000
0000
0000
0000
0000
0010
0000
0000
0100
0000
0000
0000
0000
0000
0001
0000
0000
0000
0000
0000
0101
0000
0000
0000
0000
0000
0000
0000
0000
0MM0
0000
0000
0000
0000
0000
,
0001
0000
0000
0000
0000
0000
1000
0000
0001
0000
1000
0000
0001
0000
0000
0000
0000
0000
0000
0000
0000
0000
0000
0000
0100
0000
0000
0000
0000
0000
0010
0000
0000
1000
0000
0000
0100
0000
0000
0000
0000
0000
0000
0000
0000
0000
0000
0000
,
1000
0001
0100
0000
0100
0000
0100
0010
0000
1000
0000
1100
0000
0000
0000
0000
,
1100
1010
0100
0001
0101
0011
0100
0010
,
1000
0000
0100
0000
0010
0000
0001
0000
0100
0000
0010
0000
1000
0000
0010
0000
0100
0000
0001
0000
0010
0000
0100
0000
4000
0004
0000
0000
0000
0000
0000
0000
,
3003
0MM0
M00M
0000
2000
0200
0002
3303
,
1000
0000
0010
0000
0100
0001
0000
1000
0100
0000
0010
0001
0000
0100
0001
0000
,
0100
0000
0001
0000
1000
0010
0000
0100
0010
0000
0100
0001
0000
0010
0001
0000
,
1000
0000
0010
0000
0100
0001
0000
0001
0100
0000
0100
0010
0000
0010
1000
0000
,
0010
0000
0100
0000
0001
0010
0000
0010
0100
0000
0000
1000
0000
0000
0010
0000
,
0100
0000
0001
0000
0100
0010
0000
0100
0001
0000
1000
0010
0000
0100
0001
0000
,
1000
0000
1100
0000
0000
0011
0000
0000
0101
0000
0000
1010
0000
0000
1001
0000
,
1000
0000
0010
0000
1000
0001
0000
1000
0010
0000
0100
0010
0000
0100
0001
0000
,
1000
0000
0010
0000
0100
0000
0001
0100
0000
0000
0000
0000
0001
0010
0100
1000
,
0010
0000
0100
0000
0000
0001
0000
0000
0100
0000
0000
0010
0000
0000
1000
0000
,
0000
0000
0100
0000
0000
0001
0000
0000
0100
0000
0000
1000
0000
0000
0010
0000
,
0000
0000
0100
0000
0000
1000
0000
0000
0100
0000
0000
0001
0000
0000
0010
0000
,
0000
0000
1000
0000
0000
0010
0000
0000
0001
0000
0000
0100
0000
0000
0010
0000
,
1000
0000
0100
0000
0010
0001
0000
0000
0011
0000
0000
0101
0000
0000
0110
0000
,
0000
0000
1000
0000
0010
0100
0000
0000
0011
0000
0000
1001
0000
0000
1100
0000
,
0000
0000
1000
0000
0010
0100
0000
0000
0101
0000
0000
0110
0000
0000
1001
0000
,
0001
0000
1000
0000
0010
0000
1000
0001
0000
0000
0000
0000
0MM0
0000
MMMM
0000
;

//---------------dance-single - J. Frederick----------------
#NOTES:
     dance-single:
     J. Frederick:
     Beginner:
     1:
     0.119,0.000,0.208,0.000,0.000:
0000
0000
0000
0000
,
0000
0000
0000
0000
,
1000
0000
0000
0000
,
1001
0000
0000
0000
,
0100
0000
0000
0000
,
0010
0000
0000
0000
,
1000
0000
0000
0000
,
0001
0000
0000
0000
,
0010
0000
0000
0000
,
0100
0000
0000
0000
,
1000
0000
0000
0000
,
0001
0000
0000
0000
,
1001
0000
0000
0000
,
0100
0000
0000
0000
,
0010
0000
0000
0000
,
1000
0000
0000
0000
,
0001
0000
0000
0000
,
0010
0000
0000
0000
,
0100
0000
0000
0000
,
1000
0000
0000
0000
,
1001
0000
0000
0000
,
0110
0000
0000
0000
,
0100
0000
0000
0000
,
1000
0000
0000
0000
,
0001
0000
0000
0000
,
0100
0000
0000
0000
,
0010
0000
0000
0000
,
1000
0000
0000
0000
,
0001
0000
0000
0000
,
1000
0000
0000
0000
,
0100
0000
0000
0000
,
0010
0000
0010
0000
,
0100
0000
0000
0000
,
1000
0000
0000
0000
,
0001
0000
0000
0000
,
0110
0000
0000
0000
,
1001
0000
0110
0000
,
1001
0000
0000
0000
,
1001
0000
0110
0000
,
1001
0000
0000
0000
,
1001
0000
0110
0000
,
1001
0000
0000
0000
,
0110
0000
1001
0000
,
1001
1001
1001
1001
,
1001
0000
0110
0000
,
1000
0000
0000
0000
,
0001
0000
0000
0000
,
0010
0000
0000
0000
,
0100
0000
0000
0000
,
1000
0000
0000
0000
,
0001
0000
0000
0000
,
0010
0000
0000
0000
,
0100
0000
0000
0000
,
1000
0000
0000
0000
,
0001
0000
0000
0000
,
0010
0000
0000
0000
,
0100
0000
0000
0000
,
1000
0000
0000
0000
,
0001
0000
0000
0000
,
0100
0000
0000
0000
,
0010
0000
0000
1001
;

//---------------dance-single - J. Frederick----------------
#NOTES:
     dance-single:
     J. Frederick:
     Medium:
     5:
     0.372,0.000,0.198,0.225,0.000:
0000
0000
0000
0000
,
0000
0000
0000
0000
,
1000
0001
1000
0001
,
2002
0000
0000
3003
,
0100
0000
0010
0000
1000
0010
1000
0000
,
0001
0000
0010
0000
0100
1000
0100
0000
,
0010
0000
0001
0000
0100
0001
0100
0000
,
0001
1000
0002
0003
,
0010
0000
0100
0000
1000
0100
1000
0000
,
0010
0000
0100
0000
0001
0100
0001
0000
,
0010
0000
0001
0000
0010
0100
0010
0000
,
0100
1000
0100
0000
0020
0000
0030
0000
,
1000
0000
0010
0000
0100
0010
0100
0000
,
0001
0000
0010
0000
0100
1000
0100
0000
,
0010
0000
0001
0000
0100
0001
0100
0000
,
0001
0000
1000
0000
0010
1000
0010
0000
,
0000
0100
0001
0000
0010
0100
1000
0000
,
0010
0000
0100
0000
0001
1000
0001
0000
,
0010
0000
0100
0000
1000
0100
1000
0000
,
0100
0000
0010
0000
0002
0000
0000
0003
,
2000
3000
0002
0003
,
0010
0000
0100
0000
1000
0100
1000
0000
,
0010
0000
0100
0000
0001
0100
0001
0000
,
0010
0000
0100
0000
1000
0100
1000
0000
,
1010
0101
0011
0110
,
1000
0000
0100
0000
0010
0001
0010
0000
,
0001
0000
0100
0000
0010
0100
0010
0000
,
1000
0000
0010
0000
0100
0010
0100
0000
,
1001
0010
0100
1000
,
1100
0010
0001
0100
,
0101
1000
0010
0100
,
1010
0101
0011
0110
,
1100
0010
0001
0100
,
0101
1000
0010
0100
,
0110
1000
0001
0010
,
0200
0300
0020
0030
,
0002
1003
0020
0130
,
0001
0010
0100
1000
,
0200
0310
0002
0103
,
0010
1000
0010
0100
,
0002
0013
0200
1300
,
0010
0100
0010
1000
,
1010
0101
0011
0110
,
0010
0100
0010
0100
0010
0100
0010
0100
,
0220
0000
0000
0000
0000
0000
0000
0330
,
1001
0000
0100
0000
0010
1000
0010
0000
,
0100
0000
0001
0000
0010
0100
0010
0000
,
0100
0000
1000
0000
0100
0010
0001
0000
,
0100
0001
2000
3000
,
0010
0000
0100
0000
0001
0010
0001
0000
,
1000
0000
0100
0000
0010
0100
0010
0000
,
0001
0000
0100
0000
0010
1000
0010
0000
,
0200
0000
0000
0300
,
0001
0010
0100
0000
,
1000
0010
0200
0300
,
0001
0010
0200
0300
,
1000
0010
0200
0300
,
0001
0010
0002
0003
,
0010
0100
2000
3000
,
0100
0010
0002
0003
,
0100
0010
1000
1001
;
