#TITLE:Charlene;
#SUBTITLE:(Rock Mix);
#ARTIST:Gracia;
#TITLETRANSLIT:;
#SUBTITLETRANSLIT:;
#ARTISTTRANSLIT:;
#GENRE:Dance;
#CREDIT:;
#BANNER:Charlene -Rock Mix--bn.png;
#BACKGROUND:Charlene -Rock Mix--bg.png;
#LYRICSPATH:;
#CDTITLE:;
#MUSIC:Charlene -Rock Mix-.ogg;
#OFFSET:-0.038;
#SAMPLESTART:52.420;
#SAMPLELENGTH:13.740;
#SELECTABLE:YES;
#BPMS:0.000=135.020;
#STOPS:;
#BGCHANGES:0.151=Charlene -Rock Mix-.mpg=1.000=1=0=0=StretchNoLoop==CrossFade==,
99999=-nosongbg-=1.000=0=0=0 // don't automatically add -songbackground-;
#KEYSOUNDS:;

//---------------dance-double - M. Emirzian----------------
#NOTES:
     dance-double:
     M. Emirzian:
     Easy:
     3:
     0.169,0.000,0.044,0.053,0.000:
00000000
00000000
00000000
00000000
,
00000000
00000000
00000000
00000000
,
00000000
00000000
00000000
00000000
,
00000000
00000000
00000000
00000000
,
00000010
00000000
00000000
00001000
,
00001000
00000000
00000000
00100000
,
00100000
00000000
00000000
00001000
,
00001000
00000000
00000000
00000100
,
00000100
00000000
00000000
01000000
,
01000000
00000000
00000000
10000000
,
10000000
00000000
00000000
00001000
,
00001000
00000000
00000000
00000010
,
00000010
00000000
00000000
00000001
,
00000001
00000000
00000000
00010000
,
00010000
00000000
00000000
00000000
,
00001000
00000000
00000000
00000000
,
01000000
00000000
00000000
00000000
,
10000000
00000000
00000000
00000000
,
00010000
00000000
00000000
00000000
,
00001000
00000000
00000000
00000000
,
00000100
00000000
00000000
00000000
,
00000001
00000000
00000000
00000000
,
00001000
00000000
00000100
00000000
,
00010000
00000000
00001000
00000000
,
00100000
00000000
10000000
00000000
,
01000000
00000000
00010000
00000000
,
00100000
00000000
00001000
00000000
,
00010000
00000000
00000100
00000000
,
00001000
00000000
00000010
00000000
,
00000202
00000000
00000000
00000000
00000000
00000000
00000000
00000000
00000000
00000000
00000000
00000303
00000000
00000000
00000000
00000000
,
00000010
00000010
00000010
00000000
,
00001000
00000100
00000010
00000000
,
00001000
00000100
00000000
00010000
,
00001000
00000000
01000000
01000000
,
01000000
00000000
00000000
00100000
,
10000000
00000000
01100000
00000000
,
00010000
00000000
00100000
00100000
,
00100000
00000000
00001000
00010000
,
00000100
00001000
00000010
00000000
,
00000100
00000100
00000100
00000000
,
00000001
00000100
00000000
00000010
,
00001000
00000000
00000100
00010000
,
00001000
00000000
00000000
00010000
,
00000100
00000000
00011000
00000000
,
01000000
00000000
00100000
00100000
,
00100000
00000000
10000000
01000000
,
00010000
00000000
00001000
00000000
,
00000010
00001000
00000100
00000000
,
00000001
00000100
00001000
00000000
,
00010000
00001000
00000100
00000000
,
00010000
00000000
00001000
00000000
,
01000000
00001000
00010000
00000000
,
00100000
10000000
01000000
00000000
,
00000100
00001000
00000010
00000000
,
00002002
00000000
00000000
00003003
,
00000010
00000000
00010000
00001000
,
00000000
00000000
00000000
00000000
,
00000000
00000000
00000000
00000000
,
10000000
01000000
00100000
00010000
,
01000000
00000000
00011000
00000000
,
00000010
00001000
00000100
00000020
,
00000002
00000000
00000000
00000000
,
00000033
00000000
00000000
00000000
;

//---------------dance-double - M. Emirzian----------------
#NOTES:
     dance-double:
     M. Emirzian:
     Medium:
     6:
     0.353,0.000,0.264,0.053,0.004:
00000000
00000000
00000000
00000000
,
00000000
00000000
00000000
00000000
,
00000000
00000000
00000000
00000000
,
00000000
00000000
00000000
00000000
,
11000000
00000000
00000000
00110000
00000000
10010000
00000000
00000000
,
10000000
00000000
01000000
00000000
00100000
00000000
00010000
01000000
,
00001000
00000000
00000100
00000000
00001000
00000000
00010000
00100000
,
00010000
00001000
00000010
00000001
,
00001100
00000000
00000000
00001001
00000000
00000000
00000010
00001000
,
00000100
00000000
00000010
00000000
00000001
00000000
00000100
00000010
,
00001000
00000000
00000100
00000000
00010000
00000000
00100000
00010000
,
00001000
00010000
01000000
10000000
,
00100000
10000000
01000000
00100000
,
00110000
00000000
00000000
10010000
00000000
11000000
00000000
00000000
,
00100000
00000000
00100000
00000000
10000000
00010000
00000000
00000000
,
00100000
00000000
00100000
00000000
00001000
00010000
00000000
00000000
,
00000100
00000000
00000100
00000000
00001000
00000100
00000000
00000000
,
00000010
00000010
00000001
00000110
,
00001000
00000000
00001000
00000000
00000100
00010000
00000000
00000000
,
00001000
00000000
00001000
00000000
01000000
00010000
00000000
00000000
,
00100000
00000000
00100000
00000000
01000000
10000000
00000000
10000000
,
00000000
00000000
00000000
00000000
00010000
00000000
00000000
10000000
00000000
00000000
00000000
00000000
00000000
00000000
00000000
00000000
,
10000000
01000000
00100000
00000000
00010000
01000000
00000000
00000000
,
00100000
01000000
00001000
00000000
00010000
00000100
00000000
00000000
,
00001000
00000010
00000100
00000000
00000010
00001000
00000000
00000000
,
00000100
00000010
00000001
00000000
00001000
00000100
00000000
00000000
,
00010000
00001000
01000000
00000000
00100000
01000000
00000000
00000000
,
00001000
00010000
01000000
00000000
10000000
00010000
00000000
00000000
,
01000000
00100000
10000000
00000000
01000000
00100000
00000000
00220000
,
00000000
00000000
00000000
00000000
00000000
00000000
00000000
00000000
00000000
00000000
00000000
00330000
00000000
00000000
00000000
00000000
,
10000000
01000000
00100000
00000000
10000000
01000000
00010000
00000000
,
00001000
00000100
00000001
00000010
,
00000100
00001000
00000010
00000000
00000001
00000100
00001000
00000000
,
00001100
00000000
00000000
00011000
00000000
00000000
00110000
00000000
,
01000000
00100000
10000000
00000000
01000000
00010000
00100000
00000000
,
10000000
00000000
00100000
00000000
01000000
00010000
10000000
00000000
,
01000000
00000000
00010000
00000000
00000010
00001000
00000100
00000000
,
00000010
00000100
00010000
00001000
,
00010010
00000000
00000000
00011000
00000000
00010100
00000000
00000000
,
00001000
00000010
00000100
00000000
00001000
00000001
00000010
00000000
,
00000100
00010000
00001000
00010000
,
00001000
00010000
00000100
00000000
00001000
00010000
00100000
00000000
,
01010000
00000000
00000000
01001000
00000000
00000000
00110000
00000000
,
01000000
10000000
00100000
00000000
01000000
00100000
00010000
00000000
,
10000000
00000000
01000000
00000000
00100000
00010000
01000000
00000000
,
00001000
00000000
00010000
00000000
00000010
00001000
00000100
00000000
,
00001001
00000000
00000000
00000000
00001100
00000000
00000000
00001010
,
00000010
00000000
00001000
00000000
00000100
00000000
00000010
00000100
,
00010000
00000000
00001000
00000000
00000100
00000000
00001000
00010000
,
00000100
00010000
00100000
01000000
,
10010000
00000000
00000000
11000000
00000000
00000000
00100000
00010000
,
01000000
00000000
00100000
00000000
00010000
00000000
00000100
00001000
,
00000010
00000000
00000100
00000000
00000010
00000000
00000001
00000010
,
00001000
00000100
00000010
00000100
,
00022000
00000000
00000000
00033000
,
00101000
00000000
00000000
00011000
00000000
00010100
00000000
00000000
,
00000000
00000000
00000000
00000000
,
00000000
00000000
00000000
00000000
00000000
01001000
00000000
00000000
,
01000000
00100000
10000000
01000000
00100000
00000000
00010000
00000000
,
10000000
01000000
00100000
00001000
00010000
00000000
00010100
00000000
,
00010000
00000010
00001000
00000100
00000010
00000000
00000002
00000000
,
00002000
00000000
00000000
00000000
,
00003003
00000000
00000000
00000000
;

//---------------dance-double - M. Emirzian----------------
#NOTES:
     dance-double:
     M. Emirzian:
     Hard:
     8:
     0.502,0.000,0.334,0.035,0.075:
00000000
00000000
00000000
00000000
,
00000000
00000000
00000000
00000000
,
10010000
00000000
00000000
00000010
,
00001001
00000000
00000000
00000000
,
00010010
00000000
00000000
00011000
00000000
01001000
00000000
00000000
,
00010000
01000000
00100000
10000000
00100000
01000000
00010000
00000000
,
00100000
01000000
11000000
00000000
00100000
01000000
01010000
00000000
,
00100000
00001000
00010000
00000010
00010000
00001000
01000000
00000000
,
00011000
00000010
00000000
00001100
00000010
00000000
00000001
00001000
,
00000010
00001000
00000100
00000001
00000100
00001000
00000010
00000000
,
00001000
00000010
00010010
00000000
00001000
00010000
01001000
00000000
,
00010000
00100000
01000000
10000000
01000000
00100000
00010000
00000000
,
01000000
00100000
00010000
00001000
00000010
00001000
00010000
00000100
,
00001100
00000000
00000010
00000101
00000000
00000010
00001100
00000000
,
00000010
00000000
00000000
00000000
00010000
00000000
00000000
00001000
00010000
00000000
00000100
00000000
00000000
00000000
00000000
00000000
,
00001000
00000000
00000000
00000000
01000000
00000000
00000000
00010000
01000000
00000000
00100000
00000000
00000000
00000000
00000000
00000000
,
10000000
00000000
00000000
00000000
00100000
00000000
00000000
01000000
00010000
00000000
00100000
00000000
00000000
00000000
00000000
00000000
,
00001000
00000000
00000000
00000000
00010000
00000000
00000000
00000100
00001000
00000000
00000000
00000000
00010010
00000000
00000000
00000000
,
00001000
00000000
00000000
00000000
00000100
00000000
00000000
00000010
00000100
00000000
00001000
00000000
00000000
00000000
00000000
00000000
,
00000001
00000000
00000000
00000000
00000100
00000000
00000000
00000010
00001000
00000000
00000100
00000000
00000000
00000000
00000000
00000000
,
00010000
00000000
00000000
00000000
00000010
00000000
00000000
00010000
00001000
00000000
01000000
00000000
00000000
00000000
00100000
00000000
,
00000000
00000000
10000000
00000000
01000000
00000000
00000000
10010000
00000000
00000000
00000000
00000000
00000000
00000000
00000000
00000000
,
10000000
00000000
01000000
00000000
00100000
00000000
00000000
01000000
10000000
00000000
00010000
00000000
01000000
00000000
00000000
00000000
,
00100000
00000000
01000000
00000000
00001000
00000000
00000000
01000000
00010000
00000000
00100000
00000000
00001000
00000000
00000000
00000000
,
00010000
00000000
00000010
00000000
00001000
00000000
00000000
00000100
00000010
00000000
00000100
00000000
00000001
00000000
00000000
00000000
,
00000100
00000000
00001000
00000000
00000001
00000000
00000000
00000100
00000010
00000000
00000100
00000000
00000001
00000000
00000000
00000000
,
00000100
00000000
00000010
00000000
00001000
00000000
00000000
00000100
00010000
00000000
00001000
00000000
00000100
00000000
00000000
00000000
,
00001000
00000000
00010000
00000000
00100000
00000000
00000000
00010000
00100000
00000000
10000000
00000000
01000000
00000000
00000000
00000000
,
00100000
00000000
00010000
00000000
01000000
00000000
00000000
00001000
00010000
00000000
00000010
00000000
00000000
00000000
00002200
00000000
,
00000000
00000000
00000000
00000000
00000000
00000000
00000000
00000000
00000000
00000000
00000000
00003300
00000000
00000000
00000000
00000000
,
00000010
00000001
00000100
00001000
00000100
00000001
00000010
00000000
,
00000100
00001000
00000001
00000100
00000010
00001000
00000010
00000000
,
00001000
00000001
00000100
00001000
00010000
01000000
10000000
00100000
,
01000000
01000000
01000000
00010000
00010000
00010000
00100000
00100000
,
00100000
01000000
10000000
01000000
00100000
00001000
00010000
00000000
,
00000100
00010000
00011000
00000000
00100000
00001000
00011000
00000000
,
00000010
00001000
00000100
00000001
00000100
00001000
00000010
00000000
,
00000100
00000001
00000011
00000000
00000100
00001000
00001010
00000000
,
00010010
00000000
00001000
00011000
00000000
01001000
00010000
00000000
,
01000000
00100000
10000000
01000000
00100000
00010000
00100000
00000000
,
01000000
10000000
00100000
00010000
00100000
10000000
01000000
00000000
,
10000000
00100000
00010000
00001000
00000010
00000001
00000100
00000010
,
00001000
00001000
00001000
00000100
00000100
00000100
00000010
00000010
,
00000010
00000100
00001000
00000001
00000100
00000010
00001000
00000000
,
00000010
00000100
00001001
00000000
00000010
00000100
00001001
00000000
,
00000010
00010000
00001000
01000000
00010000
10000000
00100000
00000000
,
11000000
00100000
00000000
01010000
00100000
00000000
00010000
01000000
,
00001000
00010000
00000100
00001000
00000010
00000100
00000001
00000000
,
00001000
00000100
00001010
00000000
00001000
00000100
00010100
00000000
,
00010000
00001000
00000100
00001000
00010000
00000100
00010000
00000000
,
00101000
00010000
00000000
10100000
01000000
00000000
00010000
10000000
,
01000000
00100000
00010000
01000000
00001000
00010000
00000010
00000000
,
00001000
00000100
00010100
00000000
00000010
00000100
00001001
00000000
,
00000100
00000010
00000001
00000100
00000010
00001000
00000100
00000000
,
00000010
00000100
00010000
00001000
01000000
00010000
00100000
00010000
,
10010000
00000000
01000000
01010000
00000000
00100000
00001000
00101000
,
00000000
00000000
00000000
00000000
,
00000000
00000000
00000000
00000000
00000000
00001001
00000000
00000000
,
00000010
00000000
00000100
00000000
00001000
00000000
00000001
00000100
00000001
00000000
00000100
00000000
00000010
00000000
00001000
00000000
,
00000100
00000100
00000100
00010000
00010000
00010000
00001000
00001000
,
00001000
00000000
01000000
00000000
00010000
00000000
01000000
00100000
01000000
00000000
00010000
00000000
10000000
00000000
02000000
00000000
,
00020000
00000000
00000000
00000000
,
03030000
00000000
00000000
00000000
;

//---------------dance-double - M. Emirzian----------------
#NOTES:
     dance-double:
     M. Emirzian:
     Challenge:
     9:
     0.650,0.000,0.255,0.035,0.312:
00000000
00000000
00000000
00000000
,
00000000
00000000
00000000
00000000
,
10010000
00000000
00000000
00000010
,
00001001
00000000
00000000
00000000
,
00000110
00000000
00001000
01000100
00000000
01001000
00000000
10100000
,
01000000
00000000
00010000
00000000
00100000
00000000
00010000
00000000
01000000
00000000
00001000
00000000
01000000
00001000
01000000
00001000
,
00010000
00000000
00000010
00000000
00010000
00000000
00000100
00000000
00010000
00000000
00000010
00000000
00001000
00000000
00000100
00000010
,
00000100
00001000
00000001
00000100
00000010
00010000
00000100
00010000
,
00100000
01000000
01010000
00010000
10000000
10100000
00010000
10010000
,
01000000
00000000
00100000
00000000
10000000
00000000
01000000
00000000
00100000
00000000
00001000
00000000
01000000
00001000
01000000
00001000
,
00010000
00000000
00000010
00000000
00010000
00000000
00000100
00000000
00000010
00000000
00000001
00000000
00001000
00000000
00000010
00000100
,
00000010
00001000
00000100
01000000
00100000
10000000
00010000
01000000
,
00001000
00010000
00001000
00010000
00000100
00000000
01000000
00001000
01000000
00001000
00010000
00000000
00000100
00001000
00000100
00000010
,
00000100
00000000
00001000
00100010
00000000
00011000
00010000
00001000
,
01000000
00000000
00010000
00000000
10000000
00000000
00000000
01000000
00100000
00000000
00010000
00000000
01000000
00000000
10000000
00000000
,
01000000
00000000
00001000
00000000
00010000
00000000
00000000
00000010
00000100
00000000
00000010
00000000
00010000
00000000
00000100
00000000
,
00000010
00001000
00000010
00000001
00001000
00000010
00000100
00000010
,
00010000
00001000
01000000
00000000
00110000
00000000
10001000
00000000
,
00010000
00000000
00001000
00000000
00000100
00000000
00000000
00000010
00000100
00000000
00000001
00000000
00000010
00000000
00000100
00000000
,
00001000
00000000
00000010
00000000
00010000
00000000
00000000
00100000
01000000
00000000
10000000
00000000
01000000
00000000
00100000
00000000
,
00010000
00100000
10000000
01000000
00100000
00001000
00000100
00000001
,
00000010
00000000
00000100
00000000
00001000
00000000
00000000
00001001
00000000
00000000
00000000
00000000
00000000
00000000
00000000
00000000
,
00000010
00000000
00001000
00000000
00000100
00000000
00000000
01000000
00100000
00000000
01000000
00000000
10000000
00000000
01000000
00000000
,
00001000
00000000
00100000
00000000
00000010
00000000
00000000
00000100
00000001
00000000
00000010
00000000
00000100
00000000
00001000
00000000
,
00000010
00010000
00000100
01000000
00100000
10000000
01000000
00100000
,
00001000
00000000
01000000
00000000
00010000
00000000
00000000
00000100
00000010
00000000
00001000
00000000
00000100
00000000
00000010
00000000
,
00000100
00000000
00001000
00000000
00000010
00000000
00000000
01000000
00010000
00000000
00100000
00000000
00001000
00000000
01000000
00000000
,
00100000
00010000
00001000
00000001
00000100
00010000
00000100
00000010
,
00000001
00000000
00001000
00000000
00000010
00000000
00000000
00010000
00001000
00000000
01000000
00000000
00000000
00000000
20020000
00000000
,
00000000
00000000
00000000
30030000
,
10000000
00000000
01000000
00000000
00100000
00000000
00010000
10000000
00010000
00000000
01000000
00000000
00001000
00000000
00100000
00000000
,
00000100
00000000
00001000
00000000
00000010
00000000
00001000
00000001
00001000
00000000
00000010
00000000
00010000
00000000
00000100
00000000
,
00100000
00000000
00010000
00000000
01000000
00000000
00100000
10000000
00100000
00000000
01000000
00000000
00010000
00000000
10000000
00000000
,
01000000
00100000
00110000
00001000
00010000
00010100
00001000
00001100
,
00000010
00000000
00000001
00000000
00000100
00000000
00000010
00001000
00000100
00000000
00010000
00000000
00000010
00000000
01000000
00000000
,
00001000
00000000
00100000
00000000
00010000
00000000
10000000
00010000
10000000
00000000
00100000
00000000
10000000
00000000
00001000
00000000
,
00010000
00000000
10000000
00000000
01000000
00000000
00001000
00010000
00001000
00000000
00000010
00000000
00000100
00000000
00010000
00000000
,
00000100
00000000
00000010
00000000
00000001
00000000
00010000
00001000
00010000
00000000
00000010
00000000
00010000
00000000
00000100
00000000
,
01000000
00001000
00010000
00001000
00010000
00000000
00001000
01000000
00010000
01000000
00010000
00000000
10000000
01000000
00100000
00010000
,
01000000
00000000
00100000
00000000
10000000
00000000
01000000
00100000
01000000
00000000
00100000
00000000
00001000
00000000
01000000
00000000
,
00000100
00000000
00010000
00000000
00000010
00000000
00001000
00000100
00000010
00000000
00000001
00000000
00000100
00000000
00000010
00000000
,
00001000
00000000
00000100
00000000
00010000
00000000
00001000
00010000
00001000
00000000
00000001
00000000
00000100
00000000
00010000
00000000
,
00001000
01000000
01010000
00100000
10000000
11000000
00100000
10010000
,
00100000
00000000
01000000
00000000
00010000
00000000
00100000
01000000
10000000
00000000
00100000
00000000
01000000
00000000
00001000
00000000
,
00100000
00000000
00000100
00000000
00001000
00000000
00000001
00000100
00000001
00000000
00000010
00000000
00000100
00000000
00001000
00000000
,
00000010
00000000
01000000
00000000
00001000
00000000
00010000
00001000
00010000
00000000
00100000
00000000
01000000
00000000
00001000
00000000
,
01000000
00001000
01000000
00001000
00010000
00000000
00000010
00000100
00000010
00001000
00000010
00000000
00010000
00001000
01000000
00010000
,
01000000
00000000
00100000
00000000
10000000
00000000
01000000
00000000
00100000
00000000
00010000
00000000
01000000
00001000
01000000
00001000
,
00010000
00000000
00000010
00000000
00010000
00000000
00000100
00000000
00000001
00000000
00000100
00000000
00000010
00000000
00000001
00001000
,
00000001
00000100
00000010
00010000
00000100
01000000
00010000
00100000
,
01000000
00000000
10000000
00000000
01010000
00000000
00100000
00000000
10000000
00000000
11000000
00000000
10000000
00001000
10000000
00001000
,
01000000
00000000
00010000
00000000
00100000
00000000
00001000
00000000
00010000
00000000
00000010
00000000
00100000
00000010
00100000
00000010
,
00010000
00000000
00001000
00000000
00000001
00000000
00000100
00000000
00001000
00000000
00000010
00000000
00000100
00000000
00000001
00000100
,
00000001
00000010
00000100
00010000
00001000
01000000
00010000
00100000
,
00001000
00010000
00010100
00001000
00010000
01001000
01000000
01010000
,
00100000
10000000
00010000
10000000
01000000
00000000
00100000
00001000
00100000
00001000
00010000
00000000
00001000
00000000
00011000
00000000
,
00000000
00000000
00000000
00000000
,
00000000
00000000
00000000
00000000
00000000
01000100
00000000
00000000
,
00010000
00001000
00010000
00000010
00001000
00000000
00000100
01000000
00000100
01000000
00001000
00000000
00010000
00001000
01000000
00010000
,
01000000
00000000
00001000
10000000
00001000
10000000
00010000
00000000
00100000
00001000
00100000
00001000
00010000
00000000
00000010
00100000
,
00000010
00100000
00001000
00000000
00010000
00000000
00000100
00000000
00001100
00000000
00010000
00000000
00000010
00000000
00002000
00000000
,
00000200
00000000
00000000
00000000
,
00003300
00000000
00000000
00000000
;

//---------------dance-single - wdefsdf----------------
#NOTES:
     dance-single:
     M. Calfin:
     Edit:
     9:
     0.661,0.694,0.360,0.202,0.263,463.000,41.000,23.000,0.000,0.000,6.000,0.661,0.694,0.360,0.202,0.263,463.000,41.000,23.000,0.000,0.000,6.000:
0000
0000
0000
0000
,
0000
0000
0000
0000
,
2002
0000
3003
1100
,
0220
0000
0000
0330
,
0022
0000
0033
0220
0330
0200
0300
1010
,
0100
0000
0001
0000
0010
0000
0001
0000
0100
0000
0010
0000
0100
0001
0100
0001
,
0100
0000
0001
0000
0001
0000
0010
0000
0001
0000
0010
0000
0100
0000
1000
0100
,
1000
0100
0010
0001
0100
0001
0100
0010
,
1000
0000
0100
0000
0110
0000
0001
0000
1000
0000
1000
0000
0001
1000
0100
0010
,
0001
0000
1000
0000
1000
0000
0100
0000
0010
0000
0100
0000
0010
0100
1000
0100
,
0010
0000
1000
0000
0001
0000
0100
0000
0010
0000
1000
0000
0010
0000
0001
0010
,
0001
0010
0001
0100
0010
1000
0101
0000
,
0110
0100
0001
0100
0100
0001
0010
0100
,
0010
0000
0000
0001
0010
0000
0010
0000
0000
0000
0001
0000
0001
0000
0000
0000
,
0100
0000
0001
0000
1000
0000
0000
0100
0010
0000
0001
0000
0100
0000
1000
0000
,
0100
0000
0001
0000
0001
0000
0000
0010
0100
0000
0001
0000
0001
0000
0100
0000
,
1000
0000
0010
0000
0100
0000
0000
0010
0100
0000
0010
0000
0001
0000
0010
0000
,
1000
0100
0100
0000
0044
0033
4400
3300
,
0001
0000
0001
0000
0010
0000
0000
0100
1000
0000
0100
0000
0000
0000
0010
0000
,
0001
0000
0010
0000
0001
0000
0000
0010
0100
0000
1000
0000
0100
0000
0010
0000
,
0001
0000
0010
0000
0001
0000
0000
0100
0010
0000
0100
0000
0001
0000
0010
0000
,
0000
0000
0010
0000
0100
0000
0000
0100
1100
0000
0000
0000
0000
0000
0000
0000
,
0011
0000
0001
0000
0010
0000
0000
0100
0010
0000
0100
0000
1000
0000
0100
0000
,
0010
0000
0010
0000
0001
0000
0000
0100
0010
0000
0000
0000
1100
0000
0000
0000
,
0110
0000
0010
0000
0001
0000
0000
0100
0010
0000
1000
0000
0100
0000
0010
0000
,
0100
0000
0001
0000
0100
0000
0000
1000
0100
0000
0010
0000
0000
0000
0001
0000
,
0100
0000
0100
0000
0010
0000
0000
0100
0001
0000
0010
0000
0000
0000
0100
0000
,
0010
0000
0001
0000
0100
0000
0000
0010
1000
0000
0010
0000
0100
0000
0010
0000
,
0001
0000
0010
0000
0100
0000
0000
0001
1000
0000
0100
0000
0000
0000
2002
0000
,
0000
0000
0000
3003
,
1000
0000
0100
0000
0110
0000
0001
1000
0001
0000
0100
0000
1010
0000
0010
0000
,
1000
0000
0100
0000
0110
0000
0001
0010
0001
0000
0010
0000
0110
0000
0010
0000
,
0100
0000
1000
0000
0110
0000
0010
1000
0010
0000
0100
0000
1001
0000
1000
0000
,
0100
0000
0010
0000
1100
0000
1000
0100
1000
0000
0001
0000
1001
0000
0010
0000
,
0100
0000
0001
0000
0011
0000
0001
0100
0010
0000
0100
0000
1000
0000
0100
0000
,
0010
0000
1000
0000
1100
0000
1000
0001
1000
0000
0010
0000
1000
0000
0010
0000
,
0001
0000
1000
0000
0100
0000
0001
0010
0100
0000
1000
0000
0010
0000
0100
0000
,
0001
0000
0100
0000
0010
0000
1000
0100
0010
0000
0001
0000
0001
0000
0000
0000
,
1000
0100
1000
0010
0100
0000
0001
0100
0001
0100
0001
0000
1000
0100
0010
0001
,
0100
0000
0010
0000
1000
0000
0100
0010
0100
0000
0010
0000
0001
0000
0100
0000
,
0010
0000
0001
0000
0010
0000
1000
0100
0010
0000
0010
0000
0001
0000
0010
0000
,
0001
0000
0100
0000
0001
0000
0100
0001
0100
0000
0010
0000
1000
0000
0001
0000
,
1000
0000
0100
0000
1100
0000
0010
0001
1000
0000
1100
0000
0010
0000
1001
0000
,
0010
0000
0100
0000
0001
0000
0010
0100
1000
0000
0010
0000
0100
0000
0010
0000
,
0010
0000
1000
0000
0100
0000
0010
0000
0100
0000
1000
0100
1000
0000
0100
0000
,
0010
0000
0100
0000
0010
0000
0001
1000
0001
0000
1000
0000
0010
0000
0100
0000
,
0001
0000
0010
0000
0100
0000
0010
0000
0001
0000
0100
0000
0001
0000
0100
0001
,
0100
0000
0010
0000
1000
0000
0100
0000
0010
0000
0001
0000
0100
0001
0100
0010
,
0100
0000
0001
0000
0001
0000
0010
0000
0100
0000
1000
0000
0100
0000
0010
0001
,
0100
0000
0010
0000
1000
0000
0001
0000
0010
0000
0100
0000
2200
3300
0000
0000
,
0022
0033
1000
0000
0101
0000
0010
0000
1000
0000
1100
0000
1000
0010
1000
0100
,
0010
0000
0001
0000
0010
0000
0001
0000
0001
0000
0100
0000
0010
1000
0010
0100
,
0001
0000
0010
0000
0100
0000
1000
0000
0010
0000
0100
0000
0001
0000
0010
0100
,
0010
0001
0100
0001
0010
0100
1000
0010
,
1000
0100
0010
0100
1000
0010
1000
1010
,
0010
1000
0001
1000
0100
0000
0010
0001
0010
0100
1000
0000
0001
0000
2002
0000
,
0000
0000
0000
3003
,
0011
0000
0000
0000
0000
0000
0000
0000
1100
0000
0440
0000
0000
0330
0000
0000
,
0001
0000
0001
0000
0100
0000
0010
0100
0001
0000
0010
0000
0001
0000
0100
0001
,
0100
0000
0010
0000
1000
0000
0100
0000
0010
0000
0010
0000
0001
0000
0010
0100
,
1000
0010
0001
0010
1000
0001
1000
0000
,
2002
0000
0000
3003
2200
0000
0000
3300
,
0022
0000
0000
0000
,
0000
0033
0000
0000
;

//---------------dance-single - J. Frederick----------------
#NOTES:
     dance-single:
     J. Frederick:
     Beginner:
     1:
     0.087,0.000,0.018,0.000,0.000:
0000
0000
0000
0000
,
0000
0000
0000
0000
,
0000
0000
0000
0000
,
0000
0000
0000
0000
,
1000
0000
0000
0000
,
0001
0000
0000
0100
,
0100
0000
0000
0000
,
0010
0000
0000
1000
,
1000
0000
0000
0000
,
0001
0000
0000
0010
,
0010
0000
0000
0000
,
0100
0000
0000
1000
,
1000
0000
0000
0000
,
0001
0000
0000
0000
,
0100
0000
0000
0000
,
0000
0000
0000
0000
,
0010
0000
0000
0000
,
0000
0000
0000
0000
,
1000
0000
0000
0000
,
0000
0000
0000
0000
,
0001
0000
0000
0000
,
0110
0000
0000
0000
,
1000
0000
0000
0000
,
0001
0000
0000
0000
,
0100
0000
0000
0000
,
0010
0000
0000
0000
,
1000
0000
0000
0000
,
0001
0000
0000
0000
,
0010
0000
0000
0000
,
0110
0000
0000
0000
,
1000
0000
0000
0000
,
0001
0000
0000
0000
,
0100
0000
0000
0000
,
0010
0000
0000
0000
,
0100
0000
0000
0000
,
1000
0000
0000
0000
,
0001
0000
0000
0000
,
0100
0000
0000
0000
,
0010
0000
0010
0000
,
0010
0000
0000
0000
,
1000
0000
0000
0000
,
0001
0000
0000
0000
,
0010
0000
0000
0000
,
0100
0000
0000
0000
,
1000
0000
0000
0000
,
0001
0000
0000
0000
,
0100
0000
0100
0000
,
0100
0000
0000
0010
,
0010
0000
0000
0000
,
1000
0000
0000
0001
,
0001
0000
0000
0000
,
0100
0000
0000
0010
,
0010
0000
0000
0000
,
1000
0000
0000
0001
,
0001
0000
0000
0000
,
1000
0000
0000
0000
,
0001
0000
0000
0000
,
0100
0000
0000
0000
,
0010
0000
0000
0000
,
1000
0000
0000
0000
,
0001
0000
0000
0000
,
0010
0000
0010
0000
,
0010
0000
0000
0000
;

//---------------dance-single - J. Frederick----------------
#NOTES:
     dance-single:
     J. Frederick:
     Easy:
     3:
     0.213,0.000,0.079,0.246,0.000:
0000
0000
0000
0000
,
0000
0000
0000
0000
,
0000
0000
0000
0000
,
0000
0000
0000
0000
,
1000
0000
0001
0000
,
1000
1000
1000
0010
,
0200
0000
0300
0001
,
0020
0000
0030
0011
,
2200
0000
3300
0010
,
0002
0000
0003
0100
,
0020
0000
0030
1000
,
0200
0000
0300
0110
,
2002
0000
0000
3003
,
0100
0010
1000
0100
,
0010
0000
0010
0000
,
0001
0000
0001
0000
,
1000
0000
1000
0000
,
0010
0000
0010
0000
,
0100
0000
0100
0000
,
0001
0000
1000
0000
,
0100
0000
0010
0000
,
2002
0000
0000
3003
,
0100
0010
1000
0000
,
0100
0000
0010
0000
,
0001
0100
0001
0000
,
1000
0000
0010
0000
,
0100
0001
0100
0000
,
0010
0000
1000
0000
,
0100
0010
0100
0010
,
0220
0000
0000
0330
,
1000
0001
0100
0000
,
0010
0000
1000
0000
,
0001
0010
0001
0000
,
0100
0000
0010
0000
,
1000
0010
0100
0000
,
0001
0000
0010
0000
,
0100
1000
0100
1000
,
0020
0000
0000
0030
,
0100
0010
0100
0010
,
0200
0000
0000
0300
,
0001
0010
0100
0000
,
1000
0000
0001
0000
,
0100
0000
0010
1000
,
0100
0000
0010
0000
,
0001
0000
0100
0010
,
1000
0000
0001
0000
,
0010
0000
0010
0000
,
0200
0000
0300
1000
,
0020
0000
0030
0100
,
0002
0000
0003
0010
,
0200
0000
0300
1000
,
0020
0000
0030
0100
,
2000
0000
3000
0001
,
0020
0000
0030
0100
,
0220
0000
0000
0330
,
1000
0001
1000
0000
,
0001
0000
0000
0000
,
0100
0000
0000
0000
,
0110
1000
0001
0010
,
0200
0300
0020
0030
,
0001
1000
0010
0100
,
0010
0000
0010
0000
,
0220
0000
0000
0000
,
0000
0330
0000
0000
;

//---------------dance-single - J. Frederick----------------
#NOTES:
     dance-single:
     J. Frederick:
     Medium:
     6:
     0.345,0.000,0.149,0.158,0.000:
0000
0000
0000
0000
,
0000
0000
0000
0000
,
0000
0000
0000
0000
,
0000
0000
0000
0000
,
1010
0000
0000
0101
0000
0011
0000
0000
,
0010
0000
0100
0000
1000
0000
0100
0010
,
0001
0000
0100
0000
0001
0000
1000
0010
,
0100
0001
0010
0100
,
0010
0000
0001
0000
1000
0000
0010
0100
,
0001
0000
0010
0000
0100
0000
1000
0100
,
0010
0000
0001
0000
0100
0000
0001
1000
,
0001
0100
0010
1010
,
0202
0000
0000
0000
0000
0000
0000
0303
,
0010
0000
1000
0001
0000
0010
0000
0000
,
0100
1000
0100
0000
0010
0000
0001
0000
,
0100
0010
0100
0000
0001
0000
1000
0000
,
0001
0010
0100
0000
1000
0000
0100
0000
,
0010
0001
0100
0000
0001
0000
1000
0000
,
0010
0100
0001
0000
0010
0000
0100
0000
,
1000
0100
0010
0000
0001
0000
0100
0000
,
0001
1000
0001
0000
0100
0000
0010
0000
,
2002
0000
0000
0000
0000
0000
0000
3003
,
0010
0100
0010
0000
0100
0000
1000
0000
,
0010
0100
0001
0000
0010
0000
0001
0000
,
1000
0001
0100
0000
0010
0000
1000
0000
,
0100
0010
0001
0000
1000
0000
0001
0000
,
0100
0010
0100
0000
0001
0000
0010
0000
,
0100
1000
0100
0000
0010
0000
0001
0000
,
0100
0001
0100
0000
0010
0000
1000
0000
,
2002
0000
0000
3003
,
0010
0100
0010
0000
0100
0000
1000
0000
,
0010
0000
0100
0000
0001
0000
0010
0001
,
1000
0001
0100
0010
,
1000
0000
0100
0000
0010
0000
0001
0100
,
0001
1000
0010
0100
,
0001
0000
0010
0000
0100
0000
1000
0100
,
0010
0000
0001
0000
0100
0000
0010
1000
,
2002
0000
0000
3003
,
0100
0000
0000
0010
0000
1000
0000
0000
,
0100
0000
0010
0000
0001
0000
0100
0001
,
1000
0000
0010
0000
0100
0000
0001
0010
,
0001
0000
1000
0000
0010
0000
0100
0001
,
0010
0000
0100
0000
1000
0000
0100
0010
,
0001
0000
0100
0000
0001
0000
1000
0010
,
0100
0000
0001
0000
0010
0000
0001
1000
,
0001
0000
0100
0000
0010
0100
0010
0000
,
0110
0000
1010
0000
,
0202
0000
0303
1000
,
0020
0000
0000
0000
0030
0000
0100
0001
,
0020
0000
0000
0000
0000
0030
0100
0000
,
2200
0000
0000
0000
0000
3300
0010
0001
,
0010
0000
0001
0000
0100
0000
0010
1000
,
0001
0000
0010
0000
0100
0000
1000
0100
,
0010
0001
0100
1001
,
2002
0000
0000
3003
,
0100
0000
0010
1000
0000
0100
0000
0000
,
0010
0000
0001
0000
,
1000
0000
0000
0000
0010
0000
0100
0010
,
0100
0010
1000
0100
,
0010
0000
0001
0000
0100
0001
1000
0001
,
0100
0000
0010
0000
1000
0010
0100
0000
,
0101
0000
1010
0000
,
0220
0000
0000
0000
,
0000
0330
0000
0000
;

//---------------dance-single - J. Frederick----------------
#NOTES:
     dance-single:
     J. Frederick:
     Hard:
     8:
     0.561,0.000,0.123,0.141,0.141:
0000
0000
0000
0000
,
0000
0000
0000
0000
,
0000
0000
0000
0000
,
0000
0000
0000
0000
,
1001
0000
0100
0010
0000
0010
1000
0000
,
0100
0000
0010
0000
0001
0000
0010
0000
0100
0000
1000
0000
0010
1000
0000
0010
,
0100
0000
0001
0000
0010
0000
0001
0000
0100
0000
0001
0000
1000
0000
0001
1000
,
0001
0100
0010
0100
0010
1000
0100
0010
,
0100
0000
0010
0000
0001
0000
1000
0000
0001
0000
0100
0000
0010
0100
0000
0001
,
0010
0000
0100
0000
1000
0000
0100
0000
0010
0000
0001
0000
0100
0000
0001
0100
,
0001
0000
1000
0000
0010
0000
0100
0000
0010
0000
1000
0000
0100
0000
0010
0100
,
0010
0001
1000
0001
0100
0010
1000
0010
,
0200
0000
0000
0300
,
0001
0000
0010
0100
0000
0100
1000
0000
,
0010
0000
0100
0000
0001
0000
0000
0010
0100
0000
1000
0000
0010
0000
0000
0000
,
0100
0000
0001
0000
0010
0000
0000
0001
0010
0000
0001
0000
1000
0000
0000
0000
,
0010
0000
0100
0000
0010
0000
0000
1000
0100
0000
0010
0000
0001
0000
0000
0000
,
0001
0100
0010
0100
0220
0330
0220
0330
,
1000
0000
0010
0000
0100
0000
0000
0100
0001
0000
0010
0000
0100
0000
0000
0000
,
0100
0000
1000
0000
0010
0000
0000
0010
1000
0000
0001
0000
0100
0000
0000
0000
,
0100
0000
0001
0000
0010
0000
0000
0010
0100
0000
1000
0000
0100
0000
0010
0000
,
0220
0000
0000
0330
,
1000
0001
0010
0100
1000
0100
0010
0001
,
0100
0001
1000
0010
0100
0010
1000
0001
,
0010
1000
0010
0001
1000
0010
0001
0010
,
1000
0100
0010
0001
1000
0100
0010
0100
,
1000
0010
0100
0001
0010
0001
1000
0001
,
0100
0010
1000
0100
0010
0001
1000
0001
,
0100
0001
0010
0100
1000
0100
0010
0100
,
0220
0000
0000
0330
,
1000
0000
0010
0000
0100
0000
0001
0010
0001
0000
0010
0000
0100
0000
1000
0000
,
0010
0000
0100
0000
0001
0000
0100
0001
0100
0000
0001
0000
0010
0000
0100
0000
,
1000
0000
0100
0000
0010
0000
0001
0010
0001
0000
1000
0000
0010
0000
0100
0000
,
0010
0000
0001
0000
0010
0000
1000
0010
1000
0000
0010
0000
0100
0000
0001
0000
,
1000
0000
0100
0000
0010
0000
0100
1000
0100
0000
1000
0000
0010
0000
0100
0000
,
0001
0000
0010
0000
0001
0000
1000
0001
1000
0000
0001
0000
0100
0000
0010
0000
,
0100
0000
0010
0000
1000
0000
0100
0010
0100
0000
0010
0000
0001
0000
1000
0000
,
0001
0100
0010
1000
0010
0100
0001
0010
,
0100
0000
0100
1000
0000
1000
0010
0000
,
0010
0000
0100
0000
0001
0000
0010
0001
0010
0000
0100
0000
1000
0000
0010
0000
,
0100
0000
0010
0000
0001
0000
0010
0100
0010
0000
1000
0000
0100
0000
0010
0000
,
0001
0000
0010
0000
0100
0000
1000
0100
1000
0000
0010
0000
0100
0000
0001
0000
,
0010
0000
0001
0000
1000
0000
0001
1000
0001
0000
0100
0000
0010
0000
0100
0000
,
0010
0000
0001
0000
0010
0000
0100
0010
0100
0000
0010
0000
1000
0000
0100
0000
,
0010
0000
0001
0000
1000
0000
0100
1000
0100
0000
0010
0000
0001
0000
0100
0000
,
0001
0000
1000
0000
0010
0000
0100
0001
0100
0000
0001
0000
0010
0000
0100
0000
,
2000
0000
0000
0000
0000
0000
0000
0000
0002
0000
0000
0000
0000
3003
0000
0000
,
1001
0000
1001
0000
0100
0010
0100
0010
,
1010
0000
1010
0000
0100
0001
0010
0100
,
0110
0000
0110
0000
1000
0100
0010
0001
,
0011
0000
0000
0000
0011
0000
0000
0000
0100
0000
0001
0000
1000
0001
0000
0001
,
1000
0000
0010
0000
0100
0000
0010
0000
1000
0000
0100
0000
0010
0001
0010
0000
,
0100
0000
1000
0000
0010
0000
0100
0000
0001
0000
0010
0000
0001
0000
1000
0001
,
1000
0010
0100
0010
1000
0100
0010
0100
,
2000
0000
0000
3000
,
0001
0000
0100
0010
0000
0010
1000
0100
,
0010
0000
0001
0100
0000
0100
0010
1000
,
0000
0000
0100
0000
0010
0000
0010
0000
0000
0000
0001
0000
0100
0000
0000
0001
,
1000
0001
1000
0010
0100
0010
1000
0100
,
0010
0001
0010
0100
1000
0100
0010
0001
,
1000
0001
0100
0010
0100
0010
1000
0100
,
0020
0000
0000
0000
0000
0000
0000
0000
0200
0000
0000
0000
0000
0330
0000
0000
,
0220
0000
0000
0000
,
0000
0330
0000
0000
;

//---------------dance-single - D. Renzetti----------------
#NOTES:
     dance-single:
     D. Renzetti:
     Challenge:
     10:
     0.748,0.000,0.387,0.387,0.404: // measure 1
0000
0000
0000
0000
,  // measure 2
0000
0000
0000
0000
,  // measure 3
1001
0000
0000
1000
,  // measure 4
1010
0000
0000
0000
,  // measure 5
0101
0000
0000
0001
0000
1000
0000
0000
,  // measure 6
0010
0000
1000
0000
0100
0000
0010
0000
0001
0000
0100
0000
0010
1M00
0010
0100
,  // measure 7
0001
0000
1000
0000
0010
0000
0100
0000
0001
0000
0100
0000
0010
0000
1000
0001
,  // measure 8
0100
0001
0010
0100
1000
0010
0100
0010
,  // measure 9
1000
0000
0001
0000
0102
0000
0103
0000
0010
0000
1000
0000
1020
0000
1030
0100
,  // measure 10
0010
0000
0001
0000
0100
0000
0010
0000
1000
0000
0010
0000
0100
00M1
0100
0010
,  // measure 11
1000
0000
0100
0000
0010
0000
0100
0000
1000
0000
0010
0000
0100
0000
0001
0010
,  // measure 12
0100
0010
0001
0100
1000
0100
0012
0000
,  // measure 13
0103
0001
0100
0010
1000
0100
0010
0001
,  // measure 14
1000
0100
1000
0100
1000
0M00
0001
0010
0001
0010
0001
00M0
0100
0010
0100
0010
,  // measure 15
1000
0000
0010
0000
0102
0000
0000
0103
0001
0000
0010
0000
0100
0000
1000
0000
,  // measure 16
0010
0000
0100
0000
2010
0000
0000
3010
1000
0000
0100
0000
1000
0000
0001
0000
,  // measure 17
0010
0000
0100
0000
0012
0000
0000
0013
0001
0000
0100
0000
0010
0000
0100
0000
,  // measure 18
0001
0010
2100
0000
0020
0030
0020
3030
,  // measure 19
1000
0000
0010
0000
0210
0000
0000
0301
0100
0000
1000
0000
0100
0000
0001
0000
,  // measure 20
0010
0000
0100
0000
0120
0000
0000
0031
0010
0000
1000
0000
0010
0000
0001
0000
,  // measure 21
0100
0000
0010
0000
1020
0000
0000
1030
0010
0000
0001
0000
0010
0000
0100
0000
,  // measure 22
0010
0000
1000
0000
0100
0000
0000
1001
0000
0MM0
M00M
0000
0000
0000
0000
0000
,  // measure 23
1000
0000
1000
0000
1020
0000
0130
0001
0010
0000
0001
0000
0201
0000
1000
0000
,  // measure 24
0301
0000
0001
0000
0201
0000
0310
1000
0100
0000
1000
0000
1200
0000
0301
0000
,  // measure 25
0100
0000
1000
0000
2100
0000
3010
1000
0100
0000
0010
0000
0201
0000
0310
0000
,  // measure 26
1000
0000
0100
0000
0012
0000
0013
0001
0100
0000
0010
0000
2001
0000
3010
0000
,  // measure 27
0100
0000
0001
0000
0201
0000
1300
0100
0010
0000
0100
0000
0102
0000
0013
0000
,  // measure 28
0100
0000
1000
0000
1020
0000
0031
0010
0100
0000
0010
0000
2010
0000
3100
0000
,  // measure 29
1000
0000
0010
0000
0210
0000
0301
0100
1000
0000
0100
0000
0010
0000
2200
0000
,  // measure 30
0000
0000
3000
0000
0000
0000
1300
0010
,  // measure 31
0100
0000
0001
0000
0100
0000
0010
1000
0010
0000
0100
0000
0001
0000
0010
0001
,  // measure 32
0010
0000
0001
0000
0100
0000
0010
1000
0010
1000
0100
0000
2100
0000
0MM0
0000
,  // measure 33
3010
0000
0100
0000
0001
0000
0010
0100
1000
0000
0010
0000
0100
0000
0001
0010
,  // measure 34
0001
0000
0100
0000
0010
0000
0100
0001
0100
0001
0010
0000
0012
0000
0MM0
0000
,  // measure 35
0103
0000
0001
0000
0100
0000
0010
1000
0010
0000
0100
0000
0001
0000
0100
0010
,  // measure 36
1000
0000
0100
0000
0010
0000
0001
0010
0001
0000
0100
0000
0201
0000
0301
0000
,  // measure 37
0100
0000
0010
0000
1000
0000
0100
0010
0100
0000
1000
0000
0010
0000
0100
0010
,  // measure 38
0100
0000
0001
0000
0010
0000
0100
0010
0100
0000
1000
0000
0010
0000
0100
0000
,  // measure 39
0001
0010
0001
0100
00M1
0000
1M00
0010
1000
0100
1000
0000
0M10
1000
0010
0100
,  // measure 40
0001
0000
0100
0000
0010
0000
1000
0010
0100
0000
0001
0000
0100
0000
0001
0010
,  // measure 41
0001
0000
1000
0000
0010
0000
0100
0001
0100
0001
0010
0000
0012
0000
0MM0
0000
,  // measure 42
1003
0000
0010
0000
1000
0000
0100
1000
0010
0000
0100
0000
0001
0000
0100
0010
,  // measure 43
1000
0000
0100
0000
0010
0000
0100
1000
0100
1000
0010
0000
0210
0000
0001
0000
,  // measure 44
0310
0000
1000
0000
1020
0000
0130
0001
0010
0000
0001
0000
0100
0000
0010
1000
,  // measure 45
0010
0000
0100
0000
0001
0000
0010
0100
1000
0100
1000
0000
1020
0000
0100
0000
,  // measure 46
1030
0000
0010
0000
0100
0000
0001
0010
0001
0000
0100
0000
0001
0000
0100
0000
,  // measure 47
00M1
0100
0001
0010
0001
0000
1000
0100
1000
0010
1M00
0000
0010
0100
0001
0010
,  // measure 48
0100
0000
1000
0000
0100
0000
0010
0000
0001
0000
0100
0000
0001
0010
0001
0010
,  // measure 49
0001
0000
0100
0000
0010
0000
1000
0000
0010
0000
0100
0000
0001
0000
0010
0100
,  // measure 50
1000
0010
0100
0001
1000
0100
0010
0001
,  // measure 51
0100
0000
0001
0000
0012
0000
0013
0000
0100
0000
1000
0000
1200
0000
1300
0100
,  // measure 52
0010
0000
0001
0000
0100
0000
0001
0000
0010
0000
0001
0000
0100
0010
1000
0100
,  // measure 53
0010
0000
0001
0000
1000
0000
0001
0000
0100
0000
0010
0000
1000
0000
0100
0010
,  // measure 54
0100
1000
0010
0100
0001
0100
0010
0100
,  // measure 55
1000
0100
2010
3010
0100
0010
0102
0103
,  // measure 56
0001
0010
0100
1000
010M
0000
M010
0001
0010
0100
1000
0000
0001
0000
2002
0000
,  // measure 57
0000
0000
0000
3003
,  // measure 58
0011
00MM
0000
0000
1100
M220
0000
0330
,  // measure 59
0001
0010
0100
1000
0100
0000
1000
0100
1000
0100
0010
0000
0001
0100
0001
0100
,  // measure 60
0010
0000
1000
0010
1000
0010
0100
0000
0001
0010
0100
0010
0001
0000
1000
0100
,  // measure 61
0010
0100
1000
0000
0001
0000
0100
0000
0011
0000
0001
0000
0100
0000
0010
0000
,  // measure 62
2000
0000
0002
0000
,  // measure 63
3000
0000
0000
0000
,  // measure 64
0003
0000
0000
0000
;
