#TITLE:Blow My Mind;
#SUBTITLE:;
#ARTIST:Alphadelta;
#TITLETRANSLIT:;
#SUBTITLETRANSLIT:;
#ARTISTTRANSLIT:;
#GENRE:Trance;
#CREDIT:;
#BANNER:Blow my Mind-bn.png;
#BACKGROUND:Blow my Mind-bg.png;
#LYRICSPATH:;
#CDTITLE:;
#MUSIC:Blow my Mind.ogg;
#OFFSET:-0.107;
#SAMPLESTART:60.420;
#SAMPLELENGTH:11.860;
#SELECTABLE:YES;
#BPMS:0.000=131.130;
#STOPS:;
#BGCHANGES:0.058=Blow my Mind.mpg=1.000=1=0=0=StretchNoLoop==CrossFade==,
99999=-nosongbg-=1.000=0=0=0 // don't automatically add -songbackground-;
#KEYSOUNDS:;

//---------------dance-double - M.Emirzian----------------
#NOTES:
     dance-double:
     M.Emirzian:
     Easy:
     2:
     0.110,0.104,0.009,0.009,0.000,81.000,1.000,1.000,0.000,0.000,0.000,0.110,0.104,0.009,0.009,0.000,81.000,1.000,1.000,0.000,0.000,0.000:
00000000
00000000
00000000
00000000
,
00000000
00000000
00000000
00000000
,
00000000
00000000
00000000
00000000
,
00000000
00000000
00000000
00000000
,
00100000
00000000
00100000
00000000
,
00000000
00001000
00000000
00001000
,
00010000
00000000
00010000
00000000
,
00000000
00000100
00000000
00001000
,
00000010
00000000
00000010
00000000
,
00000000
00000001
00000000
00000010
,
00000100
00000000
00000100
00000000
,
00000000
00001000
00000000
00000010
,
00010000
00000000
00010000
00000000
,
00000000
00001000
00000000
01000000
,
00010000
00000000
00010000
00000000
,
00000000
00100000
00000000
01000000
,
10000000
00000000
10000000
00000000
,
00000000
00010000
00000000
01000000
,
00001000
00000000
00001000
00000000
,
00000000
00010000
00000000
00000100
,
00000020
00000000
00000000
00000000
,
00000000
00000000
00000000
00000000
,
00000030
00000000
00000000
00000000
,
00000000
00000000
00000000
00000000
,
00000000
00000000
00000000
00000000
,
00000000
00000000
00000001
00000000
,
00000000
00000000
00010000
00000000
,
00000000
00000000
00000000
00000000
,
10000000
00000000
00000000
00000000
,
00000000
00010000
00000000
00000000
,
01000000
00000000
00000000
00000000
,
00000000
00000000
00000000
00001000
,
00010000
00000000
00010000
00000000
,
00000000
00001000
00000000
01000000
,
00100000
00000000
00100000
00000000
,
00000000
10000000
00000000
01000000
,
00100000
00000000
00100000
00000000
,
00000000
00010000
00000000
01000000
,
00001000
00000000
00001000
00000000
,
00000000
00010000
00000000
00000100
,
00000000
00001000
00000000
00000001
,
00000000
00000100
00000000
00000010
,
00000000
00001000
00000000
00000100
,
00000000
00010000
00000000
00001000
,
00000000
01000000
00000000
00010000
,
00000000
10000000
00000000
01000000
,
00000000
00100000
00000000
00010000
,
00000000
01000000
00000000
00001000
,
00010000
00000000
00000000
00000000
,
01000000
00000000
00000000
00000000
,
00010000
00000000
00000000
00000000
,
00001000
00000000
00000000
00000000
,
00000010
00000000
00000000
00000000
,
00000001
00000000
00000000
00000000
,
00001000
00000000
00000000
00000000
,
00000010
00000000
00000100
00000000
,
00001001
00000000
00000000
00000000
;

//---------------dance-double - M.Emirzian----------------
#NOTES:
     dance-double:
     M.Emirzian:
     Medium:
     5:
     0.278,0.311,0.111,0.019,0.000,196.000,12.000,2.000,0.000,0.000,0.000,0.278,0.311,0.111,0.019,0.000,196.000,12.000,2.000,0.000,0.000,0.000:
00000000
00000000
00000000
00000000
,
00000000
00000000
00000000
00000000
,
00000000
00000000
00000000
00000000
,
00000000
00000000
00000000
00000000
,
10100000
00000000
00010000
01000000
10000000
00000000
00000000
00000000
,
00000000
10000000
01000000
00000000
00100000
00000000
00010000
00000000
,
01000000
00100000
10000000
00000000
01010000
00000000
00000000
00000000
,
00000000
00001000
00010000
00000000
00000100
00000000
00010000
00000000
,
00011000
00000000
00010000
00001000
00000100
00000000
00000000
00000000
,
00000001
00000000
00000010
00000000
00000100
00000000
00001000
00000010
,
00000100
00001000
00000101
00000000
,
00000000
00000001
00000010
00000000
00001000
00000000
00010000
00000000
,
00010100
00000000
00010000
00001000
00000100
00000000
00000000
00000000
,
00000000
00001000
00010000
00000000
00001000
00000000
01000000
00000000
,
00100000
01000000
00010000
00000000
10010000
00000000
00000000
00000000
,
00000000
01000000
00100000
00000000
01000000
00000000
10000000
00000000
,
00110000
00000000
00010000
01000000
10000000
00000000
00000000
00000000
,
00000000
01000000
00010000
00000000
01000000
00000000
00001000
00000000
,
00010000
00001000
00000100
00000000
00000110
00000000
00000000
00000000
,
00000000
00000001
00001000
00000000
00000100
00000000
00000010
00000000
,
00002002
00000000
00000000
00000000
,
00000000
00000000
00000000
00000000
,
00003003
00000000
00000000
00000000
,
00000000
00000000
00000000
00000000
,
00000000
00000000
00000000
00000000
,
00000010
00000000
00000000
00000000
,
00010000
00000000
00000000
00000000
,
00001000
00000000
00000000
00000000
,
01000000
00000000
00000000
00000000
,
00010000
00000000
10000000
00000000
,
10000000
10000000
10000000
00000000
,
00000000
00000000
00010000
00010000
,
00010000
00000000
10000000
01000000
00100000
00000000
00110000
00000000
,
00000000
10000000
00100000
00000000
01000000
00000000
00010000
00000000
,
00100000
00010000
01000000
00000000
00010000
00000000
00100000
00001000
,
00000000
00010000
00001000
00010000
00000000
00000100
00010000
00000100
,
00000000
00001000
00000100
00001000
00000000
00000001
00001000
00000001
,
00000000
00000100
00000010
00000100
00000000
00000010
00001000
00000010
,
00000000
00010000
00000010
00010000
00000000
00001000
00100000
00001000
,
00000000
00100000
00010000
00100000
00000000
01000000
10000000
00000000
,
00100000
00000000
10000000
01000000
00010000
00000000
11000000
00000000
,
00000000
00100000
01000000
00000000
00010000
00000000
01000000
00000000
,
00001000
00010000
00001000
00000000
00010000
00000000
00000100
00001000
,
00000000
00000010
00001000
00000010
00000000
00000100
00000001
00000100
,
00000000
00000001
00001000
00000001
00000000
00001000
00000100
00001000
,
00000000
00000100
00010000
00000100
00000000
00010000
00001000
00010000
,
00000000
00001000
01000000
00001000
00000000
01000000
00010000
01000000
,
00000000
00100000
10000000
00100000
00000000
10000000
00010000
00000000
,
10000000
00000000
01000000
00100000
00010000
00000000
00000000
00000000
,
01000000
00010000
01000000
00001000
,
00010000
00001000
00010000
00000000
00000100
00000000
00000000
00000000
,
00010000
00000010
00000100
00001000
,
00000100
00000000
00000001
00001000
00000001
00000000
00000000
00000000
,
00000000
00000010
00000100
00000010
,
00000100
00001000
00000100
00000000
00010000
00000000
00000000
00000000
,
00001000
00010000
00100000
10000000
,
01100000
00000000
00000000
00000000
;

//---------------dance-double - M.Emirzian----------------
#NOTES:
     dance-double:
     M.Emirzian:
     Hard:
     7:
     0.467,0.415,0.324,0.037,0.157,314.000,35.000,4.000,8.000,0.000,0.000,0.467,0.415,0.324,0.037,0.157,314.000,35.000,4.000,8.000,0.000,0.000:
00000000
00000000
00000000
00000000
,
00000000
00000000
00000000
00000000
,
00010000
00100000
01000000
00000000
10010000
00000000
00000000
00000000
,
00000000
00000000
00100000
00000000
01000000
00000000
00000000
10000000
00000000
00000000
00010000
00000000
00000000
00000000
01000000
00000000
,
00100000
00000000
10000000
00000000
00010000
00000000
01000000
00000000
00000000
00100000
10000000
00000000
00010000
00000000
01000000
00000000
,
00000000
00100000
10000000
00000000
00010000
00000000
01000000
00000000
00001000
00000000
00010000
00000000
00000100
00000000
00001000
00000000
,
00000000
00000001
00000100
00000000
00001000
00000000
00000100
00000000
00000000
00000001
00000100
00000000
00001000
00000000
00000100
00000000
,
00000000
00000001
00000100
00000000
00000010
00000000
00001000
00000000
00000001
00000000
00000010
00000000
00001000
00000000
00010000
00000000
,
00001000
00000000
00010000
00001000
00010100
00000000
00011000
00000000
,
000MM000
00000000
00010000
00000000
00001000
00000000
00000000
01001000
00000000
00000000
01010000
00000000
00000000
00000000
01000000
00000000
,
00100000
10000000
00010000
00000000
01100000
00000000
01000000
10000000
,
00010000
00000000
00100000
00000000
00001000
00000000
00000000
00101000
00000000
00000000
00011000
00000000
00000000
00000000
00001000
00000000
,
00010000
00000000
00000100
00000000
00010000
00000000
00001000
00000000
00000000
00010000
00000100
00000000
00010000
00000000
00001000
00000000
,
00000000
00010000
00000100
00000000
00010000
00000000
00001000
00000000
00000100
00000000
00000001
00000000
00000010
00000000
00000001
00000000
,
00000000
00000100
00000001
00000000
00001000
00000000
00000010
00000000
00000000
00000100
00000001
00000000
00001000
00000000
00000010
00000000
,
00000000
00000100
00000001
00000000
00001000
00000000
00000010
00000000
00010000
00000000
00001000
00000000
01000000
00000000
00010000
00000000
,
10000000
00000000
00100000
01000000
10010000
00000000
01100000
00000000
,
0MM00000
00000000
00100000
00000000
00010000
00000000
00000000
01010000
00000000
00000000
01001000
00000000
00000000
00000000
01000000
00000000
,
00001000
00010000
00000010
00000000
00011000
00000000
00000100
00001000
,
00000010
00000000
00000100
00000000
00000001
00000000
00000000
00000110
00000000
00000000
00001001
00000000
00000000
00000000
00000010
00000000
,
00002200
00000000
00000000
00000000
,
00000000
00000000
00000000
00000000
,
00003300
00000000
00000000
00000000
,
00000000
00000000
00000000
00000000
,
00000010
00000000
00010000
00001000
01000000
00000000
00010000
00001000
,
01000000
00000000
00010000
00001000
01000000
00000000
00010000
01000000
,
00100000
00000000
00010000
01000000
00100000
00000000
10000000
01000000
,
00100000
00000000
10000000
01000000
00100000
00000000
00001000
00000000
,
01000000
00000000
00100000
10000000
01000000
00000000
00000000
00000000
,
00000000
00000000
00000010
00000000
00001000
00000000
00000000
00000100
00000000
00000000
00010000
00000000
00000000
00000000
00001000
00000000
,
00100000
00001000
00010000
00000000
00002020
00000000
00000000
00000000
,
00003030
00000000
00000001
00000100
00000010
00001000
00000001
00000100
,
00000010
00000000
00001000
00000000
00000100
00000000
00010000
00000000
00000000
00001000
00010000
00000000
00000100
00000000
00010000
00000000
,
00000000
00001000
00010000
00000000
00000100
00000000
00010000
00000000
00001000
00000000
01000000
00000000
00010000
00000000
00100000
00000000
,
00000000
01000000
10000000
00000000
00010000
00000000
00100000
00000000
00000000
01000000
10000000
00000000
00010000
00000000
00100000
00000000
,
00000000
01000000
10000000
00000000
00010000
00000000
00100000
00000000
00001000
00000000
00010000
00000000
00000100
00000000
00001000
00000000
,
00000010
00000000
00000100
00000001
00001001
00000000
00001100
00000000
,
000M00M0
00000000
00000010
00000000
00010000
00000000
00000000
00001100
00000000
00000000
00010100
00000000
00000000
00000000
00000100
00000000
,
00010000
00001000
01000000
00000000
00011000
00000000
00001000
01000000
,
00010000
00000000
10000000
00000000
00100000
00000000
00000000
01010000
00000000
00000000
01001000
00000000
00000000
00000000
01000000
00000000
,
00010000
00000000
00100000
00000000
10000000
00000000
00100000
00000000
00000000
00010000
00100000
00000000
10000000
00000000
00100000
00000000
,
00000000
00010000
00100000
00000000
10000000
00000000
00100000
00000000
00010000
00000000
01000000
00000000
00001000
00000000
01000000
00000000
,
00000000
01000000
00001000
00000000
01000000
00000000
00010000
00000000
00000000
01000000
00001000
00000000
01000000
00000000
00010000
00000000
,
00000000
01000000
00001000
00000000
01000000
00000000
00010000
00000000
00100000
00000000
00001000
00000000
00010000
00000000
00000100
00000000
,
00001000
00000000
00000010
00001000
00010010
00000000
00001100
00000000
,
00000M0M
00000000
00000001
00000000
00000100
00000000
00000000
00000110
00000000
00000000
00001001
00000000
00000000
00000000
00000010
00000000
,
00000100
00001000
00000010
00000000
00010010
00000000
00000010
00010000
,
00001000
00000000
01000000
00000000
00001000
00000000
00000000
00011000
00000000
00000000
00101000
00000000
00000000
00000000
00010000
00000000
,
01000000
00100000
10000000
10010000
,
01000000
00000000
00100000
00000000
00010000
00000000
00000000
01000000
00000000
00000000
00001000
00000000
00000000
00000000
01000000
00000000
,
00001000
00010000
00000010
00000000
00001100
00000000
00000001
00000100
,
00000010
00000000
00001000
00000000
00000100
00000000
00000000
00010000
00000000
00000000
00001000
00000000
00000000
00000000
01000000
00000000
,
00010000
00000000
10000000
00100000
00010000
00000000
00100000
00000000
,
10000000
00000000
00010000
00000000
01000000
00000000
00000000
00001000
00000000
00000000
00010000
00000000
00000000
00000000
00000010
00000000
,
00001000
00000010
00000100
00000000
00001001
00000000
00000010
00000001
,
00001000
00000000
00000010
00000000
00010000
00000000
00000000
00001000
00000000
00000000
01000000
00000000
00000000
00000000
00001000
00000000
,
00011000
00000000
00000000
00000000
;

//---------------dance-double - M.Emirzian----------------
#NOTES:
     dance-double:
     M.Emirzian:
     Challenge:
     9:
     0.576,0.596,0.472,0.083,0.222,376.000,51.000,9.000,0.000,0.000,0.000,0.576,0.596,0.472,0.083,0.222,376.000,51.000,9.000,0.000,0.000,0.000:
00000000
00000000
00000000
00000000
,
00000000
00000000
00000000
00000000
,
01000000
00010000
00001000
00000000
00000101
00000000
00000000
00000000
,
00000000
00000000
00000020
00000000
00000001
00000000
00000000
00000100
00000000
00000000
00001000
00000000
00000000
00000000
00010030
00000000
,
00000010
00000000
00001000
00000000
00000100
00000000
00001000
00000001
00001000
00000000
00000100
00000000
00001100
00000000
00000100
00010000
,
00000100
00000000
00010000
00000000
00011000
00000000
00001000
00010000
00001000
00000000
01000000
00000000
01001000
00000000
01000000
00010000
,
01000000
00000000
00100000
00000000
10100000
00000000
00100000
01000000
00100000
00000000
01000000
00000000
01010000
00000000
01000000
00001000
,
01000000
00000000
00010000
00000000
01001000
00000000
00001000
00010000
00001000
00000000
00010000
00000000
00010100
00000000
00001000
00000000
,
00000100
00000000
00000010
00000100
00001001
00000000
00000010
00001000
,
00000100
00000000
00020000
00000000
00100000
00000000
00000000
00001000
00000000
00000000
00000100
00000000
00000000
00000000
00031000
00000000
,
00010000
00001000
01000000
00000000
00110000
00100000
00010000
00100000
,
01000000
00100000
10000000
00100000
01000000
00010000
01000000
00100000
,
00001000
00000000
01000000
00000000
00010000
00000000
01000000
00010000
01000000
00000000
00010000
00000000
01001000
00000000
00001000
00010000
,
00001000
00000000
00010000
00000000
00010100
00000000
00000100
00001000
00000100
00000000
00001000
00000000
00001001
00000000
00000001
00000100
,
00000001
00000000
00000010
00000000
00000110
00000000
00000100
00001000
00000100
00000000
00010000
00000000
00010100
00000000
00001000
00010000
,
00001000
00000000
01000000
00000000
01001000
00000000
00010000
01000000
00010000
00000000
10000000
00000000
11000000
00000000
00000000
00000000
,
10010000
00000000
01000000
00010000
01001000
00000000
00010000
00001000
,
00010000
00000000
00000200
00000000
00000010
00000000
00000000
00001000
00000000
00000000
00010000
00000000
00000000
00000000
01000300
00000000
,
00001000
00010000
00000100
00000000
00011000
00000000
00010000
00000100
,
00001000
00000010
00000100
00000010
00001000
00000010
00000100
00000001
,
00002002
00000000
00000000
00000000
,
00000000
00000000
00000000
00000000
,
00003003
00000000
00000000
00000000
,
00000000
00000000
00000000
00000000
,
00010000
00000000
00000000
00001000
00100000
00000000
00000010
00000000
00010000
00000000
00000000
00010000
00000100
00000000
01000000
00000000
,
00001000
00000000
00000000
00010000
10000000
00000000
00001000
00000000
00010000
00000000
00000000
00001000
00000001
00000000
00010000
00000000
,
00001000
00000000
00000000
00010000
00001000
00000000
01000000
00000000
00010000
00000000
00000000
01000000
00100000
00000000
01000000
00000000
,
00010000
00000000
00000000
10000000
01000000
00000000
00010000
00000000
00001000
00000000
00000000
00010000
00001000
00000000
01000000
00000000
,
00001000
00000000
01000000
00100000
10010000
00000000
00000000
00000000
,
00000000
00000000
02000000
00000000
10000000
00000000
00000000
00100000
00000000
00000000
00010000
00000000
00000000
00000000
03001000
00000000
,
00010000
00000010
00000100
00000000
00001001
00000000
00000100
00000010
,
00000001
00001000
00000001
00000010
00000100
00001000
00000110
00000001
,
00000100
00000000
00000010
00000000
00001000
00000000
00000100
00001000
00000100
00000000
00001000
00000000
00010100
00000000
00001000
00010000
,
00001000
00000000
01000000
00000000
01001000
00000000
00010000
01000000
00010000
00000000
10000000
00000000
11000000
00000000
01000000
00100000
,
01000000
00000000
00100000
00000000
00110000
00000000
00100000
00001000
00100000
00000000
00001000
00000000
00011000
00000000
00000100
00010000
,
00000100
00000000
00010000
00000000
00011000
00000000
01000000
00001000
01000000
00000000
00001000
00000000
00011000
00000000
00000010
00000000
,
00001000
00000000
00000100
00000010
00000100
01000000
00000100
00010000
,
00000000
00000010
00100000
00001000
00000000
10000000
00001000
00010000
,
00000000
00000001
00010000
00001000
00000000
01000000
00100000
01000000
,
00001000
00000100
00000010
00000100
00001000
00100000
01000000
00100000
,
00001000
00000000
00010000
00000000
00000100
00000000
00001000
00000100
00001000
00000000
00000001
00000000
00000011
00000000
00001000
00000001
,
00001000
00000000
00000100
00000000
00001100
00000000
00000100
00010000
00000100
00000000
00010000
00000000
00011000
00000000
01000000
00000100
,
01000000
00000000
00001000
00000000
00011000
00000000
00000010
00100000
00000010
00000000
00010000
00000000
00011000
00000000
00001000
10000000
,
00001000
00000000
10000000
00000000
10010000
00000000
00010000
01000000
00010000
00000000
10000000
00000000
01100000
00000000
00100000
00000000
,
01000000
00000000
00100000
00000000
00001000
00000000
00010000
00001000
00010000
00000000
00000100
00000000
00010100
00000000
00010000
00001000
,
00010000
00000000
00001000
00000000
00011000
00000000
00000100
00010000
00000100
00000000
00001000
00000000
00001001
00000000
00000010
00001000
,
00000010
00000100
00000101
00000010
00000000
00001000
00000100
01000000
,
00000000
00001000
00010000
00100000
00000000
10000000
00010000
01000000
,
10100000
00000000
00010000
01000000
10010000
00000000
00000000
00000000
,
00000000
00000000
00200000
00000000
00000010
00000000
00000000
00001000
00000000
00000000
00010000
00000000
00000000
00000000
01300000
00000000
,
00010000
00001000
01000000
00000000
00011000
00000000
00000010
00000000
,
00010000
00000000
00002000
00000000
00010000
00000000
00000000
00000100
00000000
00000000
00000010
00000000
00000000
00000000
00013000
00000000
,
00001000
00000000
00100000
00000010
00011000
00000000
00000100
00000000
,
00001000
00000000
00020000
00000000
00100000
00000000
00000000
00001000
00000000
00000000
01000000
00000000
00000000
00000000
00130000
00000000
,
10000000
00010000
01000000
00000000
00110000
00000000
00001000
00000000
,
00100000
00000000
01000000
00000000
00110000
00000000
00000000
00100010
00000000
00000000
00011000
00000000
00000000
00000000
00001000
00000000
,
00010100
00000000
00000000
00000000
;

//---------------dance-single - BlueChaos----------------
#NOTES:
     dance-single:
     BlueChaos:
     Challenge:
     9:
     0.599,0.585,0.472,0.268,0.305,373.000,51.000,29.000,139.000,11.000,0.000,0.599,0.585,0.472,0.268,0.305,373.000,51.000,29.000,139.000,11.000,0.000:
0000
0000
0000
0000
,
0000
0000
0000
0000
,
0000
0000
0000
0000
,
0000
0000
0000
0000
,
1001
0100
0010
1020
MM00
1030
0001
1000
,
0100
M000
0100
0000
0010
0000
0001
0100
0000
0001
0100
0000
0010
0000
1000
0000
,
2200
0000
0010
0000
0001
3300
1000
0000
,
0100
0000
0010
0000
0001
0000
0100
0010
0000
0100
0010
0000
1000
0000
0001
0000
,
0202
0000
0010
0000
1000
0303
0001
0000
,
0100
0000
0010
0000
1000
0000
0100
1000
0000
0100
1000
0000
0001
0000
0010
0000
,
0220
0000
0001
0000
1000
0330
0010
0000
,
0100
0000
1000
0000
0010
0000
0100
0001
0000
0010
0100
0000
1000
0000
0001
0000
,
1001
M100
0001
0011
0010
0001
0100
0010
,
0100
0000
01M0
0000
0010
0000
1000
0001
0000
1000
0100
0000
1000
0010
0100
0000
,
0110
010M
1001
M001
0101
0100
0010
1000
,
0100
M000
0100
0000
0010
0000
0001
0100
0000
0001
0010
0000
0100
0000
1000
0000
,
1100
010M
1001
10M0
1010
0010
0100
0001
,
0010
0000
001M
0000
0100
0000
0010
0001
0000
0100
0010
0000
1000
0010
0100
0000
,
0101
0M01
0011
001M
1100
1000
0001
0100
,
0010
0000
0M10
0000
1000
0000
0001
1000
0001
1000
0100
0000
1000
0100
0010
0000
,
M022
0000
M000
0M00
0000
0M00
M000
0000
M000
0M00
0000
0M00
M030
0000
0000
0000
,
10M0
0000
0000
M000
0000
00M0
0200
0000
M000
0000
00M0
M000
0003
0000
0000
000M
,
0000
00M0
0000
M000
000M
0000
00M0
0000
M000
0000
0020
000M
0000
M300
0000
0M00
,
200M
0000
0030
0000
0M02
0000
00M0
0M00
00M0
0000
3003
0000
0000
MMMM
0000
0000
,
1001
0000
MMM0
0000
0001
0000
0100
0000
0010
0000
00M0
1000
0100
0000
0010
0000
,
0001
0000
000M
0100
0010
0000
1000
0000
0100
0000
0M00
0010
0001
0000
0100
0000
,
0010
0000
00M0
0100
0010
0000
1000
0000
0001
0000
000M
0010
0100
0000
0001
0000
,
M100
0000
0000
0010
0100
0000
1000
0000
0M10
0000
0000
0100
1000
0000
0100
0000
,
001M
0000
0000
0100
0001
0000
0010
0000
010M
0000
0000
0010
0001
0000
10M0
0000
,
0002
0000
0000
0000
2000
0000
0000
0000
0010
0000
3003
0000
0000
0000
0000
MMMM
,
0000
0000
1000
0000
0001
0000
0000
0011
0000
0000
0010
0000
0100
0000
2000
0000
,
0001
3001
MMM0
0100
M010
001M
MM0M
1000
,
0001
M000
0001
0000
0010
0000
0100
0000
1100
0000
1000
0000
1001
0000
0001
0000
,
0101
0100
0010
2010
0M00
3001
0010
0100
,
1000
0000
0010
0000
0100
0000
0010
1000
0010
1000
0100
0000
0010
0000
0001
0000
,
0202
0000
0020
0300
1000
0033
1001
0000
,
0001
0000
0010
0000
0100
0000
0010
0100
0010
0100
1000
0000
0010
0000
1000
0000
,
2200
0000
0020
0300
0001
3030
1001
0000
,
1000
0000
0001
0000
0101
0000
0100
0010
0000
1000
0001
0000
0010
0000
0100
0000
,
1100
0000
1000
0M00
0001
0000
M200
0000
0000
0000
03M1
0000
0010
0000
020M
0000
,
00M0
0000
1300
0000
0100
0000
0010
0001
0010
0001
0100
0000
0001
1000
0010
0000
,
1010
1000
0010
0100
0010
1000
0100
0001
,
0100
0010
0100
1000
0010
0100
0001
0010
,
1000
0010
0001
0100
1000
0001
1000
0100
,
0001
0010
1000
0001
0100
1000
0010
0001
,
0010
0100
0010
1000
0100
0001
0100
1000
,
0010
0100
0010
1000
0001
0010
0100
1000
,
0010
0001
0010
1000
0100
1000
0001
0010
,
0001
0100
1000
0100
0001
0010
0100
1000
,
2200
3300
1001
MMMM
0101
MMMM
0110
MMMM
,
1010
0000
1000
0000
0001
0000
1000
0100
0000
0010
0001
0000
0010
0000
0001
0000
,
1001
MMMM
0101
MMMM
0110
MMMM
1010
MMMM
,
1100
0000
0100
0000
0010
0000
0001
0100
0000
0010
1000
0000
0010
0000
0100
0000
,
0101
MMMM
1100
MMMM
0011
MMMM
1010
MMMM
,
0110
0000
0100
0000
0001
0000
0010
0100
0000
0010
0001
0000
1000
0000
0001
0000
,
0101
MMMM
1010
MMMM
1100
MMMM
0011
MMMM
,
1001
0000
1000
0000
0001
0000
0010
0100
0000
0100
0010
0000
0001
0000
1000
0000
,
2002
0000
3003
0000
;

//---------------dance-single - J. Frederick----------------
#NOTES:
     dance-single:
     J. Frederick:
     Beginner:
     1:
     0.073,0.079,0.074,0.000,0.000,47.000,8.000,0.000,0.000,0.000,0.000,0.073,0.079,0.074,0.000,0.000,47.000,8.000,0.000,0.000,0.000,0.000:
0000
0000
0000
0000
,
0000
0000
0000
0000
,
0000
0000
0000
0000
,
0000
0000
0000
0000
,
1000
0000
0000
0000
,
0001
0000
0000
0000
,
0010
0000
0000
0000
,
0100
0000
0000
0000
,
1000
0000
0000
0000
,
0001
0000
0000
0000
,
0100
0000
0000
0000
,
0010
0000
0000
0000
,
1001
0000
0000
0000
,
0010
0000
0000
0000
,
0100
0000
0000
0000
,
1000
0000
0000
0000
,
0001
0000
0000
0000
,
0100
0000
0000
0000
,
0010
0000
0000
0000
,
1000
0000
0000
0000
,
0110
0000
0000
0000
,
0000
0000
0000
0000
,
0000
0000
0000
0000
,
0000
0000
0000
0000
,
0001
0000
0000
0000
,
1000
0000
0000
0000
,
0010
0000
0000
0000
,
0100
0000
0000
0000
,
0001
0000
0000
0000
,
0010
0000
0000
0000
,
1000
0000
0000
0000
,
0100
0000
0000
0000
,
0010
0000
0000
0000
,
1000
0000
0000
0000
,
0001
0000
0000
0000
,
0010
0000
0000
0000
,
0100
0000
0000
0000
,
0001
0000
0000
0000
,
1000
0000
0000
0000
,
0010
0000
0000
0000
,
0100
0000
0000
0000
,
1001
0000
0000
0000
,
0001
0000
0000
0000
,
0100
0000
0000
0000
,
0010
0000
0000
0000
,
1000
0000
0000
0000
,
0100
0000
0000
0000
,
0001
0000
0000
0000
,
0010
0000
0000
0000
,
1001
0000
0000
0000
,
0000
0000
0000
0000
,
0110
0000
0000
0000
,
0000
0000
0000
0000
,
1001
0000
0000
0000
,
0000
0000
0000
0000
,
0110
0000
0000
0000
,
0000
0000
0000
0000
,
1001
0000
0000
0000
;

//---------------dance-single - J. Frederick----------------
#NOTES:
     dance-single:
     J. Frederick:
     Easy:
     3:
     0.201,0.239,0.222,0.037,0.000,124.000,24.000,4.000,0.000,0.000,0.000,0.201,0.239,0.222,0.037,0.000,124.000,24.000,4.000,0.000,0.000,0.000:
0000
0000
0000
0000
,
0000
0000
0000
0000
,
0000
0000
0000
0000
,
0000
0000
0000
0000
,
1001
0000
0100
0000
,
0001
0000
0010
0000
,
0100
0000
1000
0000
,
0100
0000
0010
0000
,
1001
0000
0010
0000
,
0100
0000
0010
0000
,
1000
0000
0100
0000
,
0001
0000
0010
0000
,
0110
0100
0100
0000
,
1100
0100
0100
0000
,
0011
0010
0010
0000
,
0101
0001
0001
0000
,
1010
0010
0010
0000
,
1001
0001
0001
0000
,
0110
0010
0010
0000
,
1100
0100
0100
0100
,
0220
0000
0000
0000
,
0000
0000
0000
0000
,
0000
0000
0000
0000
,
0000
0000
0000
0330
,
1001
0000
0100
0000
,
0010
0000
1000
0000
,
0001
0000
0010
0000
,
0100
0000
1000
0000
,
0100
0000
0010
0000
,
0001
0000
1000
0000
,
1001
0000
1001
0000
,
0100
0000
0010
0000
,
1000
0010
0100
0001
,
0011
0010
0010
0100
,
1000
0000
0100
0000
,
0010
0010
0001
0100
,
0010
0000
1000
0000
,
0010
0010
0100
0010
,
1000
0000
0001
0000
,
0010
0010
0001
0010
,
0001
0000
1000
0000
,
1100
0000
0011
0000
,
0001
1000
0001
0000
,
0110
0000
1001
0000
,
0001
1000
0001
0000
,
1010
0000
0101
0000
,
0010
0100
0010
0000
,
0011
0000
1001
0000
,
0001
1000
0001
1000
,
0001
0000
0100
0000
,
0010
0000
1000
0000
,
0001
0000
0010
0000
,
0100
0000
1000
0000
,
0100
0000
0010
0000
,
0001
0000
0100
0000
,
0010
0000
1000
0000
,
0010
0000
0100
0000
,
0220
0000
0330
0000
;

//---------------dance-single - J. Frederick----------------
#NOTES:
     dance-single:
     J. Frederick:
     Medium:
     4:
     0.323,0.426,0.259,0.037,0.000,212.000,28.000,4.000,0.000,0.000,0.000,0.323,0.426,0.259,0.037,0.000,212.000,28.000,4.000,0.000,0.000,0.000:
0000
0000
0000
0000
,
0000
0000
0000
0000
,
0000
0000
0000
0000
,
0000
0000
0000
0000
,
1000
0001
0010
0100
,
1000
0100
0010
0001
,
0100
0001
1000
0010
,
0100
0010
1000
0001
,
0011
1000
0010
0100
,
0110
1000
0001
0010
,
1001
1000
0010
0100
,
0001
0100
0010
1000
,
1001
0000
0010
0000
0100
1000
0100
0000
,
0010
0001
0100
0010
,
1000
0000
0010
0100
0010
0000
1000
0000
,
0001
0010
0100
1000
,
0100
0000
0010
0001
0100
0000
0001
0000
,
1000
0010
0100
0010
,
1000
0000
0001
0010
0001
0000
1000
0000
,
0010
0100
0001
0010
,
0220
0000
0000
0000
,
0000
0000
0000
0000
,
0000
0000
0000
0000
,
0000
0000
0000
0000
0000
0000
0000
0330
,
1000
0001
0100
0010
,
1000
0010
0100
0000
0001
0000
0010
0000
,
0100
1000
0100
0010
,
0001
0100
0001
1000
,
1001
1001
0100
0010
,
0110
0110
1000
0010
,
0100
0001
0010
0000
0100
0000
1000
0000
,
0100
0010
0001
0100
,
0001
0000
0001
0000
1000
0000
1000
0001
,
1001
0100
0010
1000
,
0010
0100
0001
0010
,
0100
1000
0100
0010
,
0001
0000
0100
0000
0001
0000
1000
0001
,
1000
0010
0100
0010
,
1000
0010
0100
0001
,
0010
0000
0100
1000
0100
0000
0010
0000
,
0001
0100
0010
0100
,
1010
1000
0001
0010
,
0100
1000
0100
0000
0010
0000
0001
0000
,
0100
0010
1000
0001
,
0010
0000
0100
0000
1000
0010
0100
0000
,
0001
0010
0001
1000
,
0010
0000
0100
0000
0001
0010
0001
0000
,
1000
0010
0100
0010
,
1000
0000
0001
0000
0010
0100
1000
0000
,
1100
0011
0101
1001
,
0110
1010
0101
0110
,
1100
0011
0101
1001
,
0110
1010
0101
0011
,
0010
0100
1000
0100
,
0010
0001
0100
0010
,
1000
0001
0100
0010
,
1000
0000
0010
0000
0100
0010
0100
0000
,
0220
0000
0330
0000
;

//---------------dance-single - J. Frederick----------------
#NOTES:
     dance-single:
     J. Frederick:
     Hard:
     7:
     0.365,0.373,0.102,0.056,0.056,259.000,11.000,6.000,0.000,0.000,0.000,0.365,0.373,0.102,0.056,0.056,259.000,11.000,6.000,0.000,0.000,0.000:
0000
0000
0000
0000
,
0000
0000
0000
0000
,
0000
0000
0000
0000
,
0000
0000
0000
0000
,
1000
0000
0010
0100
0010
0000
0000
0000
,
0000
0000
1000
0000
0001
0000
0000
0010
0000
0000
0100
0000
0000
0000
1000
0000
,
0100
0000
0010
0001
0100
0000
0000
0000
,
0000
0000
1000
0000
0010
0000
0000
0100
0000
0000
0010
0000
0000
0000
1000
0000
,
0001
0000
0010
0100
1000
0000
0000
0000
,
0000
0000
0010
0000
0001
0000
0000
0100
0000
0000
0001
0000
0000
0000
1000
0000
,
0010
0100
0010
0000
1001
0000
0000
0000
,
0000
0000
0010
0000
0100
0000
0000
1000
0000
0000
0100
0000
0000
0000
0010
0000
,
0001
0100
0001
0000
1001
0000
0000
0000
,
0000
0000
0100
0000
0010
0000
0000
1000
0000
0000
0010
0000
0000
0000
0100
0000
,
0001
0010
0001
0000
0011
0000
0000
0000
,
0000
0000
0010
0000
0100
0000
0000
1000
0000
0000
0100
0000
0000
0000
0010
0000
,
0001
0100
0001
0000
1001
0000
0000
0000
,
0000
0000
0100
0000
0010
0000
0000
1000
0000
0000
0010
0000
0000
0000
0100
0000
,
0010
0100
0001
0000
0011
0000
0000
0000
,
0010
0000
0100
0000
1000
0000
0000
0100
0000
0000
0010
0000
0000
0000
0001
0000
,
0200
0000
0000
0000
,
0002
0000
0000
0000
0000
0000
0000
0000
0000
0000
0000
0000
0000
0000
0000
0303
,
2000
0000
0000
0002
,
0000
0000
0000
3003
,
0010
0000
0100
0000
1000
0100
0010
0001
,
0100
0000
0100
0000
0001
0000
1000
0000
0000
0000
0001
0000
0000
0010
0000
0000
,
0100
0000
1000
0000
0100
0010
0001
0100
,
0000
0010
0000
1000
0000
0010
0100
0001
,
0010
0000
0001
0000
1000
0010
0100
0010
,
1000
0001
0010
0000
,
0000
0000
0100
0000
1000
0000
0000
0100
0000
0000
0010
0000
0000
0000
0001
0000
,
0100
0001
1000
0000
1001
0000
0100
0000
,
0010
0000
1000
0000
0010
0000
0100
0000
0001
0010
0001
0010
0001
0000
0000
0000
,
1000
0000
0010
0000
0100
0010
1000
0000
,
0001
0000
0010
0000
0100
1000
0100
0000
,
0010
0000
0001
0000
0100
0001
0100
0000
,
0001
0000
1000
0000
0010
0100
0010
0000
,
0000
1000
0100
0010
0000
0001
0100
0010
,
0000
1000
0010
0001
0000
0001
0010
1000
,
0000
1000
0100
0001
0000
0001
0100
1000
,
0000
0100
0010
0001
0100
0001
1000
0001
,
1001
0000
1001
0000
0100
0010
1000
0000
,
0010
0100
0001
0000
0010
0100
1000
0000
,
1000
0100
0010
0000
0010
0001
0100
0000
,
0100
0010
1000
0000
1000
0010
0001
0000
,
0001
0010
1000
0000
1000
0100
0010
0000
,
0001
0100
1000
0000
1000
0100
0001
0000
,
0010
0001
0100
0000
0100
0010
1000
0000
,
1010
0000
0101
0000
0010
0100
0010
0000
,
1000
0010
0100
0001
,
0010
0000
0001
0000
1000
0010
0001
0000
,
0010
1000
0100
0010
,
0001
0000
0010
0000
0001
0100
1000
0000
,
0010
0100
0001
0010
,
0001
0000
1000
0000
0010
0001
0010
0000
,
0100
0010
1000
0100
,
0010
0001
1000
0010
0100
0010
0010
0001
,
0022
0000
0033
0000
;
