#TITLE:Be My Friend;
#SUBTITLE:;
#ARTIST:Lagoona;
#TITLETRANSLIT:;
#SUBTITLETRANSLIT:;
#ARTISTTRANSLIT:;
#GENRE:Bubblegum Pop;
#CREDIT:;
#BANNER:Be my Friend-bn.png;
#BACKGROUND:Be my Friend-bg.png;
#LYRICSPATH:;
#CDTITLE:;
#MUSIC:Be my Friend.ogg;
#OFFSET:-0.034;
#SAMPLESTART:31.900;
#SAMPLELENGTH:11.840;
#SELECTABLE:YES;
#BPMS:0.000=158.000,152.000=79.000,184.000=158.000;
#STOPS:;
#BGCHANGES:0.403=Be My Friend.mpg=1.000=1=0=0=StretchNoLoop==CrossFade==,
99999=-nosongbg-=1.000=0=0=0 // don't automatically add -songbackground-;
#KEYSOUNDS:;

//---------------dance-single - K. Ward----------------
#NOTES:
     dance-single:
     K. Ward:
     Challenge:
     9:
     0.647,0.719,0.356,0.210,0.123,434.000,39.000,23.000,0.000,3.000,0.000,0.647,0.719,0.356,0.210,0.123,434.000,39.000,23.000,0.000,3.000,0.000:
0000
0000
0000
0000
,
0000
0000
0000
0000
,
0000
0000
0000
0000
,
0000
0000
0000
0000
0000
0000
0000
0001
,
1000
0100
0001
0100
1000
0010
0100
0010
,
1000
0200
0000
0310
0000
0100
1000
0001
,
0100
0020
0000
0130
0000
0001
0010
0001
,
1000
0200
0000
1300
0000
0010
0100
0001
,
0010
0100
1000
0010
0100
0001
0010
0001
,
1000
0200
0000
0310
0000
0100
1000
0010
,
0100
2000
0000
3100
0000
0010
0001
0010
,
1000
0200
0000
0310
0000
0100
0010
0001
,
0010
0010
0100
1000
1000
0100
0010
0001
,
1001
0000
0100
0010
1000
0000
0001
0000
,
0010
0100
1000
0010
0100
0001
0010
0000
,
0001
0010
1100
0000
1000
0010
0011
0000
,
0010
0000
0100
0000
0001
0000
0010
0000
0100
0000
1000
0000
0100
0000
1000
0100
,
1000
0010
0101
0010
,
1200
0000
0320
0100
,
0031
1000
0100
0010
0001
0100
0010
1000
,
0200
0000
0000
0000
0010
0000
0000
0000
1300
0000
0000
1000
0001
0000
1000
0000
,
0010
1000
0100
0001
0100
1000
0010
0100
,
0001
1000
0100
0010
0001
0100
0010
1000
,
0001
0100
1000
0100
0001
0010
0100
1000
,
0100
0001
0100
1000
0010
0100
0001
0010
,
0001
1000
0100
0010
0001
1000
0100
0010
,
0001
0100
0010
1000
0100
0010
0100
1000
,
0001
0010
0100
1000
0001
0010
0100
1000
,
0010
0100
0001
0010
0100
0010
0001
1000
,
1001
0000
0010
0100
0001
0000
0010
0000
,
0110
1000
2001
3010
,
0001
0100
1000
0000
1100
0000
0010
0000
,
0100
0001
0010
0000
0102
0000
0013
0000
,
1000
0010
0001
0010
1000
0100
0010
0001
,
0100
0010
1000
0100
0001
0100
1000
0001
,
1000
0010
0100
0001
0010
0100
1000
0010
,
0100
0000
0001
0000
0010
0000
0001
0000
1000
0000
0000
0001
0010
0000
0100
0000
,
0020
0000
0100
0031
,
1001
0100
1010
0100
0011
0100
1100
0010
,
0101
0000
0010
0000
1001
0000
0010
0000
0101
0000
0010
0000
0100
1000
0100
0010
,
0001
1000
1001
0100
0110
0001
1001
0100
,
0110
0000
1000
0000
1001
0000
0100
0000
0010
0100
0010
0000
0001
1000
0001
1000
,
0100
0000
0010
0000
2100
0000
0000
3010
0100
0000
0001
0000
0012
0000
0000
0003
,
0010
0000
0100
0000
2001
0000
0000
3010
0100
0000
0001
0000
0011
0000
0100
0000
,
2002
0000
0010
3003
0220
0000
1000
0330
,
0220
0000
0000
0000
0000
0000
0000
0000
0001
0000
0000
0000
0330
0000
0000
0000
1001
0000
0000
0000
0000
0000
0000
0000
1000
0000
0000
0001
1000
0000
0001
0000
,
0100
1000
0100
0001
0010
0001
0100
1000
,
0100
0001
1000
0001
0100
1000
0100
0010
,
1100
0100
0001
0100
1000
0010
0100
0010
,
1001
0001
0010
0100
1000
0100
0010
0001
,
1010
0010
0100
1000
0100
0010
1000
0100
,
1001
0001
0100
1000
0100
0001
0010
0100
,
0011
0010
0100
1000
1100
0010
0001
0010
,
0110
0000
0100
0000
0001
0000
0010
0000
0110
0000
0010
0000
0100
0000
1000
0001
,
1000
0100
0001
0100
1000
0010
0001
0010
,
0100
0000
0001
0000
0010
0000
0100
0000
1000
0000
0010
0000
0100
0000
0001
0010
,
0001
0000
0010
0000
0100
0000
1000
0100
1000
0000
0010
0000
0100
0000
0001
0010
,
0001
0000
1000
0000
0100
0000
0010
0000
0001
1000
0001
1000
0001
0000
1000
0000
,
1000
0100
1000
0000
0001
0000
0001
0000
0100
0010
0100
0000
0001
0000
0001
0000
,
0100
0010
1000
0100
0001
0100
1000
1000
,
0001
0010
0001
0000
1000
0100
1000
0000
0010
0100
0010
0000
1000
0001
1000
0000
,
0001
0000
1000
0001
1000
0000
0001
0000
1000
0100
0010
0000
0001
0010
0100
0000
,
2002
0000
0000
0000
,
3003
0000
0000
0000
;

//---------------dance-double - M.Emirzian----------------
#NOTES:
     dance-double:
     M.Emirzian:
     Easy:
     4:
     0.249,0.286,0.128,0.073,0.000,169.000,14.000,8.000,0.000,0.000,0.000,0.249,0.286,0.128,0.073,0.000,169.000,14.000,8.000,0.000,0.000,0.000:
00000000
00000000
00000000
00000000
,
00000000
00000000
00000000
00000000
,
00000000
00000000
00000000
00000000
,
00000000
00000000
00000000
00000000
,
20020000
00000000
00000000
30030000
,
00000000
10000000
01000000
10000000
,
01000000
00000000
00100000
00010000
,
00100000
00010000
00000000
01000000
,
00001000
01000000
00001000
00000000
,
00000000
00010000
00000010
00010000
,
00000010
00000000
00001000
00000100
,
00001000
00000100
00000000
00000001
,
00000100
00000010
00001000
00000000
,
00000000
00000001
00001000
00000001
,
00001000
00000000
00010000
00001000
,
00010000
00001000
00000000
10000000
,
00010000
10000000
00010000
00000000
,
00000000
01000000
00100000
01000000
,
00100000
00000000
00001000
00000000
,
00010000
00000100
00010000
00000100
,
00002200
00000000
00000000
00003300
,
00000000
00000010
00000100
00000010
,
00000100
00001000
00000001
00000000
,
00000000
00000100
00000010
00001000
,
00000010
00010000
00001000
00000000
,
00010000
00000100
00010000
00001000
,
00010000
00000000
00001000
01000000
,
00010000
00000000
00110000
00000000
,
10000000
10000000
10000000
00000000
,
00000000
01000000
00100000
00010000
,
00100000
00010000
01000000
00000000
,
00000000
00001000
01000000
00001000
,
00010000
00001000
00010000
00000000
,
00000100
00001000
00000100
00000010
,
00000100
00000000
00001000
00001000
,
00001000
00000000
00000101
00000000
,
00000010
00001000
00000100
00010000
,
00022000
00000000
00000000
00033000
,
00010000
00000000
00001000
00000000
,
01000000
01000000
01000000
00000000
,
00110000
00000000
00001100
00000000
,
00000001
00000001
00000001
00000000
,
00001010
00000000
00110000
00000000
,
00001000
00001000
00001000
00000000
,
01010000
00000000
00110000
00000000
,
10000000
00000000
01000000
00000000
00100000
00010000
00100000
00010000
,
00100000
00000000
01000000
10000000
,
00010000
10000000
00010000
00000000
,
00000000
01000000
00001000
01000000
,
00001000
00010000
00001000
00000000
,
00010000
00000010
00010000
00000010
,
00001000
00000000
00000100
00000010
,
00000001
00000000
00001100
00000000
,
00000010
00000010
00000010
00000000
,
00000000
00000100
00000010
00001000
,
00000010
00010000
00001000
00000000
,
00000000
00000100
00010000
00001000
,
01000000
00001000
01000000
00000000
,
00010000
01000000
00100000
10000000
,
01000000
00000000
00100000
00100000
,
00100000
00000000
00101000
00000000
,
00001000
00001000
00001000
00000000
,
00002200
00000000
00000000
00003300
;

//---------------dance-double - M.Emirzian----------------
#NOTES:
     dance-double:
     M.Emirzian:
     Medium:
     6:
     0.334,0.458,0.073,0.055,0.041,242.000,8.000,6.000,0.000,0.000,0.000,0.334,0.458,0.073,0.055,0.041,242.000,8.000,6.000,0.000,0.000,0.000:
00000000
00000000
00000000
00000000
,
00000000
00000000
00000000
00000000
,
00000000
00000000
00000000
00000000
,
00000000
00000000
00000000
00000000
,
10000000
00010000
00000000
10000000
00000000
00010000
10000000
00000000
,
01000000
00000000
00100000
00000000
00010000
00000000
00100000
00001000
,
00010000
00000000
00000000
00001000
,
00001000
00010000
00010000
00000100
,
00000010
00000000
00000001
00001000
00000100
00000000
00000010
00000000
,
00000000
00000000
00000001
00000000
00000100
00000000
00000010
00001000
,
00000001
00000000
00000100
00001000
,
00010000
01000000
10000000
10000000
,
00010000
10000000
01000000
00000000
00100000
00000000
00000000
00000000
,
00100000
00010000
01000000
00001000
,
00010000
00010000
00000100
00000100
,
00001000
00000000
00000010
00001000
00000100
00000000
00000000
00000000
,
00000010
00000000
00000001
00001000
00000100
00000000
00000010
00000000
,
00000001
00000000
00001100
00000000
,
00010000
00001000
00000100
00001000
,
00010000
00000000
00100000
00000000
10000000
00010000
00100000
00000000
,
20020000
00000000
00000000
30030000
,
00000000
00000000
10000000
01000000
00100000
00000000
00010000
00000000
,
01000000
00001000
00010000
00000000
,
00000000
00100000
00010000
00001000
,
00000100
00000000
00000001
00000000
00001000
00000000
00000100
00000010
,
00000001
00000010
00000010
00000100
,
00000100
00000000
00000000
00010000
,
00001000
01000000
00010000
00100000
,
01000000
00000000
10000000
00010000
01000000
00000000
00100000
00000000
,
00000000
00000000
01000000
10000000
00100000
00000000
10000000
00000000
,
00010000
01000000
00001000
00000000
,
00000000
01000000
00001000
00010000
,
00000100
00000000
00000001
00000000
00000100
00000000
00001000
00000001
,
00000010
00000100
00001000
00000001
,
00000100
00000000
00000000
00000010
,
00001000
00000100
00001000
00000010
,
00010000
00000000
00001000
00100000
00010000
00000000
01000000
00000000
,
02020000
00000000
00000000
03030000
,
01000000
00000000
00000000
00000000
00100000
00000000
00000000
00100000
10000000
00000000
00100000
00000000
01000000
00000000
00000000
10000000
,
01000000
00000000
00000000
00000000
00110000
00000000
00000000
00100000
00001000
00000000
00010000
00000000
01000000
00000000
00000000
00000000
,
00011000
00000000
00000000
00000000
00010010
00000000
00000000
00001000
00000100
00000000
00000010
00000000
00000001
00000000
00000000
00000001
,
00000100
00000000
00000000
00000000
00001010
00000000
00000000
00001000
00000100
00000000
00000001
00000000
00000100
00000000
00000000
00000000
,
00000000
00000100
00001000
00010000
01000000
00000000
10000000
00000000
,
01000000
00000000
00100000
00000000
00010000
00000000
00000000
00010000
00100000
00000000
00001000
00000000
00010000
00000000
00000000
00000000
,
01000000
00010000
00001000
00000000
00000010
00000100
00010000
00000000
,
00001000
00000000
00010000
00000000
00100000
00000000
00010000
00000000
00001000
00000000
00000010
00000000
00000100
00000010
00000100
00000010
,
00000100
00000000
00001000
00000001
00000100
00000000
00000010
00000000
,
00001000
00000100
00010000
00000000
,
00000000
00001000
00000100
00001000
,
00010000
00000000
00100000
00000000
10000000
00000000
00010000
01000000
,
00100000
10000000
00010000
10000000
,
01000000
00000000
00000000
00100000
,
00010000
01000000
00001000
00010000
,
00000100
00000000
00010000
00000100
00001000
00000000
00000010
00000000
,
00000000
00000000
00001000
00000100
00000010
00000000
00001000
00000000
,
00001000
00000001
00000001
00000000
,
00000000
00000010
00000100
00001000
,
00010000
00000000
10000000
00000000
01000000
00000000
00100000
10000000
,
01000000
00100000
00010000
01000000
,
00001000
00000000
00000000
00100000
,
00001000
00000100
00000001
00001000
,
00000100
00000000
00000010
00000100
00001000
00000000
00000001
00000000
,
00000202
00000000
00000000
00000303
;

//---------------dance-double - M.Emirzian----------------
#NOTES:
     dance-double:
     M.Emirzian:
     Hard:
     8:
     0.524,0.544,0.256,0.073,0.114,366.000,28.000,8.000,0.000,0.000,0.000,0.524,0.544,0.256,0.073,0.114,366.000,28.000,8.000,0.000,0.000,0.000:
00000000
00000000
00000000
00000000
,
00000000
00000000
00000000
00000000
,
00000000
00000000
00000000
00000000
,
10000000
00100000
00000000
00100000
00000000
01000000
00000000
01000000
,
00010000
01000000
00000000
10100000
00000000
10000000
01000000
00100000
,
00010000
10000000
00000000
10000000
01000000
00100000
00010000
10000000
,
00100000
01000000
00000000
01000000
00001000
00010000
00000100
00001000
,
00000100
00000010
00000000
00000010
00000000
00000001
00000000
00000001
,
00000100
00000010
00000100
00000001
00000000
00000010
00000100
00001000
,
00000001
00000010
00000000
00000010
00000100
00001000
00000010
00010000
,
00001000
01000000
00000000
01000000
00100000
01000000
00001000
00010000
,
01000000
10000000
00000000
10000000
00000000
10000000
00100000
01000000
,
00100000
10000000
00000000
10000000
00000000
01000000
00100000
00010000
,
00100000
01000000
00000000
01000000
00100000
00001000
00010000
00000100
,
00000010
00000001
00000000
00000001
00001000
00000010
00001000
00000100
,
00000010
00000100
00000000
00000100
00000000
00001000
00000001
00000100
,
00000010
00001000
00000000
00001000
00000000
00001000
00000010
00010000
,
00001000
01000000
00000000
01000000
00000000
01000000
00100000
10000000
,
01000000
00100000
00000000
00100000
00001000
00010000
00000010
00001000
,
00000100
00000010
00000000
00000010
00000000
00000100
00001000
00000010
,
00001000
00000000
00000100
00000000
00000000
00000000
00000100
00000000
00000010
00000000
00000000
00000001
00001000
00000000
00000010
00000000
,
00000100
00000000
00000001
00001000
00000001
00000100
00000001
00001000
,
00000100
00000010
00000100
00001000
00000010
00000000
00011000
00000000
,
00001000
01000000
00001000
00010000
00001000
00100000
00010000
01000000
,
00010000
00000000
00100000
00000000
01100000
00000000
10000000
00010000
,
10000000
00000000
00000000
00000000
01200000
00000000
00000000
00000000
01300000
00000000
00000000
01000000
00010000
00000000
00000000
00000000
,
00100000
00000000
00000000
00000000
00102000
00000000
00000000
00000000
00013000
00000000
00000000
00010000
00001000
00000000
00000000
00000000
,
00000010
00000000
00000000
00000010
00000001
00000000
00000000
00000000
00001000
00000000
00000000
00001000
00000010
00000000
00000000
00000000
,
00000100
00000001
00000010
00000100
00001000
00000001
00000100
00000000
,
00000110
00000000
00001000
00000010
00000100
00000010
00001000
00000010
,
00010000
00001000
00100000
00010000
10000000
00000000
01100000
00000000
,
01000000
00010000
01000000
00100000
10000000
00100000
01000000
00010000
,
10000000
00000000
01000000
00000000
00110000
00000000
00001000
00100000
,
00001000
00000000
00000000
00000000
00020010
00000000
00000000
00000000
00030010
00000000
00000000
00000010
00010000
00000000
00000000
00000000
,
00000100
00000000
00000000
00000000
00002100
00000000
00000000
00000000
00003010
00000000
00000000
00000010
00000100
00000000
00000000
00000000
,
00000001
00000000
00000000
00000001
00000100
00000000
00000000
00000000
00000010
00000000
00000000
00000010
00001000
00000000
00000000
00000000
,
00001000
00000000
00000010
00000000
00010000
00000000
00001000
00000000
01000000
00000000
00000000
01000000
00010000
00000000
20000000
00000000
,
00020000
00000000
00000000
30030000
,
10000000
00000000
00000000
00000000
01000000
00000000
00000000
01000000
00100000
00000000
00010000
00000000
10000000
00000000
00100000
00000000
,
01010000
00110000
00001100
00001010
,
00000001
00001000
00000001
00000000
00000100
00000000
00000000
00000100
00000010
00000000
00001000
00000000
00000100
00000000
00000000
00000000
,
00001010
00001100
01010000
00110000
,
10000000
00100000
01000000
00001000
00010000
00000010
00000100
00000001
,
00001000
00000011
00001010
00011000
,
00110000
00000000
10000000
00000000
01000000
00000000
00000000
01000000
00100000
00000000
00010000
00000000
10000000
00000000
00000000
00000000
,
00101000
00000000
00010000
00000000
00001000
00000000
00000000
00000000
00010010
00000000
00001000
00000000
00000100
00000010
00000001
00001000
,
00000100
00000000
00001000
00000010
00001000
00000001
00000100
00000010
,
00001000
00000001
00000100
00000010
00001000
00000000
00000100
00000000
,
00010000
00001000
01000000
00001000
00010000
00001000
00100000
00010000
,
01000000
00000000
00100000
00000000
10100000
00000000
00010000
01000000
,
00010000
00000000
00000000
00000000
00100000
00000000
00000000
00000000
01000000
00000000
00000000
01000000
10000000
00000000
00000000
00000000
,
00010000
00000000
00000000
00000000
01010000
00000000
00000000
00000000
00001000
00000000
00000000
00001000
00010000
00000000
00000000
00000000
,
00000010
00000000
00000000
00000010
00010000
00000000
00000000
00000000
00000100
00000000
00000000
00000100
00001000
00000000
00000000
00000000
,
00000010
00000100
00000001
00000100
00000010
00001000
00000010
00000000
,
00000001
00000000
00000010
00001000
00000010
00000100
00000001
00001000
,
00000100
00000010
00000100
00001000
00000010
00000000
00010000
00000000
,
00000100
00001000
00000100
00010000
00001000
00010000
00000010
00010000
,
00001000
00000000
01000000
00000000
01100000
00000000
10000000
00100000
,
10000000
00000000
00000000
00000000
01000000
00000000
00000000
00000000
00100000
00000000
00000000
00100000
00010000
00000000
00000000
00000000
,
01000000
00000000
00000000
00000000
01010000
00000000
00000000
00000000
01000000
00000000
00000000
01000000
00001000
00000000
00000000
00000000
,
00100000
00000000
00000000
00100000
00010000
00000000
00000000
00000000
10000000
00000000
00000000
10000000
01000000
00000000
00000000
00000000
,
00100000
00000000
00010000
00000000
01000000
00000000
00001000
00000000
00010000
00000000
00000000
00000100
00001000
00000000
00000020
00000000
,
00002000
00000000
00000000
00003030
;

//---------------dance-double - M.Emirzian----------------
#NOTES:
     dance-double:
     M.Emirzian:
     Challenge:
     9:
     0.610,0.773,0.402,0.046,0.173,419.000,44.000,5.000,1.000,0.000,0.000,0.610,0.773,0.402,0.046,0.173,419.000,44.000,5.000,1.000,0.000,0.000:
00000000
00000000
00000000
00000000
,
00000000
00000000
00000000
00000000
,
00000000
00000000
00000000
00000000
,
00000001
00000100
00000000
00000010
00000000
00010000
00000000
00001000
,
00010000
00000010
000M0000
00010000
00000000
00001000
00010000
00001000
,
01000000
00010000
01000000
00100000
10000000
01000000
00100000
00010000
,
00100000
00001000
00100000
00010000
01000000
00001000
00010000
00000100
,
00001000
00000100
00000000
00010100
00000000
00010000
00000010
00001000
,
00000100
00000010
00000000
00000011
00000000
00000001
00000100
00000010
,
00001000
00000010
00000100
00001000
00000100
00000010
00001000
00000010
,
00000100
00000010
00000001
00000010
00001000
00000100
00010000
00001000
,
00010000
00000100
00000000
01001000
00000000
01000000
00010000
00100000
,
10000000
01000000
00000000
00110000
00000000
00100000
00010000
10000000
,
01000000
00100000
00001000
00010000
00001000
01000000
00100000
10000000
,
01000000
00100000
00010000
00001000
00000100
00001000
00000001
00001000
,
00000100
00000001
00000000
00000110
00000000
00000001
00000100
00000010
,
00001000
00000100
00000000
00010100
00000000
00001000
00010000
00000010
,
00010000
00000100
00001000
00000100
00010000
00000010
00010000
00001000
,
01000000
00001000
00100000
00010000
10000000
01000000
00100000
00001000
,
00010000
00000100
00000000
01001000
00000000
00001000
00010000
00000010
,
00001000
00000000
00000100
00000000
00000000
00000000
00000010
00000000
00000001
00000000
00000000
00001000
00000001
00000000
00001000
00000000
,
00000100
00000010
00000001
00001000
00000100
00010000
00000100
00001000
,
00000100
00010000
00000100
00001000
00000010
00010000
00001000
01000000
,
00001000
00010000
00001000
00100000
00001000
00010000
00100000
01000000
,
00010000
00000000
11000000
00000000
10100000
00000000
01000000
00010000
,
10000000
00000000
00100000
00000000
01000000
00000000
00001000
00000000
00010000
00000000
00000010
00000000
00001000
00000000
00000000
00001000
,
00000100
00000010
00000001
00000100
00001000
00000100
00000001
00000000
,
00000110
00000000
00000000
00001000
00000100
00000000
00000000
00000000
00010100
00000000
00000000
00010000
00001000
00000000
00000000
00000000
,
01001000
00000000
00000000
01000000
00010000
00000000
00000000
01000000
00100000
00000000
00000000
01000000
10000000
00000000
01000000
00000000
,
00010000
10000000
01000000
00100000
01000000
10000000
00100000
01000000
,
00010000
00001000
00000010
00001000
00000001
00001000
00000100
00000010
,
00000001
00000100
00000010
00001000
00000010
00000100
00000001
00000010
,
00000001
00000000
00001100
00000000
00001010
00000000
00010000
00000010
,
00010000
00000000
00001000
00000000
00010000
00000000
00000100
00000000
00010000
00000000
00001000
00000000
01000000
00000000
00000000
01000000
,
00010000
00100000
00010000
10000000
01000000
00100000
00010000
00000000
,
01010000
00000000
00000000
01000000
00100000
00000000
00000000
00000000
01001000
00000000
00000000
01000000
00010000
00000000
00000000
00000000
,
00010100
00000000
00000000
00000100
00001000
00000000
00000000
00000100
00000010
00000000
00000000
00000100
00001000
00000000
00000010
00000000
,
00002002
00000000
00000000
00003003
,
00000110
00000000
00000000
00000000
00001001
00000000
00000000
00000001
00001000
00000000
00010000
00000000
10000000
00000000
01000000
00000000
,
00110000
00000011
01010000
00000101
,
00000010
00000000
00010000
00000000
00100000
00000000
00000000
00100000
00010000
00000000
00000100
00000000
01000000
00000000
00100000
00000000
,
10010000
00000110
10010000
00000120
,
00001030
00000001
00000010
00000100
00010000
10000000
01000000
00010000
,
11000000
00001100
00110000
00000011
,
00001000
00000010
00001000
00000000
00000100
00010000
00000100
00000000
00010000
00001000
00010000
00100000
10000000
01000000
00100000
00000000
,
01000000
00000000
10000000
00000000
00100000
00000000
00010000
00000000
00001000
00000000
00000010
00000000
00000001
00000000
00000000
00000000
00000011
00000000
00000000
00000000
00001000
00000000
00000000
00000000
00000010
00000000
00000000
00000100
00000001
00000000
00000100
00000000
,
00000010
00001000
00000010
00010000
00000100
00001000
00000100
00010000
,
00000010
00010000
00001000
01000000
00001000
00010000
00001000
00100000
,
00010000
00000000
01010000
00000000
00110000
00000000
01000000
10000000
,
00100000
00000000
10000000
00000000
01000000
00000000
00100000
00000000
00001000
00000000
00010000
00000000
00000100
00000000
00000000
00000100
,
00010000
00001000
00010000
00000010
00001000
00000100
00000010
00000000
,
00001001
00000000
00000000
00000010
00000100
00000000
00000000
00000000
00010010
00000000
00000000
00001000
00010000
00000000
00000000
00000000
,
01001000
00000000
00000000
00010000
01000000
00000000
00000000
00010000
00100000
00000000
00000000
00010000
10000000
00000000
01000000
00000000
,
00100000
00001000
00010000
00001000
01000000
00100000
10000000
00010000
,
00100000
01000000
10000000
01000000
00100000
00010000
00001000
00000100
,
00001000
00000001
00001000
00000010
00000100
00000001
00001000
00000100
,
00000010
00000000
00001100
00000000
00001010
00000000
00000001
00000100
,
00000010
00000000
00010000
00000000
00001000
00000000
01000000
00000000
00000100
00000000
00010000
00000000
00001000
00000000
00000000
00001000
,
00100000
00001000
00010000
00100000
10000000
00010000
01000000
00000000
,
10010000
00000000
00000000
10000000
01000000
00000000
00000000
00000000
00110000
00000000
00000000
00001000
00010000
00000000
00000000
00000000
,
00001100
00000000
00000000
00000010
00010000
00000000
00000000
00000010
00001000
00000000
00000000
00000010
00000001
00000000
00000010
00000000
,
00000100
00000000
00000001
00000000
00000100
00000000
00001000
00000000
00010000
00000000
00000000
00010000
00001000
00000000
01000000
00000000
,
02002000
00000000
00000000
03003000
;

//---------------dance-single - K. Ward----------------
#NOTES:
     dance-single:
     K. Ward:
     Hard:
     8:
     0.452,0.517,0.073,0.192,0.041,318.000,8.000,21.000,0.000,0.000,0.000,0.452,0.517,0.073,0.192,0.041,318.000,8.000,21.000,0.000,0.000,0.000:
0000
0000
0000
0000
,
0000
0000
0000
0000
,
0000
0000
0000
0000
,
0000
0000
0000
0000
0000
0000
0000
1000
,
0001
1000
0001
0001
0010
0100
0010
0001
,
0100
0000
0010
0100
1000
0000
0100
0000
,
2000
0000
0000
3000
0000
0000
0100
0010
,
2000
0100
3002
0100
,
0013
0000
0100
0001
0010
0100
1000
0100
,
0010
0000
0100
1000
0100
0000
0100
0000
,
0001
0001
1000
1000
,
0100
0010
0001
0000
0100
0010
1000
0000
,
0001
0010
0100
1000
0010
0100
0010
0100
,
0001
0000
1000
1000
1000
0000
0100
0000
,
0010
0001
0100
0010
,
0200
0000
0000
0010
0000
0010
0300
0000
,
2000
0000
0000
0100
0000
0100
3000
0000
,
0001
0100
1000
0100
,
0020
0000
2030
0000
,
0200
0000
0000
0000
,
3300
0000
0000
0000
0000
0000
0000
0000
0000
0000
0000
0001
1000
0000
0001
0000
,
1000
0100
0010
0001
1000
0010
0100
0001
,
0010
0100
1000
0010
0100
0001
0010
0000
,
1000
0100
0010
0100
0010
0100
0010
0000
,
0001
1000
0001
1000
0100
1000
0100
0000
,
0001
0010
0100
1000
0010
0100
0001
0010
,
0100
1000
0010
0100
0001
0010
0001
0000
,
0200
0000
0320
2000
,
0030
0002
0000
3003
,
1100
0000
0100
0010
0001
0000
0010
0000
,
0001
0100
1001
0000
,
0100
0010
0100
0000
0001
1000
0100
0000
,
0010
0100
1000
0100
1000
0000
0001
0000
,
0100
1000
0100
0001
,
0010
0000
0001
0000
0100
0010
1000
0000
,
1000
0010
0100
0001
1000
0010
0100
0001
,
0010
0000
0100
0000
0010
0000
0100
0000
1000
0000
0000
1000
0100
0000
0010
0000
,
0002
0000
0003
0000
,
1000
0000
0000
0000
1001
0000
0000
0100
0010
0000
0100
0000
0010
0000
0000
0000
,
0001
0000
0000
0000
1100
0000
0000
0010
0100
0000
0001
0000
0010
0000
0100
0000
,
2000
3001
0002
1003
,
2000
0000
0000
0000
3001
0000
0000
0000
0100
0010
0100
0000
0001
0010
0100
0000
,
1000
0100
1100
0000
0100
0010
0110
0000
,
0001
0000
1000
0000
1001
0000
0000
0000
0010
0100
0001
0000
0001
0010
0100
0000
,
2000
3100
0002
0013
,
0200
0000
1000
0000
0310
0000
1000
0001
,
0001
0010
0100
1000
0001
0100
0010
1000
,
0100
0010
0001
0100
0010
1000
0100
0000
,
0001
0010
0001
0010
0001
0010
0100
0000
,
1000
0001
1000
0001
0100
0010
0100
0000
,
1000
0100
0010
0001
0010
0100
1000
0100
,
0010
0001
0010
0100
1000
0100
1000
0000
,
0010
0100
0001
0010
,
0100
1000
0100
0000
0010
0001
0010
0000
,
1001
0000
0100
0010
1000
0000
0100
0000
,
1000
0100
0100
0000
,
0010
0100
0010
0000
1000
0001
0010
0000
,
0100
0010
0100
0010
0001
0000
1000
0000
,
0010
0001
0010
1000
,
0200
0010
1000
1300
,
0001
0100
0010
1000
0001
0100
0010
1000
,
0100
0000
0010
0000
0100
0000
0010
0000
0001
0000
0000
0001
0010
0000
0100
0000
,
2000
0000
0000
0000
,
3000
0000
0000
0000
;

//---------------dance-single - K. Ward----------------
#NOTES:
     dance-single:
     K. Ward:
     Easy:
     3:
     0.209,0.226,0.000,0.183,0.000,140.000,0.000,20.000,0.000,0.000,0.000,0.209,0.226,0.000,0.183,0.000,140.000,0.000,20.000,0.000,0.000,0.000:
0000
0000
0000
0000
,
0000
0000
0000
0000
,
0000
0000
0000
0000
,
0000
0000
0000
0000
,
0001
1000
0001
1000
,
0001
0000
0100
0000
,
0010
0000
0100
0000
,
0001
0000
1000
0000
,
0002
0000
0003
0000
,
1000
0000
0100
0000
,
0010
0000
0100
0000
,
1000
0000
0010
0000
,
0100
0100
0010
0000
,
0002
0000
0013
0000
,
2000
0000
3100
0000
,
0002
0000
1003
0000
,
2000
0000
3001
0000
,
0100
0100
0100
0000
,
0010
0000
0001
0000
,
0020
0000
0000
0000
,
0030
0000
0000
0000
,
0001
0001
1000
1000
,
0001
0001
0010
0000
,
1000
1000
0001
0001
,
1000
1000
0100
0000
,
0010
0010
0100
0100
,
0000
0000
0000
1000
,
2000
0000
0001
0002
,
0000
3003
0000
0000
,
0001
0001
0100
0100
,
0001
0001
0010
0000
,
1000
1000
0100
0100
,
1000
0000
1000
0000
,
0010
0000
0100
0000
,
0010
0000
0000
0001
,
0002
0000
2003
0000
,
3200
0000
0320
0000
,
0130
0000
0000
0000
,
1000
0000
0100
0000
,
0001
0000
0100
0000
,
1000
0000
0001
0000
,
1000
0000
0200
0300
,
0001
1000
1000
0000
,
1000
0001
0001
0000
,
0010
0100
0010
0100
,
2000
0000
3000
0000
,
0001
0000
0100
0100
,
0010
0010
0100
0000
,
0001
0001
1000
1000
,
0100
0000
0100
0000
,
1000
0001
1000
1000
,
0000
0000
0000
0100
,
0200
0000
0010
0020
,
0000
0330
0000
0000
,
0001
0001
1000
1000
,
0010
0010
0010
0000
,
0000
0001
0010
0100
,
1000
0000
1000
0000
,
0010
0100
0010
0100
,
0010
0000
0000
1000
,
2000
0000
3020
0000
,
0230
0000
0320
0000
,
0130
0000
0000
0000
;

//---------------dance-single - J. Frederick----------------
#NOTES:
     dance-single:
     J. Frederick:
     Beginner:
     1:
     0.089,0.113,0.046,0.000,0.000,63.000,5.000,0.000,0.000,0.000,0.000,0.089,0.113,0.046,0.000,0.000,63.000,5.000,0.000,0.000,0.000,0.000:
0000
0000
0000
0000
,
0000
0000
0000
0000
,
0000
0000
0000
0000
,
1000
0000
0000
0000
,
0001
0000
0000
0000
,
0010
0000
0000
0000
,
0100
0000
0000
0000
,
1000
0000
0000
0000
,
0010
0000
0000
0000
,
0001
0000
0000
0000
,
0100
0000
0000
0000
,
0010
0000
0000
0000
,
1000
0000
0000
0000
,
0001
0000
0000
0000
,
0010
0000
0000
0000
,
0100
0000
0000
0000
,
1000
0000
0000
0000
,
0001
0000
0000
0000
,
0100
0000
0000
0000
,
0110
0000
0000
0000
,
0000
0000
0000
0000
,
1000
0000
0000
0000
,
0001
0000
0000
0000
,
0010
0000
0000
0000
,
0100
0000
0000
0000
,
1000
0000
0000
0000
,
0001
0000
0000
0000
,
0100
0000
0000
0000
,
0010
0000
0000
0000
,
1001
0000
0000
0000
,
1000
0000
0000
0000
,
0010
0000
0000
0000
,
0100
0000
0000
0000
,
0001
0000
0000
0000
,
1000
0000
0000
0000
,
0100
0000
0000
0000
,
0010
0000
0000
0000
,
0110
0000
0000
0000
,
0100
0000
0001
0000
,
0100
0000
1000
0000
,
0010
0000
0100
0000
,
0001
0000
1000
0000
,
0100
0000
0000
0000
,
0010
0000
0000
0000
,
1000
0000
0000
0000
,
0001
0000
0000
0000
,
0110
0000
0000
0000
,
0100
0000
0000
0000
,
1000
0000
0000
0000
,
0001
0000
0000
0000
,
0010
0000
0000
0000
,
0100
0000
0000
0000
,
1000
0000
0000
0000
,
0001
0000
0000
0000
,
0110
0000
0000
0000
,
0100
0000
0000
0000
,
0010
0000
0000
0000
,
1000
0000
0000
0000
,
0001
0000
0000
0000
,
0100
0000
0000
0000
,
0010
0000
0000
0000
,
1000
0000
0000
0000
,
0100
0000
0000
0000
;

//---------------dance-single - J. Frederick----------------
#NOTES:
     dance-single:
     J. Frederick:
     Medium:
     6:
     0.366,0.489,0.164,0.246,0.000,236.000,18.000,27.000,0.000,0.000,0.000,0.366,0.489,0.164,0.246,0.000,236.000,18.000,27.000,0.000,0.000,0.000:
0000
0000
0000
0000
,
0000
0000
0000
0000
,
0000
0000
0000
0000
,
1000
0001
0000
0100
0000
0010
0000
0000
,
1000
0010
0000
0100
0000
0001
0000
0000
,
0010
0100
1000
0100
,
0010
0001
0100
0010
,
1000
0010
0100
0001
,
0010
0000
0100
0000
1000
0000
0100
0010
,
0100
1000
0010
0100
,
0001
0010
0001
1000
,
2002
0000
0000
3003
,
0220
0000
0000
0330
,
0110
0000
1000
0010
0100
0000
0001
0000
,
0010
0001
1000
0100
,
0010
0001
0100
0001
,
1000
0010
0100
0010
,
1000
0000
0010
0100
0001
0000
0010
0000
,
0100
1000
0100
0010
,
0220
0000
0000
0000
,
0000
0000
0000
0330
,
1001
0000
0100
0010
0100
0000
0010
0000
,
1000
0010
0200
0300
,
0001
0010
0100
1000
,
0100
0100
0010
0010
,
0001
0100
0001
0000
1000
0000
0010
0000
,
0100
0010
1000
0001
,
2000
3000
0002
0003
,
0020
0030
0200
0300
,
1100
0000
0010
0001
0100
0000
0001
0000
,
1000
0000
0010
0100
0001
0000
0010
0000
,
0100
1000
0100
0010
,
0001
0100
0001
0000
1000
0000
0010
0000
,
0100
0010
0100
0000
0010
0000
1000
0000
,
0010
0100
0001
0010
,
0200
0300
2000
3000
,
0020
0030
0200
0300
,
0001
0010
0100
1000
,
1001
0100
0010
0000
1001
0010
0100
0000
,
1100
0010
0001
0000
0101
0010
1000
0000
,
1100
0010
0100
0000
0110
0001
0100
0000
,
1001
0100
0010
0000
1010
0100
0101
0000
,
0010
0100
1000
0000
1000
0100
0010
0000
,
0001
0100
0010
0000
0010
0100
0001
0000
,
1000
0001
0010
0100
1000
0000
0010
0100
,
0220
0000
0000
0000
0000
0000
0000
0330
,
1001
0000
0010
0100
1000
0000
0100
0000
,
0010
0001
0200
0300
,
0010
0000
1000
0010
0100
0000
0001
0000
,
0010
0100
1000
0100
,
0010
0001
0100
0000
0001
0000
0010
0000
,
0001
1000
0010
0100
,
0020
0030
2000
3000
,
0002
0003
0020
0030
,
0110
0000
1000
0100
0010
0000
0001
0000
,
0100
0000
0010
1000
0010
0000
0100
0000
,
0001
0010
0100
1000
,
0100
0010
0001
0000
0100
0000
0001
0000
,
1000
0010
0100
0000
0010
0000
1000
0000
,
0001
0010
0100
1000
,
0200
0300
0020
0030
,
0002
0003
0200
0300
,
0020
0000
0100
0000
,
1030
0000
0000
0000
;
