#TITLE:Bagpipe;
#SUBTITLE:;
#ARTIST:A-Moe;
#TITLETRANSLIT:;
#SUBTITLETRANSLIT:;
#ARTISTTRANSLIT:;
#GENRE:Ethnic;
#CREDIT:;
#BANNER:Bagpipe-bn.png;
#BACKGROUND:Bagpipe-bg.png;
#LYRICSPATH:;
#CDTITLE:;
#MUSIC:Bagpipe.ogg;
#OFFSET:-0.030;
#SAMPLESTART:56.580;
#SAMPLELENGTH:11.840;
#SELECTABLE:YES;
#BPMS:0.000=140.000;
#STOPS:;
#BGCHANGES:0.000=Bagpipe.mpg=1.000=0=0=1===CrossFade==,
#KEYSOUNDS:;

//---------------dance-double - M. Emirzian----------------
#NOTES:
     dance-double:
     M. Emirzian:
     Easy:
     3:
     0.193,0.201,0.078,0.035,0.000,142.000,9.000,4.000,0.000,0.000,0.000,0.193,0.201,0.078,0.035,0.000,142.000,9.000,4.000,0.000,0.000,0.000:
00000000
00000000
00000000
00000000
,
00000000
00000000
00000000
00000000
,
00000000
00000000
00000000
00000000
,
00000000
00000000
00000000
00000000
,
00100000
00000000
00000000
00000000
,
00000010
00000000
00000000
00000000
,
00010000
00000000
00000000
00000000
,
00001000
00000000
00000000
00000000
,
00022000
00000000
00000000
00033000
,
00010000
00000000
00000100
00000000
,
00000010
00000010
00000000
00000000
,
00000001
00000000
00001000
00000000
,
00000100
00000100
00000000
00000000
,
00010000
00000000
00001000
00000000
,
01000000
01000000
00000000
00000000
,
00010000
00000000
10000000
00000000
,
01000000
00000000
00100000
00000000
,
00010000
00010000
00000000
01000000
,
01000000
00000000
00001000
00010000
,
00000000
00000100
00000100
00000000
,
00000010
00000010
00000000
00000001
,
00001000
00000000
00000010
00000010
,
00000000
00010000
00010000
00000000
,
00001000
01000000
00000000
00010000
,
00010000
00000000
10010000
00000000
,
10000000
01000000
00100000
00000000
,
00010000
00010000
00010000
00000000
,
00100000
00001000
00010000
00000000
,
00000100
00000000
00010100
00000000
,
00000010
00001000
00000100
00000000
,
00000001
00000001
00000001
00000000
,
00000010
00010000
00001000
00000000
,
01000000
00000000
01001000
00000000
,
00010000
00000000
00100000
00000000
,
10000000
00000000
01000000
00000000
,
00010000
00000000
00001000
00000000
,
00000100
00000000
00000001
00000000
,
00000010
00000000
00001000
00000000
,
00000100
00000000
00000001
00000000
,
00010000
00000000
00001000
00000000
,
00010000
00000000
01000000
00000000
,
10000000
00000000
00010000
00000000
,
00001000
00000000
00000001
00000000
,
00000010
00000000
00000100
00000000
,
00010000
00000000
01000000
00000000
,
10000000
00000000
00010000
00000000
,
00001000
00000000
00000100
00000000
,
00000010
00000000
00000001
00000000
,
00000110
00000000
00000000
00001000
,
00000220
00000000
00000000
00000330
,
00000010
00001000
00000100
00000000
,
00010000
00010000
00010000
00000000
,
00100000
00010000
00001000
00000000
,
01000000
00000000
10010000
00000000
,
10000000
01000000
00100000
00000000
,
00010000
00010000
00010000
00000000
,
00001000
00010000
00000100
00000000
,
00000010
00000000
00001100
00000000
,
00000010
00001000
00000100
00000000
,
00010000
00010000
00010000
00000000
,
00100000
01000000
10000000
00000000
,
00010000
00000000
00011000
00000000
,
00010000
00000100
00001000
00000000
,
00000010
00000010
00000010
00000000
,
00010000
00001000
01000000
00000000
,
00100000
00000000
10000000
00000000
,
01000000
00000000
00000000
00000000
;

//---------------dance-double - M. Emirzian----------------
#NOTES:
     dance-double:
     M. Emirzian:
     Medium:
     6:
     0.380,0.345,0.070,0.035,0.000,294.000,8.000,4.000,0.000,0.000,0.000,0.380,0.345,0.070,0.035,0.000,294.000,8.000,4.000,0.000,0.000,0.000:
00000000
00000000
00000000
00000000
,
00000000
00000000
00000000
00000000
,
00000000
00000000
00000000
00000000
,
00000000
00000000
00000000
00000000
,
00001000
00000000
00000000
00010000
,
01000000
00000000
00000000
10000000
,
00010000
00000000
01000000
00000000
,
00100000
00000000
10000000
01000000
,
00220000
00000000
00000000
00330000
,
00000000
00100000
00010000
00000000
01000000
00001000
00000000
00010000
,
00000100
00000000
00001000
00000010
00000000
00000100
00000000
00000100
,
00000000
00000100
00000010
00000000
00000001
00000100
00000000
00000010
,
00001000
00000000
00000100
00010000
00000000
00001000
00000000
00001000
,
00000000
00001000
00010000
00000000
00100000
01000000
00000000
00010000
,
10000000
00000000
01000000
00100000
00000000
00010000
00000000
00010000
,
00000000
00010000
01000000
00000000
00001000
00010000
00000000
00000010
,
00001000
00000000
00000000
00000100
00000000
00000100
00000000
00000100
,
00000000
00000010
00000001
00000010
00000001
00001000
00000000
00000010
,
00001000
00000010
00010000
00001000
00000000
00001000
00000000
00001000
,
00000000
00010000
00001000
01000000
00010000
01000000
00000000
00100000
,
01000000
00010000
01000000
00100000
00000000
00100000
00000000
00100000
,
00000000
10000000
01000000
10000000
01000000
00100000
00000000
00010000
,
00100000
00001000
00100000
00001000
00000000
00010000
00000000
00010000
,
00000000
00010000
00000100
00001000
00000100
00010000
00000000
00001000
,
00010000
00000100
00001000
00000010
00000000
00000010
00000000
00000010
,
00001000
00000000
00000100
00000000
00010000
00000100
00001000
00000000
,
00000010
00000000
00001000
00000000
00000100
00010000
00001000
00000000
,
01000000
00000000
00001000
00000000
00010000
00000010
00001000
00000000
,
00000100
00000000
00010000
00000000
00001000
00100000
00010000
00000000
,
00100000
00000000
00010000
00000000
01000000
00001000
00010000
00000000
,
00001000
00000000
00010000
00000000
00001000
00010000
00000010
00000000
,
00001000
00000000
00000010
00000000
00010000
00001000
00100000
00000000
,
00001000
00000000
00010000
00000000
00001000
00010000
00000010
00000000
,
00010000
00000000
00001000
00000000
01000000
00010000
01000000
00000000
,
00100000
10000000
00000000
10000000
01000000
00000000
00100000
00000000
,
00010000
10000000
01000000
00000000
00100000
00010000
01000000
00000000
,
00001000
00010000
00010100
00000000
,
00001000
00000000
00000100
00000000
00000010
00000100
00001000
00000000
,
00000100
00000010
00000000
00000010
00000001
00000000
00000100
00000000
,
00000010
00001000
00000100
00000000
00000010
00000100
00001000
00000000
,
00000100
00010000
00010100
00000000
,
00010000
00000000
00001000
00000000
01000000
00001000
01000000
00000000
,
00010000
01000000
00000000
01000000
10000000
00000000
01000000
00000000
,
00010000
10000000
01000000
00000000
00100000
01000000
10000000
00000000
,
01000000
00010000
00011000
00000000
,
00010000
00000000
00000100
00000000
00001000
00000010
00000100
00000000
,
00000010
00001000
00000000
00001000
00000100
00000000
00000010
00000000
,
00000001
00000100
00001000
00000000
00010000
01000000
10000000
00000000
,
10100000
00000000
00000000
00010000
,
02002000
00000000
00000000
03003000
,
01000000
00000000
00001000
00000000
00010000
00000010
00001000
00000000
,
00000100
00000000
00001000
00000000
00000100
00010000
00001000
00000000
,
00100000
00000000
00010000
00000000
00100000
00001000
00010000
00000000
,
00000010
00000000
00001000
00000000
00000010
00010000
00001000
00000000
,
01000000
00000000
00010000
00000000
01000000
00001000
00010000
00000000
,
00000100
00000000
00001000
00000000
00000100
00010000
00001000
00000000
,
00100000
00000000
00010000
00000000
00100000
00001000
00010000
00000000
,
00001010
00000000
00000000
00000000
00001000
00000010
00010000
00001000
,
01000000
00000000
00010000
00000000
00100000
00001000
00010000
00000000
,
00000010
00000000
00001000
00000000
00000100
00010000
00001000
00000000
,
01000000
00000000
00010000
00000000
00100000
00001000
00010000
00000000
,
00000010
00000000
00001000
00000000
00000100
00010000
00001000
00000000
,
01000000
00000000
00100000
00000000
01000000
00100000
01000000
00000000
,
00001000
00000000
00010000
00000000
00000100
00000010
00000100
00000000
,
00001000
00000000
00000010
00000000
00000100
00000010
00000100
00000000
,
00001000
00000000
00010000
00000000
00100000
01000000
00100000
00000000
,
10010000
00000000
00000000
00000000
;

//---------------dance-double - M. Emirzian----------------
#NOTES:
     dance-double:
     M. Emirzian:
     Hard:
     9:
     0.558,0.459,0.496,0.052,0.165,386.000,57.000,6.000,7.000,0.000,0.000,0.558,0.459,0.496,0.052,0.165,386.000,57.000,6.000,7.000,0.000,0.000:
00000000
00000000
00000000
00000000
,
00000000
00000000
00000000
00000000
,
00000010
00000000
00000000
00000000
00000000
00000000
00020000
00002000
,
00000000
00000000
00000000
00033000
,
01000000
00000000
00000000
00100000
,
10000000
00000000
00000000
01000000
,
00010000
00001000
00000100
00000001
,
00000010
00000100
00001000
00000010
00000100
00000010
00001000
00000100
,
00002002
00000000
00000000
00003003
,
00000000
00000010
00010000
00001000
01000000
00010000
00000000
01000000
,
00001000
00010000
00000100
00001000
00000000
00010010
00000000
00011000
,
00000000
00000100
00010000
00001000
01000000
00010000
00000000
01000000
,
00001000
00010000
00000010
00001000
00000000
00010100
00000000
00011000
,
00000000
00001000
01000000
00100000
01000000
00010000
10000000
01000000
,
00100000
01000000
00010000
01000000
00100000
00001000
00010000
00000000
,
00001000
01000000
00001000
00010000
00000010
00001000
00000000
00000010
,
00001100
00000000
00000000
00000000
00000000
00000000
00000101
00000000
00000000
00000000
00000110
00000000
00001010
00000000
00000000
00000010
,
00001000
00000100
00000010
00000001
00000010
00000100
00000000
00010000
,
00001000
00000100
00001000
00010000
00000000
01100000
00000000
10100000
,
00000000
01000000
00100000
00010000
00100000
01000000
00000000
10000000
,
00010000
01000000
00100000
01000000
00000000
01010000
00000000
00101000
,
00000000
00001000
00010000
00000100
00001000
00000010
00000100
00000010
,
00010000
00001000
00010000
00000010
00010000
00001000
00000010
00000100
,
00001000
00000001
00000100
00000010
00000100
00000001
00000000
00000010
,
00001100
00000000
00000000
00101000
00000000
00011000
00010100
00000000
,
01010000
00000000
00000000
00000000
00001100
00000000
00000000
01000000
00001000
00000000
00000000
00010000
00000100
00000000
00000000
00000000
,
00010010
00000000
00000000
00000000
00101000
00000000
00000000
01000000
00001000
00000000
00000000
00010000
00000100
00000000
00000000
00000000
,
01000000
00100000
01000000
00001000
00010000
00000100
00000010
000000M0
,
00000010
00000100
00000010
00001000
00010000
00100000
01000000
00000000
,
01100000
00000000
00000000
00000000
00011000
00000000
00000000
01000000
00100000
00000000
00000000
00010000
00001000
00000000
00000000
00000000
,
00000110
00000000
00000000
00000000
00011000
00000000
00000000
00000010
00000100
00000000
00000000
00001000
00010000
00000000
00000000
00000000
,
00100000
01000000
00001000
00010000
00000010
00000100
00000010
000000M0
,
00000010
00000000
00000100
00000000
00000010
00000000
00010000
00000000
00001000
00000000
01000000
00000000
00100000
00000000
00000000
00100000
,
10000000
01000000
00100000
00010000
01000000
00100000
01000000
00001000
,
00010000
00100000
00010000
00001000
00000010
00000100
00000010
00000000
,
00001100
00000000
00000000
00000100
00010000
00000000
00000000
00000000
00001010
00000000
00000000
00000001
00000100
00000000
00000000
00000000
,
00010010
00000000
00000000
00001000
00010000
00000000
00100000
00000000
10000000
00000000
01000000
00000000
00100000
00000000
00000000
00000000
,
01000000
00100000
01000000
00000000
10000000
00000000
01000000
00000000
00010000
00000000
00000000
00000000
00011000
00000000
00000000
00000000
,
00000010
00000100
00000010
00000000
00000001
00000000
00000010
00000000
00001000
00000000
00000000
00000000
00011000
00000000
00000000
00000000
,
00000010
00010000
00001000
01000000
00001000
00010000
00000010
00000000
,
00011000
00000000
00000000
00100000
00010000
00000000
00000000
00000000
00011000
00000000
00000000
00000100
00001000
00000000
00000000
00000000
,
00000010
00001000
00000100
00000010
00000100
00010000
00001000
00000100
,
00001000
00010000
00100000
01000000
00100000
10000000
01000000
00000000
,
00110000
00000000
00000000
01000000
00001000
00000000
00000000
00000000
00110000
00000000
00000000
01000000
00001000
00000000
00000000
00000000
,
00110000
00000000
00000000
00001000
00010000
00000000
00000100
00000000
00000010
00000000
00000100
00000000
00010000
00000000
00000000
00000000
,
00001000
00010000
00001000
00000000
00000100
00000000
00001000
00000000
00010000
00000000
00000000
00000000
00110000
00000000
00000000
00000000
,
00001000
00010000
00001000
00000000
00000010
00000000
00001000
00000000
00010000
00000000
00000000
00000000
00001100
00000000
00000000
00000000
,
00000001
00000100
00000010
00000100
00001000
00000100
00000001
00000000
,
00001001
00000000
00000000
01000100
,
00022000
00000000
00000000
00033000
,
01001000
00000000
00000000
00000000
00110000
00000000
00000000
00000010
00001000
00000000
00000000
00000100
00010000
00000000
00000000
00000000
,
00010010
00000000
00000000
00000000
00001100
00000000
00000000
00100000
00010000
00000000
00000000
01000000
00001000
00000000
00000000
00000000
,
00100000
01000000
00100000
00001000
00010000
00000010
00000100
00000MM0
,
00000010
00000100
00000010
00010000
00001000
01000000
00100000
00000000
,
01100000
00000000
00000000
00000000
00011000
00000000
00000000
01000000
00100000
00000000
00000000
00001000
00010000
00000000
00000000
00000000
,
00000110
00000000
00000000
00000000
00011000
00000000
00000000
00000010
00000100
00000000
00000000
00010000
00001000
00000000
00000000
00000000
,
00000100
00000010
00000100
00001000
00010000
00100000
01000000
0MM00000
,
00100000
01000000
00100000
00010000
00001000
00000100
00000010
00000000
,
00010010
00000000
00000000
00000000
01001000
00000000
00000000
00100000
00001000
00000000
00000000
00010000
00000010
00000000
00000000
00000000
,
00101000
00000000
00000000
00000000
00010010
00000000
00000000
00000100
00010000
00000000
00000000
00001000
01000000
00000000
00000000
00000000
,
00100000
01000000
00001000
00010000
00000010
00000100
00000010
000000M0
,
00000010
00000100
00000010
00010000
00001000
01000000
00100000
00000000
,
01100000
00000000
00000000
00000000
00011000
00000000
00000000
00000010
00000100
00000000
00000000
00001000
00010000
00000000
00000000
00000000
,
00000110
00000000
00000000
00000000
00011000
00000000
00000000
01000000
00100000
00000000
00000000
00010000
00001000
00000000
00000000
00000000
,
00000100
00000010
00000100
00001000
01000000
00100000
01000000
00000000
,
00100000
01000000
00100000
00010000
00000010
00000100
00000010
00000000
,
00001001
00000000
00000000
00000000
;

//---------------dance-double - M. Emirzian----------------
#NOTES:
     dance-double:
     M. Emirzian:
     Challenge:
     10:
     0.645,0.603,0.461,0.035,0.226,462.000,53.000,4.000,10.000,0.000,0.000,0.645,0.603,0.461,0.035,0.226,462.000,53.000,4.000,10.000,0.000,0.000:
00000000
00000000
00000000
00000000
,
00000000
00000000
00000000
00000000
,
00100000
00000000
00000000
00000000
01000000
00000000
00100000
00001000
,
00000100
00000010
00001000
00000100
,
00000010
00000001
00010000
00000000
00001000
00010000
10000000
00000000
,
01000000
00001000
00010000
00000000
01000100
00000000
00011000
00000000
,
00100000
01000000
00100000
00010000
00001000
00000010
00000100
00000010
,
00000001
00000100
00000010
00000000
00001000
00000100
00000010
00000000
00000100
00010000
00001000
00000000
00010000
00001000
01000000
00000000
,
00022000
00000000
00000000
00033000
,
00000000
00100000
01000000
00100000
00000100
00000010
00000000
00000001
,
00000100
00000010
01000000
00100000
00000000
10001000
00000000
01010000
,
00000000
00100000
00001000
00000100
00000010
00010000
00000000
00000100
,
00000010
00000100
01000000
00100000
00000000
01001000
00000000
01000100
,
00000000
00010000
00000010
00000001
00000010
00010000
00000000
00001000
,
00100000
10000000
00100000
00001000
00000000
00100010
00000000
00001100
,
00000000
00000010
00000100
00000010
01000000
00100000
00000000
10000000
,
11000000
00000000
MM000000
00000000
00000000
00000000
00010100
00000000
00000000
00000000
00001010
00000000
00010010
00000000
00000000
00001000
,
00000100
00000010
00000001
00000100
00000010
00100000
00000000
00001000
,
00010000
00100000
00010000
00000100
00000000
01000100
00000000
00011000
,
00000000
01000000
00001000
00000010
00001000
00100000
00000000
01000000
,
00100000
00001000
00000100
00000010
00000000
00010001
00000000
00001100
,
00000000
00000010
00010000
01000000
00010000
00001000
00000000
10000000
,
00010000
00001000
00010000
10000000
00000000
01001000
00000000
00010010
,
00000000
00000001
00001000
00010000
00001000
00000001
00000000
00000100
,
00001100
0000MM00
00000000
01000100
00000000
00110000
01001000
00000000
,
00101000
00000000
00000000
00000000
00010010
00000000
00000100
00000010
00010000
00000000
00001000
01000000
00100000
00000000
00000000
00000000
,
00010010
00000000
00000000
00000000
00101000
00000000
01000000
00100000
00001000
00000000
00010000
00000100
00000010
00000000
00000000
00000000
,
00000100
00010000
00000010
01000000
00100000
00010000
00000100
00000M00
,
00000100
00010000
01000000
00100000
00000010
00010000
00000100
00000000
,
01100000
00000000
00000000
00000000
00000110
00000000
00000010
00000100
00001000
00000000
00100000
01000000
00010000
00000000
00000000
00000000
,
00000110
00000000
00000000
00000000
01100000
00000000
00100000
01000000
00010000
00000000
00000010
00000100
00001000
00000000
00000000
00000000
,
01000000
00100000
01000000
00000100
00000010
00000100
00100000
00M00000
,
00100000
00000000
00000100
00000000
00000010
00000000
00000100
00000000
01000000
00000000
00100000
00000000
01000000
00000000
00000000
00010000
,
01000000
00100000
10000000
01000000
00100000
00001000
00000100
00000010
,
00001000
00000010
00000100
00000000
00000001
00000000
00000100
00000000
00000010
00000000
00010000
00000000
01000000
00000000
00100000
00000000
,
00001000
00010000
00000100
00000000
01000000
00001000
00010000
00000000
00000010
00100000
00001000
00000000
00010000
00000000
00001000
00000000
,
01000000
00000100
00001000
00000000
00000010
00010000
00001000
00000000
01000000
00001000
00010000
00000000
00011000
00000000
00000000
00000000
,
00010000
00000000
00001000
01000000
00001000
00000000
00100000
00000000
00100000
00000000
01000000
10000000
01000000
00000000
00010000
00000000
,
00010000
00000000
00000100
00000010
00000100
00000000
00010000
00000000
00010000
00000000
00100000
01000000
00100000
00000000
10000000
00000000
,
01000000
00100000
01000000
00010000
00000100
00000010
00000100
00010000
,
00100000
00010000
00000100
00000001
00000100
00010000
00100000
01000000
,
00100000
00010000
00000100
00010000
01000000
10000000
00001000
00010000
,
00000100
00001000
00000010
00000000
00000001
00000000
00000010
00000000
00010000
00000000
00100000
00000000
01000000
00000000
00001000
00000000
,
00010000
00000010
00001000
00000000
00000100
00010000
00001000
00000000
01000000
00000100
00010000
00000000
00001000
00000000
00010000
00000000
,
00000010
00100000
00001000
00000000
00100000
00000010
00010000
00000000
00000100
01000000
00001000
00000000
00011000
00000000
00000000
00000000
,
01000000
00000000
00100000
01000000
00100000
00000000
00010000
00000000
00010000
00000000
00000100
00000010
00000100
00000000
00010000
00000000
,
00010000
00000000
00100000
01000000
00100000
00000000
10000000
00000000
10000000
00000000
00001000
00010000
00001000
00000000
00000010
00000000
,
00000100
00010000
00000001
00000100
00000010
00010000
00100000
01000000
,
00100000
10000000
00000000
00011000
00000000
00000100
01000100
00000000
,
00022000
00000000
00000000
00033000
,
01000010
00000000
00000000
00000000
00100100
00000000
00000100
00001000
00000010
00000000
01000000
00010000
00100000
00000000
00000000
00000000
,
00100100
00000000
00000000
00000000
01000010
00000000
01000000
00010000
00100000
00000000
00000100
00001000
00000010
00000000
00000000
00000000
,
00000100
00000010
00100000
01000000
00100000
00000100
00000010
000000M0
,
00000010
00000100
01000000
00100000
01000000
00000100
00000010
00000000
,
00000110
00000000
00000000
00000000
00011000
00000000
00100000
01000000
00001000
00000000
00000100
00000010
00010000
00000000
00000000
00000000
,
01100000
00000000
00000000
00000000
00011000
00000000
01000000
00100000
00001000
00000000
00000100
00000010
00010000
00000000
00000000
00000000
,
00000010
00010000
01000000
00010000
00000100
00000010
00000100
00000M00
,
00000100
00000010
00000100
00010000
00100000
00010000
00000100
00000000
,
01000100
00000000
00000000
00000000
00100010
00000000
00010000
00000100
01000000
00000000
00000010
00100000
00001000
00000000
00000000
00000000
,
00100010
00000000
00000000
00000000
01000100
00000000
00010000
00000010
00100000
00000000
00000100
01000000
00001000
00000000
00000000
00000000
,
01000000
00001000
00000010
00000100
00100000
00001000
00000100
00000M00
,
00000100
00001000
01000000
00000010
00000100
00001000
00100000
00000000
,
01100000
00000000
00000000
00000000
00000110
00000000
00000010
00000100
00001000
00000000
00100000
01000000
00010000
00000000
00000000
00000000
,
00000110
00000000
00000000
00000000
01100000
00000000
00100000
01000000
00010000
00000000
00000010
00000100
00001000
00000000
00000000
00000000
,
00010000
00000100
00100000
01000000
00010000
00000010
00000100
00000M00
,
00000100
00000010
00010000
01000000
00100000
00001000
00000100
00000000
,
00001001
00000000
00000000
00000000
;

//---------------dance-single - Expert----------------
#NOTES:
     dance-single:
     M.Calfin & S. Venkat:
     Challenge:
     10:
     0.724,0.000,0.531,0.113,0.496: // measure 1
0000
0000
0000
0000
,  // measure 2
0000
0000
0000
0000
,  // measure 3
0000
0000
0000
0000
,  // measure 4
0000
0000
0000
0000
,  // measure 5
0001
1000
0000
0001
1000
0200
0000
0310
,  // measure 6
0001
0020
0000
0031
0100
0020
0000
1030
,  // measure 7
0100
0020
0000
0031
0100
0020
0000
0130
,  // measure 8
0010
2000
0000
3100
0000
1001
0100
1000
,  // measure 9
0100
0020
0000
0000
0000
0000
0000
0030
,  // measure 10
0000
0000
0010
0001
0010
0000
0100
0000
1000
0000
0010
0000
0000
0000
0100
0010
,  // measure 11
0100
0001
0100
0001
0000
1000
0000
0011
,  // measure 12
0000
0000
0010
0100
1000
0000
0100
0000
0010
0000
0001
0000
0000
0000
0100
0010
,  // measure 13
0100
0010
1000
0100
0000
0010
0000
0010
,  // measure 14
0000
0000
0100
0010
0100
0000
1000
0000
0100
0000
0010
0000
0000
0000
1000
0010
,  // measure 15
0100
1000
0010
0001
0000
0010
0000
1000
,  // measure 16
0000
0000
0010
1000
0100
0000
0010
0000
0100
0000
1000
0000
0000
0000
1000
0000
,  // measure 17
1100
MM10
0001
2000
0000
0002
0000
0000
,  // measure 18
3003
0000
1000
0100
0010
0000
0001
0000
0100
0000
0010
0000
0000
0000
0100
0010
,  // measure 19
0001
0010
1000
0100
0000
0010
0000
0001
,  // measure 20
0000
0000
0100
0010
1000
0000
0100
0000
0010
0000
0010
0000
0000
0000
0001
0000
,  // measure 21
0100
0010
0100
0001
0000
1000
0000
0000
,  // measure 22
0000
0000
0001
1000
0001
0000
0100
0000
0001
0000
1000
0000
0000
0000
0001
1000
,  // measure 23
0001
1000
0001
1000
0000
0100
0000
0010
,  // measure 24
0000
0000
1000
0010
0001
0000
0100
0000
0010
0000
1000
0000
0000
0000
0010
1000
,  // measure 25
0100
0001
0100
1000
0000
1010
0001
0000
,  // measure 26
1100
0000
0000
0000
0000
0000
0011
0000
0000
MM01
0010
0001
0010
0000
0000
0100
1000
0100
10MM
0000
0000
0000
0000
0000
,  // measure 27
0110
0000
0000
0000
0000
0000
1001
0000
0000
0001
0100
0001
M1M0
0000
0000
0001
0000
0000
0100
0000
0000
0000
0000
0000
,  // measure 28
0110
0000
0000
0000
0000
0000
1010
0000
0000
0M1M
1000
0010
1000
0000
0000
0001
0100
0001
M1M0
0000
0000
0000
0000
0000
,  // measure 29
0101
0000
0000
0000
0000
0000
0110
0000
0000
001M
0100
0010
1000
0000
0000
0100
0000
0000
0010
0000
0000
0000
0000
0000
,  // measure 30
0110
0000
0000
0000
0000
0000
M011
0000
0000
0001
0100
0010
1000
0000
0000
01M0
1000
0100
1000
0000
0000
0000
0000
0000
,  // measure 31
1100
0000
0000
0000
0000
0000
10M1
0000
0000
1000
0100
0010
M001
0000
0000
0010
0000
0000
0100
0000
0000
0000
0000
0000
,  // measure 32
1100
0000
0000
0000
0000
0000
01M1
0000
0000
0100
0001
0100
M010
0000
0000
100M
0100
1000
0010
0000
0000
0000
0000
0000
,  // measure 33
1010
0000
0000
0000
0000
0000
0000
0000
0000
0000
0000
0000
0101
0000
0000
0000
0000
0000
0001
0000
0100
0000
0010
0000
0100
0000
0000
0000
0000
0000
0010
0000
0000
0000
0000
0000
1000
0000
0000
0000
0000
0000
0000
0000
0000
0001
0000
0000
,  // measure 34
1000
0100
1000
0000
0100
0000
0010
0000
0100
0000
0001
0000
1000
0000
0010
0000
,  // measure 35
0001
0010
0001
0000
0100
0000
1000
0000
0001
0000
1000
0000
0100
0000
0001
0000
,  // measure 36
0010
0100
0010
0000
0001
0010
0001
0000
1000
0100
1000
0000
0010
0000
0001
0000
,  // measure 37
0010
0100
0001
0000
1000
0100
1000
0000
0001
0010
0001
0000
0011
0000
0000
0000
,  // measure 38
0001
0000
1000
0100
0010
0000
0010
0000
0010
0000
0100
1000
0100
0000
0010
0000
,  // measure 39
0011
0000
0001
0100
0001
0000
0100
0000
0010
0000
0010
0100
0010
0000
1000
0000
,  // measure 40
0100
0010
0100
0001
0100
1000
0100
1000
,  // measure 41
0010
0001
1000
0100
0010
1000
0001
0010
,  // measure 42
0100
0010
0001
0010
0100
1000
0100
0010
,  // measure 43
0001
0100
0010
0000
0100
0000
0010
0000
0001
0000
0010
0000
0100
0000
1000
0000
,  // measure 44
0001
0010
1000
0000
1000
0100
0010
0000
0001
0010
0100
0000
0010
0000
0001
0000
,  // measure 45
0010
0100
0010
0000
0100
1000
0100
0000
1000
0010
1000
0000
1010
0000
0000
0000
,  // measure 46
0100
0000
0010
0100
0010
0000
1000
0000
1000
0000
0100
0010
0001
0000
0010
0000
,  // measure 47
0010
0000
0001
0100
0010
0000
1000
0000
1000
0000
0010
0001
0010
0000
0100
0000
,  // measure 48
0010
1000
0100
0010
0001
0001
0010
0100
,  // measure 49
0010
1100
0000
0011
0000
0110
0100
0000
,  // measure 50
2002
0000
0000
3003
0000
0000
1001
0000
0000
1000
0100
1000
01MM
0000
0000
0010
0001
0010
MM01
0000
0000
0000
0000
0000
,  // measure 51
0110
0000
0000
0000
0000
0000
1010
0000
0000
M100
0001
0100
0010
0000
0000
100M
0010
1000
0001
0000
0000
0000
0000
0000
,  // measure 52
0011
0000
0000
0000
0000
0000
11MM
0000
0000
1000
0100
0010
0001
0000
0000
MM10
0000
0000
0100
0000
0000
0000
0000
0000
,  // measure 53
1100
0000
0000
0000
0000
0000
011M
0000
0000
0100
0010
0001
M010
0000
0000
0001
0100
0010
0100
0000
0000
0000
0000
0000
,  // measure 54
1010
0000
0000
0000
0000
0000
0110
0000
0000
M01M
0100
0010
0100
0000
0000
0001
0000
0000
0010
0000
0000
0000
0000
0000
,  // measure 55
0011
0000
0000
0000
0000
0000
0110
0000
0000
001M
0100
1000
0100
0000
0000
0010
0001
0010
M100
0000
0000
0000
0000
0000
,  // measure 56
0110
0000
0000
0000
0000
0000
01M1
0000
0000
M100
0010
0100
0001
0000
0000
0010
0000
0000
0001
0000
0000
0000
0000
0000
,  // measure 57
0110
0000
0000
0000
0000
0000
11M0
0000
0000
100M
0100
0010
0001
0000
0000
0100
0001
0100
0010
0000
0000
0000
0000
0000
,  // measure 58
1010
0000
0000
0000
0000
0000
0101
0000
0000
0010
0100
0010
M10M
0000
0000
0001
0000
0000
0100
0000
0000
0000
0000
0000
,  // measure 59
0110
0000
0000
0000
0000
0000
101M
0000
0000
1000
0010
0100
0001
0000
0000
M010
0001
0010
0100
0000
0000
0000
0000
0000
,  // measure 60
0110
0000
0000
0000
0000
0000
0011
0000
0000
0001
0010
0100
100M
0000
0000
0010
0000
0000
0100
0000
0000
0000
0000
0000
,  // measure 61
0110
0000
0000
0000
0000
0000
1100
0000
0000
0100
0010
0100
M010
0000
0000
0001
0010
0001
0M10
0000
0000
0000
0000
0000
,  // measure 62
0101
0000
0000
0000
0000
0000
0110
0000
0000
M001
0100
0010
0100
0000
0000
001M
0000
0000
1000
0000
0000
0000
0000
0000
,  // measure 63
0110
0000
0000
0000
0000
0000
01M1
0000
0000
0001
0010
0001
M100
0000
0000
0001
0100
0010
0100
0000
0000
0000
0000
0000
,  // measure 64
1010
0000
0000
0000
0000
0000
M110
0000
0000
0010
0100
0010
1000
0000
0000
010M
0000
0000
0010
0000
0000
0000
0000
0000
,  // measure 65
0011
0000
0000
0000
0000
0000
0110
0000
0000
M10M
0010
0100
0010
0000
0000
0001
0010
0100
0010
0000
0000
0000
0000
0000
,  // measure 66
0110
0000
0000
0000
0000
0000
101M
0000
0000
0100
0010
0100
M001
0000
0000
0010
0000
0000
0100
0000
0000
0000
0000
0000
,  // measure 67
2002
0000
0000
0000
,  // measure 68
3003
0000
0000
0000
;

//---------------dance-single - J. Frederick----------------
#NOTES:
     dance-single:
     J. Frederick:
     Beginner:
     1:
     0.077,0.086,0.044,0.000,0.000,57.000,5.000,0.000,0.000,0.000,0.000,0.077,0.086,0.044,0.000,0.000,57.000,5.000,0.000,0.000,0.000,0.000:
0000
0000
0000
0000
,
0000
0000
0000
0000
,
0000
0000
0000
0000
,
0000
0000
0000
0000
,
1000
0000
0000
0000
,
0001
0000
0000
0000
,
0010
0000
0000
0000
,
0100
0000
0000
0000
,
1001
0000
0000
0000
,
1000
0000
0000
0000
,
0000
0000
0000
0000
,
0010
0000
0000
0000
,
0000
0000
0000
0000
,
0100
0000
0000
0000
,
0000
0000
0000
0000
,
1000
0000
0000
0000
,
0000
0000
0000
0000
,
0001
0000
0000
0000
,
0000
0000
0000
0000
,
0010
0000
0000
0000
,
0000
0000
0000
0000
,
1000
0000
0000
0000
,
0000
0000
0000
0000
,
0001
0000
0000
0000
,
0110
0000
0000
0000
,
1000
0000
0000
0000
,
0001
0000
0000
0000
,
0010
0000
0000
0000
,
0100
0000
0000
0000
,
0001
0000
0000
0000
,
1000
0000
0000
0000
,
0100
0000
0000
0000
,
0010
0000
0000
0000
,
1001
0000
0000
0000
,
0100
0000
0000
0000
,
0010
0000
0000
1000
,
1000
0000
0000
0000
,
0001
0000
0000
0000
,
0010
0000
0000
0000
,
0100
0000
0000
0000
,
1000
0000
0000
0000
,
0001
0000
0000
0000
,
0100
0000
0000
0000
,
0010
0000
0000
0000
,
1000
0000
0000
0000
,
0001
0000
0000
0000
,
0100
0000
0000
0000
,
0010
0000
0000
0000
,
1000
0000
0000
0000
,
1001
0000
0000
0000
,
0010
0000
0000
0000
,
0100
0000
0000
0000
,
0001
0000
0000
0000
,
1000
0000
0000
0000
,
0010
0000
0000
0000
,
0100
0000
0000
0000
,
1000
0000
0000
0000
,
0001
0000
0000
0000
,
0010
0000
0000
0000
,
0100
0000
0000
0000
,
1000
0000
0000
0000
,
0001
0000
0000
0000
,
0100
0000
0000
0000
,
0010
0000
0000
0000
,
1000
0000
0000
0000
,
0001
0000
0000
0000
,
1001
0000
0000
0000
;

//---------------dance-single - BEGINNER----------------
#NOTES:
     dance-single:
     BEGINNER:
     Easy:
     4:
     0.246,0.231,0.052,0.392,0.000,147.000,6.000,45.000,0.000,0.000,0.000,0.246,0.231,0.052,0.392,0.000,147.000,6.000,45.000,0.000,0.000,0.000:
0000
0000
0000
0000
,
0000
0000
0000
0000
,
0000
0000
0000
0000
,
0000
0000
0000
0000
,
2000
0000
0000
0000
,
3002
0000
0000
0000
,
0023
0000
0000
0000
,
0230
0000
0000
0300
,
1001
0000
0000
0000
,
0100
0000
0001
0000
,
0010
0100
0010
0000
,
1000
0000
0001
0000
,
0100
0001
0100
0000
,
0010
0000
1000
0000
,
0100
1000
0100
0000
,
0010
0000
0001
0000
,
2002
0000
0000
3003
,
0100
0000
0010
0000
,
1000
0010
1000
0000
,
0001
0000
0010
0000
,
0100
0010
0001
0000
,
0100
0000
0010
0000
,
1000
0010
1000
0000
,
0100
0000
0010
0000
,
1001
0000
0000
0000
,
1000
0010
2000
3000
,
0001
0100
0002
0003
,
0010
0100
0020
0030
,
0100
1000
0200
0300
,
0010
0001
0200
0300
,
0010
1000
0002
0003
,
0010
0001
0200
0300
,
0010
1000
0200
0300
,
0020
0000
0030
0001
,
0200
0000
0300
0010
,
2000
0000
3000
0001
,
2002
0000
0000
3003
,
0200
0000
0300
0010
,
2000
0000
3000
0100
,
0020
0000
0000
0100
,
2000
0000
0000
3030
,
2000
0000
0000
3000
,
0002
0000
0003
0100
,
0020
0000
0000
1030
,
0100
0000
0000
0000
,
0010
0000
0001
0000
,
0100
0001
0010
0000
,
0100
0000
1000
0000
,
0010
0100
0010
0100
,
0220
0000
0000
0330
,
1000
0001
0020
0030
,
0100
1000
0020
0030
,
0100
0001
0020
0030
,
0001
1000
0200
0300
,
0010
0001
0200
0300
,
0010
1000
0002
0003
,
0010
0001
2000
3000
,
0010
0100
0020
0030
,
1000
0100
0020
0030
,
0001
0100
0020
0030
,
1000
0001
2000
3000
,
0010
0100
0020
0030
,
0001
0010
0200
0300
,
1000
0010
0002
0003
,
0001
0010
2000
3000
,
0010
0100
0010
0100
,
2002
0000
3003
0000
;

//---------------dance-single - LIGHT----------------
#NOTES:
     dance-single:
     LIGHT:
     Medium:
     6:
     0.352,0.376,0.044,0.339,0.000,239.000,5.000,39.000,0.000,0.000,0.000,0.352,0.376,0.044,0.339,0.000,239.000,5.000,39.000,0.000,0.000,0.000:
0000
0000
0000
0000
,
0000
0000
0000
0000
,
0000
0000
0000
0000
,
0000
0000
0000
0000
,
0000
1000
0000
0001
0000
0010
0000
0100
,
0000
1000
0000
0010
0000
0100
0000
0001
,
0000
0010
0000
0001
0000
0100
0000
0010
,
0000
1000
0000
0010
0000
0100
0010
0100
,
0220
0000
0000
0000
0000
0000
0000
0330
,
0000
1000
0001
0000
1000
0000
0100
0000
,
0010
0000
0001
0200
0000
0000
0000
0000
,
0300
0010
1000
0000
0100
0000
0010
0000
,
0001
0000
1000
0002
0000
0000
0000
0000
,
0003
1000
0010
0000
0100
0000
0001
0000
,
0010
0000
0100
2000
0000
0000
0000
0000
,
3000
0010
0100
0000
0001
0000
0010
0000
,
0220
0000
0000
0000
,
0330
1000
0010
0000
0100
0000
0001
0000
,
0010
0000
0001
0200
0000
0000
0000
0000
,
0300
0010
1000
0000
0100
0000
0010
0000
,
0001
0000
0100
0020
0000
0000
0000
0000
,
0030
1000
0001
0000
0010
0000
0100
0000
,
1000
0000
0010
0200
0000
0000
0000
0000
,
0300
0001
0010
0000
0100
0000
0010
0000
,
2002
0000
0000
3003
,
0100
0000
0010
0000
1000
0100
2000
0000
,
3010
0000
0100
0000
0001
0010
0002
0000
,
0103
0000
0010
0000
1000
0100
0020
0000
,
0031
0000
0100
0000
0010
1000
0020
0000
,
0130
0000
0001
0000
0010
0001
0020
0000
,
0031
0000
1000
0000
0010
0100
0020
0000
,
1030
0000
0100
0000
0010
0001
0020
0000
,
0031
0000
0100
0000
0010
1000
0010
0000
,
1000
0001
0010
0100
,
1000
0010
0100
0001
,
0010
0000
0100
0000
1000
0000
0001
2000
,
0000
0000
0000
0000
0000
3000
0000
0000
,
1000
0001
0010
0100
,
1000
0000
0010
0000
0100
0000
0001
0010
,
0002
0000
0000
0000
,
0000
0000
0000
0003
,
1000
0010
0100
0001
,
0010
0100
1000
0010
,
0100
0000
0001
0000
0010
0000
0100
0020
,
0000
0000
0000
0000
0000
0030
0000
0000
,
0001
1000
0001
0100
,
0010
0000
1000
0000
0001
0000
1000
0100
,
2000
0000
0000
0000
,
0000
0000
0000
3000
,
0001
0000
0100
0000
0010
0000
0100
0010
,
1000
0000
0100
0000
0010
0001
0020
0000
,
0031
0000
1000
0000
0010
0100
0020
0000
,
1030
0000
0100
0000
0010
0001
0020
0000
,
0031
0000
0100
0000
0010
0100
0020
0000
,
1030
0000
0100
0000
0010
0100
0020
0000
,
0031
0000
1000
0000
0010
0100
0002
0000
,
0013
0000
0100
0000
1000
0100
2000
0000
,
3010
0000
0100
0000
0001
0010
0001
0000
,
1001
0000
0100
0000
0010
0100
0020
0000
,
1030
0000
0100
0000
0010
0001
0020
0000
,
0031
0000
0100
0000
0010
1000
0002
0000
,
0013
0000
0100
0000
1000
0100
2000
0000
,
3010
0000
0100
0000
0001
0010
0002
0000
,
0103
0000
0010
0000
1000
0100
0020
0000
,
0031
0000
0100
0000
0010
1000
0002
0000
,
0013
0100
0000
0000
,
2002
0000
3003
0000
;

//---------------dance-single - J. Frederick----------------
#NOTES:
     dance-single:
     J. Frederick & S. Venkat:
     Hard:
     8:
     0.491,0.000,0.287,0.044,0.000:
0000
0000
0000
0000
,
0000
0000
0000
0000
,
0000
0000
0000
0000
,
0000
0000
0000
0000
,
0000
0011
0000
0110
0000
1100
0000
1010
,
0000
0101
0000
0011
0000
0110
0000
1100
,
0000
1010
0000
0110
0000
0101
0000
0011
,
0000
0110
0000
0110
0000
1000
0010
0100
,
0001
0020
0000
0000
0000
0000
0000
0030
,
0000
0100
1000
0010
0100
0001
0000
0010
,
0001
0100
0001
1000
0000
1000
0000
1000
,
0000
0001
0100
0010
1000
0100
0000
0100
,
0010
0001
0100
0010
0000
1000
0000
1000
,
0000
0001
0010
0100
1000
0100
0000
0100
,
0010
0001
0100
0010
0000
0010
0000
0010
,
0000
1000
0100
0010
0001
0100
0000
0100
,
0010
1000
0001
0010
0000
0010
0000
0010
,
0000
0001
0100
0001
0010
0001
0000
1000
,
0010
0001
0010
0100
0000
0100
0000
0100
,
0000
0001
0010
0001
1000
0100
0000
0100
,
0010
0001
0100
0001
0000
0001
0000
0001
,
0000
0010
0001
1000
0010
0100
0000
0100
,
0010
1000
0100
1000
0000
1000
0000
1000
,
0000
0001
0010
0100
1000
0100
0010
0001
,
0011
0000
0000
1100
0000
0010
0001
0000
,
0010
0000
0001
0100
0001
1000
0001
0000
,
0100
0000
0010
1000
0001
0100
0001
0000
,
0010
0000
0100
1000
0001
0010
0001
0000
,
0100
0000
0010
1000
0010
0001
0010
0000
,
1000
0000
0100
0010
0001
0010
0100
0000
,
1000
0000
0010
0100
0010
0001
0010
0000
,
0100
0000
0010
1000
0100
0010
0001
0000
,
1000
0000
0001
0100
0010
1000
0001
0000
,
1000
0001
0010
0000
0010
0100
1000
0000
,
1000
0010
0100
0001
0010
0100
1000
0000
,
1000
0010
0100
0000
0100
0001
0010
0000
,
0010
0001
0010
1000
0010
0100
0010
0000
,
0010
0001
0100
0001
0010
0000
0011
0000
,
0010
0001
1000
0010
0100
0000
0110
0000
,
1000
0010
0100
0000
0100
0001
0010
0000
,
0010
0100
0010
0100
0110
0000
0110
0000
,
1000
0100
0010
0001
0100
0000
0100
0000
,
0001
1000
0010
0100
0001
0000
0001
0000
,
0010
0100
1000
0100
0010
0000
0010
0000
,
0001
0100
0001
1000
0001
0000
0001
0000
,
1000
0001
1000
0000
1001
0000
1001
0000
,
0100
0010
0100
0000
0110
0000
0110
0000
,
1000
0010
1000
0000
0001
0100
0001
0000
,
0010
0100
1000
0010
,
2000
0000
0001
0000
0010
0000
0002
3003
,
0100
0000
0010
0100
0010
0000
1000
0000
,
0100
0000
0010
0001
0100
0001
1000
0000
,
0010
0000
0100
0010
1000
0100
0010
0000
,
0001
0000
0100
0001
0010
0100
1000
0000
,
1100
0000
0011
0000
0100
0001
0100
0000
,
0101
0000
1010
0000
0100
0010
0100
0000
,
0110
0000
1001
0000
0010
0001
0010
0000
,
0110
0000
1100
0000
0010
0001
0010
0000
,
0001
0100
0001
1000
0010
0100
0001
0000
,
0010
0100
1000
0100
0010
0001
0100
0000
,
0100
0010
1000
0100
0010
0001
0100
0000
,
0100
0001
0010
0001
1000
0010
0001
0000
,
0001
0010
1000
0100
0010
0001
0100
0000
,
0100
0001
0010
0100
1000
0100
0010
0000
,
0010
1000
0001
0100
0010
1000
0010
0000
,
0010
0100
1000
0010
0000
0000
0000
0000
,
2002
0000
3003
0000
;
