#TITLE:Autoload;
#SUBTITLE:;
#ARTIST:Nightfly;
#TITLETRANSLIT:;
#SUBTITLETRANSLIT:;
#ARTISTTRANSLIT:;
#GENRE:Techno;
#CREDIT:;
#BANNER:Autoload-bn.png;
#BACKGROUND:Autoload-bg.png;
#LYRICSPATH:;
#CDTITLE:;
#MUSIC:Autoload.ogg;
#OFFSET:-0.022;
#SAMPLESTART:67.480;
#SAMPLELENGTH:11.860;
#SELECTABLE:YES;
#BPMS:0.000=128.000;
#STOPS:;
#BGCHANGES:0.527=Autoload.mpg=1.000=1=0=0=StretchNoLoop==CrossFade==,
99999=-nosongbg-=1.000=0=0=0 // don't automatically add -songbackground-;
#KEYSOUNDS:;

//---------------dance-single - D. D'Amato----------------
#NOTES:
     dance-single:
     D. D'Amato:
     Hard:
     8:
     0.449,0.471,0.000,0.000,0.355,336.000,0.000,0.000,0.000,0.000,0.000,0.449,0.471,0.000,0.000,0.355,336.000,0.000,0.000,0.000,0.000,0.000:
0000
0000
0000
0000
,
0000
0000
0000
0000
,
0000
0000
0000
0000
,
0000
0000
0000
0000
,
0010
0010
0010
0010
,
0001
0000
1000
0100
0010
0000
0100
0000
,
1000
0000
0010
0001
0100
0000
1000
0000
,
0001
0000
0100
0010
0100
0010
1000
0000
,
0001
0100
0000
0010
0000
1000
0000
0100
,
0000
0001
0000
1000
0000
0010
1000
0100
,
1000
0001
0000
0100
0000
0010
0000
0001
,
1000
0100
0000
0001
0000
1000
0010
0100
,
0001
1000
0010
0000
0100
0000
0010
0001
,
0100
0000
0010
0100
1000
0001
0100
0000
,
0010
0000
0100
0010
1000
0000
0001
0010
,
1000
0000
0100
1000
0010
0000
0100
0000
,
1000
0000
0100
0001
0010
0000
0100
1000
,
0010
0000
0100
0010
0001
1000
0010
0000
,
0100
0000
0010
0100
0001
0000
1000
0100
,
0001
0010
0100
1000
0010
0100
0001
1000
,
0100
0000
0000
0100
0000
0000
0000
0000
0001
0000
0000
0001
0000
0000
0000
0000
,
0100
0000
0010
0001
1000
0000
0010
0000
,
0100
0000
0000
0100
0000
0000
0000
0000
1000
0000
0000
1000
0000
0000
0000
0000
,
0010
0000
0100
1000
0001
0000
0100
0000
,
0010
0000
0000
0010
0000
0000
0000
0000
1000
0000
0000
1000
0000
0000
0000
0000
,
0010
0000
0100
1000
0001
0000
0100
0000
,
0010
0000
0000
0010
0000
0000
0000
0000
0001
0000
0000
0001
0000
0000
0000
0000
,
0100
0000
0010
0001
1000
0000
0010
0000
,
0100
0000
0001
0100
0000
0000
0000
0010
0000
0010
0000
0000
0001
0000
0100
0000
,
0010
0000
1000
0000
0001
0000
0010
0100
,
1000
0000
0010
1000
0000
0000
0000
0000
0010
0000
0000
0000
0001
0000
1000
0000
,
0010
0000
0100
0000
0000
0000
0001
0000
0010
0000
0000
1000
0000
0000
0100
0000
,
0010
0000
1000
0010
0000
0000
0000
0100
0000
0100
0000
0000
1000
0000
0010
0000
,
0100
0000
0001
0000
1000
0000
0100
0010
,
0001
0000
0100
0001
0000
0000
0000
0000
0100
0000
0000
0000
1000
0000
0001
0000
,
0100
0000
0010
0000
0000
0000
1000
0000
0100
0000
0000
0001
0000
0000
0010
0000
,
0100
0000
1000
0001
0000
0100
0000
0010
0000
0100
0000
0001
1000
0000
0100
0000
,
0010
0000
0000
0000
0100
0001
0000
1000
0000
0000
0100
0000
0001
0000
0010
0000
,
0100
0000
1000
0001
0000
0000
0000
0000
0100
0000
0001
0000
0010
0000
0000
0000
,
0100
0000
0000
1000
0000
0000
0000
0001
0000
0000
0010
0000
1000
0000
0100
0000
,
0010
0000
0001
1000
0000
0010
0000
0100
0000
0010
0000
1000
0001
0000
0010
0000
,
0100
0000
0000
0000
0010
1000
0000
0001
0000
0000
0010
0000
1000
0000
0100
0000
,
0010
0000
0001
1000
0000
0000
0000
0000
0010
0000
1000
0000
0100
0000
0000
0000
,
0001
0000
0100
0000
1000
0000
0010
0000
0100
0000
0000
0001
1000
0000
0100
0000
,
0010
0000
1000
0000
0001
0000
0100
0010
0000
0010
0000
1000
0001
0000
1000
0000
,
0100
0000
1000
0000
0010
0001
0000
0100
0000
0000
0000
1000
0001
0000
1000
0000
,
0100
0000
0010
0000
0001
0100
0000
0010
0000
0000
0000
0001
1000
0000
0100
0000
,
0010
0000
0001
0000
0100
0010
0000
1000
0000
0100
0000
0001
0010
0000
1000
0000
,
0100
0000
0001
0000
1000
0000
0010
0100
0000
0100
0000
0001
1000
0000
0001
0000
,
0010
0000
0001
0000
0100
1000
0000
0010
0000
0000
0000
0001
1000
0000
0001
0000
,
0010
0000
0100
0000
1000
0010
0000
0100
0000
0000
0000
1000
0001
0000
0010
0000
,
0100
0000
1000
0000
0010
0100
0000
0001
0000
0010
0000
1000
0100
0000
0001
0000
,
0010
0000
0100
0000
0010
0001
0000
1000
0000
0001
0000
1000
0100
0000
0010
0000
,
0001
0000
1000
0000
0010
0001
0000
0100
0000
0010
0000
0100
1000
0000
0010
0000
,
0100
0000
0001
0000
0010
1000
0000
0100
0000
0010
0000
0100
0001
0000
0010
0000
,
0100
0000
1000
0000
0001
0000
0100
0000
0010
0000
0000
0001
0100
0000
0010
0000
,
1000
0000
0000
0000
;

//---------------dance-single - D. D'Amato----------------
#NOTES:
     dance-single:
     D. D'Amato:
     Challenge:
     9:
     0.539,0.549,0.000,0.000,0.701,404.000,0.000,0.000,0.000,0.000,0.000,0.539,0.549,0.000,0.000,0.701,404.000,0.000,0.000,0.000,0.000,0.000: // measure 1
0000
0000
0000
0000
,  // measure 2
0000
0000
0000
0000
,  // measure 3
0000
0000
0000
0000
,  // measure 4
0000
0000
0000
0000
,  // measure 5
0010
0010
0010
0010
,  // measure 6
0010
0010
0010
0010
,  // measure 7
0001
0000
0000
1000
0000
0000
0100
0000
0010
0000
0000
0000
0100
0000
0000
0000
,  // measure 8
1000
0000
0001
0100
0010
0000
0100
0000
,  // measure 9
0001
0000
1000
0100
0000
0000
0010
0001
0000
0000
1000
0010
0000
0000
0001
0100
,  // measure 10
0000
0000
0010
0001
0000
0000
1000
0100
0000
0000
0010
0000
1000
0000
0001
0000
,  // measure 11
0010
0000
0100
1000
0000
0000
0001
0100
0000
0000
0010
0000
0100
0000
0001
0000
,  // measure 12
1000
0000
0100
0010
0000
0000
1000
0000
0001
0010
0000
0000
0100
0000
1000
0000
,  // measure 13
0100
0000
0010
0000
0001
1000
0000
0010
0000
0000
0000
0100
0000
0000
0010
0000
,  // measure 14
0001
0000
0000
0100
0000
0000
0010
0000
1000
0000
0001
0000
0100
0000
0000
0010
,  // measure 15
0000
0000
0001
0000
1000
0000
0000
0010
0000
0000
0100
0000
0001
0000
0010
0000
,  // measure 16
0100
0000
1000
0000
0010
0000
0000
0100
0000
0000
0010
0000
0001
0100
0000
0010
,  // measure 17
0000
0000
0100
0000
1000
0001
0000
0100
0000
0000
0000
0010
0000
0000
0100
0000
,  // measure 18
1000
0000
0000
0010
0000
0000
0100
0000
0001
0000
1000
0000
0010
0000
0000
0100
,  // measure 19
0000
0000
1000
0000
0001
0000
0000
0100
0000
0000
0010
0000
1000
0000
0100
0000
,  // measure 20
0010
0000
0001
0000
0100
0000
0010
0000
1000
0000
0000
0001
0000
0000
0010
0000
,  // measure 21
0100
0000
0001
1000
0000
0000
0100
0000
0010
0000
0001
0100
0000
0000
0000
0000
,  // measure 22
1000
0000
0000
0100
0000
0010
0000
0000
0001
0000
0000
0000
1000
0000
0000
0000
,  // measure 23
0100
0000
0010
1000
0000
0000
0001
0000
0010
0000
0100
0001
0000
0000
1000
0000
,  // measure 24
0010
0000
0000
0100
0000
0010
0000
0000
0001
0000
0000
0000
0100
0000
0000
0000
,  // measure 25
0010
0000
1000
0001
0000
0000
0010
0000
0100
0000
1000
0010
0000
0000
0000
0000
,  // measure 26
0001
0000
0000
0010
0000
0100
0000
0000
1000
0000
0000
0000
0001
0000
0000
0000
,  // measure 27
0010
0000
0100
0001
0000
0000
1000
0000
0100
0000
0010
1000
0000
0000
0001
0000
,  // measure 28
0100
0000
0000
0010
0000
0100
0000
0000
1000
0000
0000
0000
0010
0000
0000
0000
,  // measure 29
0100
0000
0001
1000
0000
0000
0100
0010
0000
0010
0000
0000
0001
0000
0100
0000
,  // measure 30
0010
0000
0000
0000
1000
0000
0000
0000
0010
0000
0100
0001
0000
0000
0001
0000
,  // measure 31
0010
0000
1000
0100
0000
0000
0001
0000
1000
0000
0000
0000
0010
0000
1000
0000
,  // measure 32
0001
0000
0010
0000
0100
0001
0000
1000
0000
0000
0100
0000
0010
0000
0001
0000
,  // measure 33
0100
0000
1000
0001
0000
0000
0010
0100
0000
0100
0000
0000
1000
0000
0010
0000
,  // measure 34
0100
0000
0000
0000
0001
0000
0000
0000
0100
0000
0010
1000
0000
0000
1000
0000
,  // measure 35
0100
0000
0001
0010
0000
0000
1000
0000
0001
0000
0000
0000
0100
0000
0001
0000
,  // measure 36
1000
0000
0100
0000
0010
1000
0000
0001
0000
0000
0010
0000
0100
0000
1000
0000
,  // measure 37
0010
0100
0001
1000
0000
0000
0100
0010
0000
0001
0000
1000
0010
0000
0100
0000
,  // measure 38
0001
0000
1000
0000
0010
0001
0000
0100
0000
0010
0000
0000
0100
0000
1000
0000
,  // measure 39
0100
0010
1000
0001
0000
0100
0000
0010
0000
1000
0000
0000
0010
0000
0001
0000
,  // measure 40
0100
0000
0001
1000
0000
0000
0100
0001
0000
1000
0000
0010
0001
0000
1000
0000
,  // measure 41
0100
0010
1000
0001
0000
0000
0010
0100
0000
1000
0000
0001
0100
0000
0010
0000
,  // measure 42
1000
0000
0001
0000
0100
1000
0000
0010
0000
0100
0000
0000
0010
0000
0001
0000
,  // measure 43
0010
0100
0001
1000
0000
0010
0000
0100
0000
0001
0000
0000
0100
0000
1000
0000
,  // measure 44
0010
0000
1000
0000
0001
0000
0010
0000
1000
0001
0000
0100
1000
0000
0001
0000
,  // measure 45
0100
0010
0000
1000
0000
0001
0000
0100
0000
0100
0000
1000
0010
0000
0100
1000
,  // measure 46
0001
0000
1000
0000
0100
0001
0000
1000
0000
0100
0000
1000
0001
0000
0010
0000
,  // measure 47
1000
0000
0001
0000
0100
0010
0000
0100
0000
0001
0000
1000
0001
0000
0010
0001
,  // measure 48
1000
0000
0100
0000
0010
0100
0000
1000
0001
0100
0000
0010
0000
0001
1000
0000
,  // measure 49
0010
0100
0000
0001
0000
1000
0000
0010
0000
0010
0000
0001
0100
0000
0010
0001
,  // measure 50
1000
0000
0001
0000
0010
1000
0000
0001
0000
0010
0000
0001
1000
0000
0100
0000
,  // measure 51
0001
0000
1000
0000
0010
0100
0000
0010
0000
1000
0000
0001
1000
0000
0100
1000
,  // measure 52
0001
0000
0010
0000
0100
0010
0000
0001
1000
0010
0000
0100
0000
1000
0001
0000
,  // measure 53
0100
0010
0000
1000
0000
0001
1000
0100
0000
0001
0000
1000
0010
0000
0100
1000
,  // measure 54
0001
0000
1000
0000
0100
0001
0000
1000
0001
0010
0000
1000
0001
0000
0010
0000
,  // measure 55
1000
0000
0001
0000
0100
0010
0000
0100
0000
1000
0010
0000
0100
0000
0001
0000
,  // measure 56
1000
0010
0100
0000
0001
0010
0000
1000
0000
0100
0010
1000
0001
0000
0010
0000
,  // measure 57
0100
0000
0000
0000
;

//---------------dance-single - D. D'Amato----------------
#NOTES:
     dance-single:
     D. D'Amato:
     Medium:
     6:
     0.348,0.340,0.000,0.000,0.005,261.000,0.000,0.000,0.000,0.000,0.000,0.348,0.340,0.000,0.000,0.005,261.000,0.000,0.000,0.000,0.000,0.000:
0000
0000
0000
0000
,
0000
0000
0000
0000
,
0000
0000
0000
0000
,
0000
0000
0000
0000
,
0010
0010
0010
0010
,
0100
0010
1000
0001
,
0100
0100
0100
0100
,
0010
0100
0001
1000
,
0001
0100
0000
1000
0000
0001
0000
0010
,
0000
0100
0000
1000
0000
0001
0000
0010
,
0000
1000
0000
0001
0000
0100
0000
0010
,
0000
0001
0000
1000
0000
0100
0000
0010
,
1000
0001
0100
0000
1000
0000
0100
0010
,
1000
0000
0001
0000
1000
0000
0001
1000
,
0010
0000
0100
0000
1000
0000
0001
1000
,
0100
0000
0010
1000
0010
0000
0001
0000
,
1000
0001
0010
0000
1000
0000
0010
0100
,
1000
0000
0001
0000
1000
0000
0001
1000
,
0100
0000
0010
0000
1000
0000
0001
1000
,
0010
0000
0100
1000
0100
0000
0001
0000
,
1000
0000
1000
0000
,
0010
0010
0010
0100
,
1000
0000
1000
0000
,
0100
0100
0100
0010
,
0001
0000
0001
0000
,
0010
0010
0010
0100
,
0001
0000
0001
0000
,
0100
0100
0100
0010
,
0100
0001
0100
0000
1000
1000
0000
0001
,
0010
0100
0010
1000
,
0010
0001
0010
0000
1000
0000
0001
0000
,
0100
0010
0100
0001
,
0100
1000
0100
0000
0001
0001
0000
1000
,
0010
0100
0010
0001
,
0010
1000
0010
0000
0001
0000
1000
0000
,
0100
0000
0010
0000
0100
0000
1000
0100
,
0010
1000
0010
0000
0100
1000
0000
1000
,
0100
0000
0001
0000
1000
0010
1000
0000
,
0010
0001
0010
0000
1000
0000
0010
0000
,
0001
0010
0100
0001
0000
1000
0010
0000
,
0100
1000
0100
0000
0010
1000
0000
1000
,
0010
0000
0001
0000
1000
0100
1000
0000
,
0100
0001
0100
0000
1000
0000
0100
0000
,
0001
0100
0010
0001
0000
1000
0100
0010
,
1000
0001
1000
0000
0001
0100
0010
0001
,
0010
0000
0010
1000
0010
0000
0100
1000
,
0100
0000
0100
0001
0100
0000
0001
1000
,
0001
0000
1000
0001
1000
0010
0000
0100
,
1000
0001
1000
0000
0001
0010
0100
0001
,
0100
0000
0100
1000
0100
0000
0010
1000
,
0010
0000
0010
0001
0010
0000
0001
1000
,
0001
0000
1000
0001
1000
0100
0010
0100
,
1000
0001
0010
0000
0100
0001
1000
0010
,
1000
0000
0001
0100
0001
0000
1000
0010
,
0100
1000
0001
0010
0001
0000
1000
0100
,
1000
0000
0000
0000
0001
0000
0010
0000
0100
0000
0000
0001
0000
0000
1000
0000
,
0001
0000
0000
0000
;

//---------------dance-single - D. D'Amato----------------
#NOTES:
     dance-single:
     D. D'Amato:
     Easy:
     2:
     0.188,0.183,0.000,0.000,0.000,141.000,0.000,0.000,0.000,0.000,0.000,0.188,0.183,0.000,0.000,0.000,141.000,0.000,0.000,0.000,0.000,0.000:
0000
0000
0000
0000
,
0000
0000
0000
0000
,
0000
0000
0000
0000
,
0000
0000
0000
0000
,
0010
0010
0010
0010
,
0001
0000
0100
0000
,
1000
0000
0001
0000
,
0100
0010
0001
1000
,
0100
0000
0010
0000
,
0001
0000
0100
1000
,
0001
0000
0010
0000
,
1000
0001
0010
0100
,
1000
0001
0000
0100
,
0000
1000
0010
1000
,
0100
0000
0001
0000
,
1000
0010
0100
0000
,
0001
1000
0000
0010
,
0000
0001
0100
0001
,
0010
0000
1000
0000
,
0001
0100
0010
0000
,
1000
0000
0000
0000
,
1000
0000
0000
0000
,
0100
0000
0000
0000
,
0100
0000
0000
0000
,
0010
0000
0000
0000
,
0010
0000
0000
0000
,
0001
0000
0000
0000
,
0001
0000
0000
0100
,
0010
1000
0000
0001
,
0010
0000
1000
0100
,
0001
0000
0100
0000
,
0010
1000
0001
0010
,
0100
0001
0000
1000
,
0100
0000
0001
0010
,
1000
0000
0010
0000
,
0100
0001
1000
0100
,
0001
0001
0100
0000
,
0010
1000
0000
0100
,
1000
1000
0100
0001
,
0000
1000
0000
0010
,
1000
1000
0010
0000
,
0100
0001
0000
0010
,
0001
0001
0010
1000
,
0000
0001
0000
0100
,
0010
0010
1000
0000
,
0001
0100
0000
0010
,
1000
0100
0000
0001
,
1000
0010
0000
0001
,
0100
0100
0001
0000
,
1000
0010
0000
0100
,
0001
0010
0000
1000
,
0001
0100
0000
1000
,
0100
0100
0001
1000
,
0010
0100
0000
0010
,
1000
0001
0010
1000
,
0001
0100
0010
0000
,
1000
0000
0000
0000
;

//---------------dance-double - M. Emirzian----------------
#NOTES:
     dance-double:
     M. Emirzian:
     Easy:
     4:
     0.240,0.262,0.168,0.019,0.000,160.000,18.000,2.000,0.000,0.000,0.000,0.240,0.262,0.168,0.019,0.000,160.000,18.000,2.000,0.000,0.000,0.000:
00000000
00000000
00000000
00000000
,
00000000
00000000
00000000
00000000
,
00000000
00000000
00000000
00000000
,
00000000
00000000
00000000
00000000
,
10000000
00010000
10000000
00000000
,
10000000
00010000
10000000
00000000
,
00001000
00010000
00001000
00000000
,
00010000
00001000
00010000
00000000
,
00000001
00001000
00000100
00000010
,
00000001
00000000
00001100
00000000
,
00000010
00001000
00000100
00001000
,
00000010
00000000
00010010
00000000
,
00010000
00001000
01000000
00010000
,
00100000
00100000
00010000
00010000
,
01000000
00100000
10000000
00010000
,
01000000
01000000
00100000
00100000
,
10000000
01000000
00100000
00010000
,
01000000
01000000
00001000
00001000
,
00010000
00000010
00001000
00000100
,
00000010
00000010
00000001
00000001
,
00000100
00000000
00000000
00000000
,
00000000
00000000
00000000
00000000
,
00001001
00000000
00000000
00000000
,
00000000
00000000
00000000
00000000
,
10010000
00000000
00000000
00000000
,
00000000
00000000
00000000
00000000
,
00001001
00000000
00000000
00000000
,
00000000
00000000
00000000
00000000
,
00001000
00010000
00001000
01000000
,
00100000
01000000
00010000
10010000
,
01000000
00100000
10000000
01000000
,
00100000
00010000
01000000
01001000
,
00001000
00010000
00000010
00001000
,
00000100
00000010
00000001
00001001
,
00000020
00000000
00000000
00000000
,
00000230
00000000
00000000
00000000
,
00001300
00000010
00000100
00000001
,
00001000
00000100
00000100
00000000
,
00000010
00000100
00001000
00000010
,
00010000
00001000
00001000
00000000
,
01000000
00010000
00100000
10000000
,
01000000
00010000
00010000
00000000
,
00100000
00001000
00010000
00000100
,
00000010
00000001
00000001
00000000
,
00001000
00000010
00000100
00001010
,
00000100
00010000
00001000
01001000
,
00010000
00100000
01000000
10010000
,
00100000
01000000
00010000
01001000
,
00010000
00000010
00001000
00010010
,
00000100
00000010
00000001
00001010
,
00000100
00000010
00001000
00010100
,
00010000
00001000
01000000
10010000
,
00100000
01000000
00010000
11000000
,
10000000
00100000
01000000
00000000
,
01000000
00001000
01000000
00000000
,
00001000
00010000
00001000
00000000
,
00010010
00000000
00000000
00000000
;

//---------------dance-double - M. Emirzian----------------
#NOTES:
     dance-double:
     M. Emirzian:
     Medium:
     6:
     0.359,0.366,0.159,0.000,0.000,252.000,17.000,0.000,0.000,0.000,0.000,0.359,0.366,0.159,0.000,0.000,252.000,17.000,0.000,0.000,0.000,0.000:
00000000
00000000
00000000
00000000
,
00000000
00000000
00000000
00000000
,
00000000
00000000
00000000
00000000
,
00000000
00000000
00000000
00000000
,
10000000
00010000
10000000
01000000
,
10000000
00010000
00100000
00010000
,
01000000
00001000
01000000
00010000
,
01000000
00100000
01000000
00001000
,
00010000
00001000
00010000
00000100
00000000
00001000
00000010
00000100
,
00000000
00000010
00001000
00000001
00000000
00001000
00000100
00000000
,
00000010
00000001
00000100
00000000
00000001
00000100
00001000
00000000
,
00010000
00100000
10000000
00000000
01000000
00100000
00010000
00000000
,
10000000
00100000
10000000
01000000
00100000
00000000
00110000
00000000
,
00100000
00010000
01000000
00010000
00100000
00000000
00101000
00000000
,
00010000
00001000
00010000
00000010
00001000
00000000
00001100
00000000
,
00000010
00000001
00000100
00000010
00001000
00000100
00001000
00000000
,
00000010
00000100
00000001
00001000
00000100
00000000
00010100
00000000
,
00010000
00001000
00000100
00001000
00010000
00000000
00011000
00000000
,
00010000
00001000
01000000
00100000
10000000
00000000
11000000
00000000
,
00100000
00010000
01000000
10000000
01000000
00010000
00100000
00000000
,
10010000
01000000
00000000
00000000
,
00000000
00000000
00000000
00000000
,
00011000
00000010
00000000
00000000
,
00000000
00000000
00000000
00000000
,
00001001
00000100
00000000
00000000
,
00000000
00000000
00000000
00000000
,
10010000
00100000
00000000
00000000
,
00000000
00000000
00000000
00000000
,
10000000
01000000
00010000
00000000
00001000
00000000
00000100
00000000
,
00000001
00000010
00001000
00010000
,
00100000
10000000
01000000
00000000
10000000
00000000
00100000
00000000
,
01000000
00001000
00010000
00000100
,
00000010
00000100
00001000
00000001
00000100
00000000
00001010
00000000
,
00001000
00000100
00001000
00000000
00000001
00000100
00000001
00000000
,
00001000
00000000
00010000
00000000
,
10000000
00000000
01000000
00100000
,
00010000
10000000
01000000
00010000
01000000
00000000
10000000
00000000
,
00100000
01000000
00010000
00100000
00010000
00000000
01000000
00000000
,
00001000
00010000
00001000
00000000
00010000
00000100
00010000
00000000
,
00001000
00000010
00000001
00000100
,
00000010
00001000
00000100
00010000
00001000
00000000
01001000
00000000
,
01000000
00100000
01000000
00010000
00100000
00000000
10010000
00000000
,
01000000
00100000
01000000
00000000
00100000
00010000
00100000
00000000
,
01000000
10000000
00100000
00010000
,
00001000
00010000
00001000
00000000
00000100
00010000
00000100
00001000
,
00000100
00000000
00000010
00000100
00000001
00000100
00000010
00000000
,
00001000
00000010
00000100
00000010
00001000
00000000
00000100
00010000
,
00001000
00000100
00001000
00000000
00010000
00001000
01000000
00000000
,
00001000
00010000
00100000
01000000
00010000
01000000
00100000
00000000
,
10010000
00000000
11000000
00000000
00100000
00010000
00100000
00000000
,
00000010
00001000
00000010
00000000
00010000
00001000
00010000
00000000
,
00100000
00010000
00000010
00000100
,
00000001
00001000
00000100
00000000
00000010
00000001
00000100
00000001
,
00000010
00000000
00000100
00000010
00001000
00000100
00010000
00000000
,
00001000
00010000
00100000
00010000
00001000
00000000
00011000
00000000
,
00001000
01000000
00010000
00100000
01000000
10000000
00100000
00000000
,
01010000
00000000
00000000
00000000
;

//---------------dance-double - M. Emirzian----------------
#NOTES:
     dance-double:
     M. Emirzian:
     Hard:
     7:
     0.455,0.419,0.262,0.019,0.126,311.000,28.000,2.000,0.000,0.000,0.000,0.455,0.419,0.262,0.019,0.126,311.000,28.000,2.000,0.000,0.000,0.000:
00000000
00000000
00000000
00000000
,
00000000
00000000
00000000
00000000
,
10000000
10000000
01000000
01000000
,
00100000
00100000
20020000
30030000
,
10000000
00100000
10100000
10010000
,
01000000
00001000
00011000
00010100
,
00000010
00000001
00000101
00001001
,
00000010
00010000
00011000
01001000
,
00010000
00000000
01000000
00100000
00000000
00000000
10000000
00000000
01000000
00000000
00100000
00000000
00010000
00000000
01000000
00000000
,
00001000
00010000
00000010
00001000
00000100
00000010
00000001
00000000
,
00000010
00000000
00000100
00001000
00000000
00000000
00000001
00000000
00000100
00000000
00000010
00000000
00001000
00000000
00000100
00000000
,
00010000
00001000
00100000
00010000
01000000
00100000
10000000
00000000
,
10000000
00000000
00010000
01000000
00000000
00000000
00100000
00000000
10000000
00000000
01000000
00000000
00100000
00000000
00010000
00000000
,
01000000
00001000
00010000
00000100
00001000
00000010
00000100
00000000
,
00000001
00000000
00000100
00000010
00000000
00000000
00001000
00000000
00001001
00000000
00000000
00000000
00001010
00000000
00000000
00000000
,
00010000
00000000
00001000
00010000
00000000
00000000
00000100
00000000
00011000
00000000
00000000
00000000
01001000
00000000
00000000
00000000
,
00010000
00000000
01000000
00100000
00000000
00000000
10000000
00000000
00010000
00000000
00100000
00000000
01000000
00000000
10000000
00000000
,
00010000
01000000
00001000
00010000
00000010
00001000
00000100
00000000
,
00000010
00000000
00000001
00001000
00000000
00000000
00000010
00000000
00000100
00000000
00000001
00000000
00000010
00000000
00000100
00000000
,
00001000
00000010
00010000
00001000
01000000
00010000
00100000
00000000
,
10010000
00000000
01000000
00100000
00000000
00000000
00000000
00000000
00000000
00000000
00000000
00000000
00000000
00000000
00000000
00000000
,
00000000
00000000
00000000
00000000
,
00001001
00000000
00000010
00000100
00000000
00000000
00000000
00000000
00000000
00000000
00000000
00000000
00000000
00000000
00000000
00000000
,
00000000
00000000
00000000
00000000
,
01001000
00000000
00010000
01000000
00000000
00000000
00000000
00000000
00000000
00000000
00000000
00000000
00000000
00000000
00000000
00000000
,
00000000
00000000
00000000
00000000
,
00010010
00000000
00001000
00000010
00000000
00000000
00000000
00000000
00000000
00000000
00000000
00000000
00000000
00000000
00000000
00000000
,
00000000
00000000
00000000
00000000
,
00000001
00000000
00000100
00000010
00000000
00000000
00000000
00001000
00000000
00000100
00000000
00000000
00000000
00000000
00001000
00000000
,
00000010
00010000
00010100
00011000
,
00001000
00000000
01000000
00010000
00000000
00000000
01000000
00000000
00100000
00000000
00000000
00000000
10010000
00000000
00000000
00000000
,
01000000
00100000
00101000
00011000
,
00010000
00000000
00000100
00001000
00000000
00000000
00000010
00000000
00000100
00000000
00000001
00000000
00000010
00000000
00000100
00000000
,
00001000
00000010
00010000
00001000
01000000
00010000
00100000
00000000
,
01000000
10000000
00010000
00010000
,
01000000
01000000
00100000
00100000
,
10000000
00000000
01000000
00100000
00000000
00000000
00010000
00000000
01000000
00000000
00100000
00000000
10000000
00000000
01000000
00000000
,
00100000
00001000
00010000
00000100
00000010
00000001
00000100
00000000
,
00000010
00000000
00001000
00000001
00000000
00000000
00000010
00000000
00001100
00000000
00000000
00000000
00001010
00000000
00000000
00000000
,
00010000
00000000
00001000
00010000
00000000
00000000
00000100
00000000
00010100
00000000
00000000
00000000
01001000
00000000
00000000
00000000
,
01000000
00000000
00010000
10000000
00000000
00000000
00010000
00000000
01000000
00000000
00100000
00000000
10000000
00000000
01000000
00000000
,
00100000
00010000
01000000
00001000
00010000
00000010
00001000
00000000
,
00000100
00000000
00000010
00000100
00000000
00000000
00001000
00000000
00001010
00000000
00000000
00000000
00010010
00000000
00000000
00000000
,
00000100
00001000
00000010
00010000
00001000
01000000
00010000
00000000
,
01000000
00000000
00100000
10000000
00000000
00000000
01000000
00000000
00100000
00000000
00010000
00000000
00100000
00000000
01000000
00000000
,
10000000
00000000
00010000
00000000
01000000
00000000
00001000
00000000
00010000
00000000
00000000
00000010
00000000
00000000
00010000
00000000
,
00000100
00001000
00000010
00001000
00000100
00000010
00000001
00000100
,
00000010
00001000
00000100
00010000
00001000
01000000
00010000
00000000
,
00100000
00000000
01000000
10000000
00000000
00000000
00100000
00000000
01000000
00000000
00010000
00000000
00100000
00000000
00001000
00000000
,
00010000
00000000
00000010
00000000
00001000
00000000
00000100
00000000
00000010
00000000
00000000
00000001
00000000
00000000
00001000
00000000
,
00000010
00001000
00000100
00000010
00000001
00000100
00000010
00001000
,
00000100
00010000
00001000
00100000
00010000
01000000
00100000
00000000
,
10000000
00000000
00010000
01000000
00000000
00000000
00100000
00000000
01000000
00000000
00010000
00000000
10000000
00000000
01000000
00000000
,
00100000
00000000
00010000
00000000
00100000
00000000
00001000
00000000
00010000
00000000
00000000
00000100
00000000
00000000
00001000
00000000
,
00000010
00000100
00000001
00000010
00000100
00001000
00000010
00010000
,
00001000
01000000
00100000
10000000
01000000
00100000
00010000
00000000
,
01000000
00000000
00000000
00000000
;

//---------------dance-double - M. Emirzian----------------
#NOTES:
     dance-double:
     M. Emirzian:
     Challenge:
     9:
     0.622,0.602,0.598,0.178,0.425,383.000,64.000,19.000,0.000,8.000,0.000,0.622,0.602,0.598,0.178,0.425,383.000,64.000,19.000,0.000,8.000,0.000:
00000000
00000000
00000000
00000000
,
00000000
00000000
00000000
00000000
,
00001100
00000000
00010010
00000000
00001000
00010100
00011000
00000000
,
00101000
01100000
20020000
30030000
,
00100000
11000000
00100000
01010000
,
00001000
00011000
00100010
00011000
,
00010000
00010100
00000000
00001000
00010010
00000000
00000100
00001001
,
00000000
00000010
00001100
00000000
00000010
00010010
00011000
00000000
,
00010000
00000000
00001000
01000000
00001000
00000000
01000000
00000000
00010000
00000000
10000000
01000000
10000000
00000000
00100000
00000000
,
10000000
00000000
01000000
00100000
01000000
00000000
00100000
00000000
00010000
00000000
01000000
00001000
01000000
00000000
00001000
00000000
,
00010000
00000000
00000010
00010000
00000010
00000000
00001000
00000000
00000100
00000000
00000010
00000001
00000010
00000000
00000100
00000000
,
00001000
00000000
00000001
00000100
00000001
00000000
00001000
00000000
00000010
00000000
00010000
00001000
00010000
00000000
00001000
00000000
,
01000000
00000000
00100000
01000000
00000000
00000000
00100000
00000000
10010000
00000000
01000000
00100000
00000000
00000000
00010000
00000000
,
01001000
00000000
00010000
00001000
00000000
00000000
00000010
00000000
00001100
00000000
00000001
00000010
00000000
00000000
00000001
00000000
,
00001100
00000000
00000010
00000100
00000000
00000000
00001000
00000000
00010010
00000000
00000010
00001000
00000000
00000000
00000100
00000000
,
00011000
00000000
00001000
01000000
00000000
00000000
00100000
00000000
01010000
00000000
10000000
00100000
00000000
00000000
10000000
00000000
,
01000000
00100000
00010000
01000000
00001000
00010000
00000010
00001000
,
00000100
00000010
00000001
00000100
00000010
00001000
00000100
00000000
,
00000110
00001001
00000000
00011000
00010100
00000000
01000100
00001000
,
01000000
00010000
00101000
00110000
10010000
00000000
00000000
00000000
,
20000000
02000000
00200000
00020000
00000000
00000000
00000000
00000000
33330000
00000000
00000000
00000000
00000000
00000000
00000000
00000000
,
00000000
00000000
00000000
00000000
,
00020000
00002000
00200000
00000020
00000000
00000000
00000000
00333030
00000000
00000000
00000000
00000000
00000000
00000000
00000000
00000000
,
00000000
00000000
00000000
00000000
,
00000020
00000200
00002000
00020000
00000000
00000000
00000000
00033330
00000000
00000000
00000000
00000000
00000000
00000000
00000000
00000000
,
00000000
00000000
00000000
00000000
,
02000000
00002000
00200000
00020000
00000000
00000000
00000000
03333000
00000000
00000000
00000000
00000000
00000000
00000000
00000000
00000000
,
00000000
00000000
00200000
00000000
,
10300000
01000000
00100000
00010000
00000000
00000000
00000000
00100000
00000000
10010000
00000000
00000000
00100000
00000000
10000000
00000000
,
01000000
00100000
00010000
01000000
00001000
00011000
00010100
00000000
,
00001000
00000100
00000010
00000001
00000000
00000000
00000000
00000000
00000010
00000000
00000001
00000000
00000100
00000000
00000010
00000000
,
00001000
00000100
00010000
00001000
01000000
01010000
01001000
00000000
,
01000000
00100000
10000000
00010000
00000000
00000000
00000000
01000000
00000000
10100000
00000000
00000000
10000000
00000000
01000000
00000000
,
00100000
00001000
00010000
00000100
00001000
01000100
00011000
00000000
,
00100000
01000100
00010000
00001010
,
00000100
00010001
00001000
01001000
,
00010000
00001000
00100000
00010000
00000000
00000000
00000000
01010000
00000000
00110000
00000000
00000000
10000000
00000000
00100000
00000000
,
01000000
00000000
00010000
01000000
00010000
00000000
10000000
01000000
10000000
00000000
00010000
00100000
00010000
00000000
00100000
00000000
,
00001000
00010000
00000010
00001000
00000000
00000000
00000000
00000000
00000100
00000000
00000010
00000001
00000010
00000000
00000100
00001000
,
00000100
00000000
00000010
00000100
00000010
00000000
00000100
00010000
00000100
00000000
00010000
00001000
00010000
00000000
00000100
00000000
,
00010000
00001000
01000000
00010000
00000000
00000000
00000000
10100000
00000000
11000000
00000000
00000000
00100000
00000000
10000000
00000000
,
01000000
00000000
00100000
00010000
00100000
00000000
00001000
00010000
00001000
00000000
01000000
00000100
01000000
00000000
00001000
00000000
,
00010000
00000100
00001000
00000010
00000000
00000000
00000000
00000000
00001000
00000000
00000100
00010000
00000100
00000000
00001000
00000010
,
00001000
00000010
00001010
00010010
00001000
00001100
00001001
00000010
,
00001000
00000000
00000100
00000010
00000100
00000000
00001000
00000001
00000000
00000100
00000000
00000100
00000000
00000000
00000010
00000000
,
00001010
00000000
00000100
00001000
00000000
00000000
00010000
00000000
00010100
00000000
00010000
00001000
00000000
00000000
00010000
00000000
,
00001000
00000000
01000000
00001000
01000000
00000000
00010000
00100000
00010000
00000000
00100000
00001000
00100000
00000000
00000010
00010000
,
00000010
00000000
00001000
00000000
00000100
00000000
00010000
00000000
00001000
00000000
01000000
00010000
00000000
00000000
01000000
00000000
,
00100000
00000000
10000000
01000000
10000000
00000000
00100000
01000000
00000000
00010000
00000000
00010000
00000000
00000000
01000000
00000000
,
10010000
00000000
00100000
01000000
00000000
00000000
00010000
00000000
01100000
00000000
10000000
00010000
00000000
00000000
00100000
00000000
,
10000000
00000000
01000000
00100000
01000000
00000000
00010000
01000000
00010000
00000000
00001000
00010000
00001000
00000000
00100000
00000010
,
00100000
00000000
00001000
00000000
00010000
00000000
00000100
00000000
00000010
00000000
00000001
00001000
00000000
00000000
00000010
00000000
,
00000100
00000000
00000001
00000100
00000001
00000000
00001000
00000100
00000000
00000010
00000000
00000010
00000000
00000000
00000001
00000000
,
00001001
00000000
00000010
00000100
00000000
00000000
00000010
00000000
00010010
00000000
00010000
00001000
00000000
00000000
00010000
00000000
,
00001000
00000000
01000000
00001000
01000000
00000000
00010000
00100000
00010000
00000000
10000000
00010000
10000000
00000000
01000000
00100000
,
01000000
10000000
10100000
10010000
01000000
01001000
00011000
00000000
,
01000100
00000000
00000000
00000000
;

//---------------dance-single - J. Frederick----------------
#NOTES:
     dance-single:
     J. Frederick:
     Beginner:
     1:
     0.071,0.078,0.037,0.000,0.000,49.000,4.000,0.000,0.000,0.000,0.000,0.071,0.078,0.037,0.000,0.000,49.000,4.000,0.000,0.000,0.000,0.000:
0000
0000
0000
0000
,
0000
0000
0000
0000
,
0000
0000
0000
0000
,
0000
0000
0000
0000
,
1000
0000
0000
0000
,
0001
0000
0000
0000
,
0010
0000
0000
0000
,
0100
0000
0000
0000
,
0001
0000
0000
0000
,
1000
0000
0000
0000
,
0010
0000
0000
0000
,
0100
0000
0000
0000
,
1000
0000
0000
0000
,
0001
0000
0000
0000
,
0100
0000
0000
0000
,
0010
0000
0000
0000
,
0100
0000
0000
0000
,
1000
0000
0000
0000
,
0001
0000
0000
0000
,
0100
0000
0000
0000
,
0010
0000
0000
0000
,
0000
0000
0000
0000
,
0100
0000
0000
0000
,
0000
0000
0000
0000
,
1000
0000
0000
0000
,
0000
0000
0000
0000
,
0001
0000
0000
0000
,
0000
0000
0000
0000
,
0110
0000
0000
0000
,
1000
0000
0000
0000
,
0001
0000
0000
0000
,
0010
0000
0000
0000
,
0100
0000
0000
0000
,
0001
0000
0000
0000
,
1000
0000
0000
0000
,
0010
0000
0000
0000
,
0110
0000
0000
0000
,
0001
0000
0000
0000
,
1000
0000
0000
0000
,
0100
0000
0000
0000
,
0010
0000
0000
0000
,
0001
0000
0000
0000
,
1000
0000
0000
0000
,
0100
0000
0000
0000
,
0010
0000
0000
0000
,
0100
0000
0000
0000
,
1000
0000
0000
0000
,
0001
0000
0000
0000
,
0010
0000
0000
0000
,
0100
0000
0000
0000
,
1000
0000
0000
0000
,
0001
0000
0000
0000
,
1001
0000
0000
0000
,
0100
0000
0000
0000
,
0010
0000
0000
0000
,
1000
0000
0000
0000
,
1001
0000
0000
0000
;

//---------------dance-single - J. Frederick----------------
#NOTES:
     dance-single:
     J. Frederick:
     Beginner:
     1:
     0.071,0.000,0.037,0.000,0.000:
0000
0000
0000
0000
,
0000
0000
0000
0000
,
0000
0000
0000
0000
,
0000
0000
0000
0000
,
1000
0000
0000
0000
,
0001
0000
0000
0000
,
0010
0000
0000
0000
,
0100
0000
0000
0000
,
0001
0000
0000
0000
,
1000
0000
0000
0000
,
0010
0000
0000
0000
,
0100
0000
0000
0000
,
1000
0000
0000
0000
,
0001
0000
0000
0000
,
0100
0000
0000
0000
,
0010
0000
0000
0000
,
0100
0000
0000
0000
,
1000
0000
0000
0000
,
0001
0000
0000
0000
,
0100
0000
0000
0000
,
0010
0000
0000
0000
,
0000
0000
0000
0000
,
0100
0000
0000
0000
,
0000
0000
0000
0000
,
1000
0000
0000
0000
,
0000
0000
0000
0000
,
0001
0000
0000
0000
,
0000
0000
0000
0000
,
0110
0000
0000
0000
,
1000
0000
0000
0000
,
0001
0000
0000
0000
,
0010
0000
0000
0000
,
0100
0000
0000
0000
,
0001
0000
0000
0000
,
1000
0000
0000
0000
,
0010
0000
0000
0000
,
0110
0000
0000
0000
,
0001
0000
0000
0000
,
1000
0000
0000
0000
,
0100
0000
0000
0000
,
0010
0000
0000
0000
,
0001
0000
0000
0000
,
1000
0000
0000
0000
,
0100
0000
0000
0000
,
0010
0000
0000
0000
,
0100
0000
0000
0000
,
1000
0000
0000
0000
,
0001
0000
0000
0000
,
0010
0000
0000
0000
,
0100
0000
0000
0000
,
1000
0000
0000
0000
,
0001
0000
0000
0000
,
1001
0000
0000
0000
,
0100
0000
0000
0000
,
0010
0000
0000
0000
,
1000
0000
0000
0000
,
1001
0000
0000
0000
;
