#TITLE:Art City;
#SUBTITLE:;
#ARTIST:Virgill;
#TITLETRANSLIT:;
#SUBTITLETRANSLIT:;
#ARTISTTRANSLIT:;
#GENRE:Techno;
#CREDIT:;
#BANNER:Art City-bn.png;
#BACKGROUND:Art City-bg.png;
#LYRICSPATH:;
#CDTITLE:;
#MUSIC:Art City.ogg;
#OFFSET:0.004;
#SAMPLESTART:62.840;
#SAMPLELENGTH:11.860;
#SELECTABLE:YES;
#BPMS:0.000=122.140;
#STOPS:;
#BGCHANGES:0.218=Art City.mpg=1.000=1=0=0=StretchNoLoop==CrossFade==,
99999=-nosongbg-=1.000=0=0=0 // don't automatically add -songbackground-;
#KEYSOUNDS:;

//---------------dance-single - K. Ward----------------
#NOTES:
     dance-single:
     K. Ward:
     Medium:
     5:
     0.245,0.249,0.220,0.230,0.014,132.000,23.000,24.000,0.000,0.000,0.000,0.245,0.249,0.220,0.230,0.014,132.000,23.000,24.000,0.000,0.000,0.000:
0000
0000
0000
0000
,
0000
0000
0000
0000
,
0000
0000
0000
0000
,
0000
0000
0000
0000
,
1000
1000
0000
0000
0100
0000
0000
0000
,
0010
0010
0000
0000
0000
0000
0110
0000
,
1001
0001
0000
0000
0010
0000
0000
0000
,
0000
0100
0010
0100
1000
0000
0001
0000
,
0100
0100
0000
0000
,
0010
0010
0000
0000
,
0100
0100
0000
0000
,
0010
0100
0010
0100
,
0010
0000
0011
0000
,
0100
0000
1100
0000
,
0010
0100
0010
0000
1001
0000
0000
0000
,
0100
0010
0100
0000
1001
0000
0000
0000
,
0100
0000
0000
0000
0100
0000
0000
0100
0000
0000
0000
0000
0000
0000
0000
0000
,
0010
0000
0000
0000
0010
0000
0000
0010
0000
0000
0000
0000
0000
0000
0000
0000
,
0100
0000
0000
0000
0100
0000
0000
0100
0000
0000
0000
0000
0000
0000
0000
0000
,
0010
0001
0100
1000
,
2002
0000
0000
3003
,
0220
0000
0000
0330
,
0001
1000
0001
1000
0001
0000
0000
0000
,
1000
0001
1000
0001
1000
0000
0000
0000
,
0220
0000
0330
0000
,
2002
0000
3003
0000
,
0010
0100
0001
0000
0010
0000
0000
0000
,
0100
1000
0100
0000
1010
0000
0000
0000
,
0200
0000
0000
0000
,
0020
0000
0000
0000
,
0330
1001
0000
0100
,
0000
0110
0000
0011
,
0000
0000
0100
1000
0100
0000
0100
0000
,
0000
0000
0001
0010
0001
0000
0001
0000
,
0000
2002
0000
3003
,
0000
0220
0000
0330
,
0000
0000
0001
0010
0100
0000
0200
0000
,
0300
0000
0100
0010
0001
0000
0002
0000
,
0003
0220
0000
0000
,
0330
2002
0000
0000
,
3003
0000
0100
0100
0100
0000
0000
0000
,
0000
0000
0010
0010
0010
0000
0000
0000
,
0000
0000
1000
0001
1000
0001
1000
0000
,
0000
0000
0001
1000
0001
1000
0001
0000
,
0000
0000
0010
0100
1000
0000
1001
0000
,
0000
0000
0010
0100
0001
0000
0011
0000
,
0000
2002
0000
3003
,
0000
0220
0000
0330
,
0000
0000
1000
0001
0000
0000
0000
0000
,
0000
0000
0001
1000
0000
0000
0000
0000
,
0000
0000
0100
0010
0000
0000
0000
0000
,
0000
0000
0010
0100
0000
0000
0000
0000
,
1001
0000
0000
0000
;

//---------------dance-double - M.Emirzian----------------
#NOTES:
     dance-double:
     M.Emirzian:
     Easy:
     2:
     0.107,0.100,0.010,0.000,0.000,77.000,1.000,0.000,0.000,0.000,0.000,0.107,0.100,0.010,0.000,0.000,77.000,1.000,0.000,0.000,0.000,0.000:
00000000
00000000
00000000
00000000
,
00000000
00000000
00000000
00000000
,
00000000
00000000
00000000
00000000
,
00000000
00000000
00000000
00000000
,
10000000
00000000
00000000
00000000
,
00010000
00000000
00000000
00000000
,
01000000
00000000
00100000
00000000
,
01000000
00000000
00000000
00000000
,
00001000
00000000
00001000
00000000
,
00010000
00000000
00010000
00000000
,
00000100
00000000
00000100
00000000
,
00000010
00000000
00000010
00000000
,
00000100
00000000
00000100
00000000
,
00000001
00000000
00000001
00000000
,
00001000
00000000
00001000
00000000
,
00010000
00000000
00010000
00000000
,
01000000
00000000
01000000
00000000
,
10000000
00000000
10000000
00000000
,
00010000
00000000
00010000
00000000
,
00100000
00000000
00100000
00000000
,
00000000
10000000
00000000
00010000
,
00000000
10000000
00000000
00001000
,
00001000
00000000
00000000
00000000
,
00010000
00000000
00000000
00000000
,
00000000
00010000
00000000
00001000
,
00000000
00010000
00000000
00000100
,
00000100
00000000
00000000
00000000
,
00000001
00000000
00000000
00000000
,
00000010
00000000
00000000
00000000
,
00001000
00000000
00000000
00000100
,
00000100
00000000
00000000
00010000
,
00010000
00000000
00000000
10000000
,
10000000
00000000
00010000
00000000
,
10000000
00000000
00000000
01000000
,
01000000
00000000
00000000
00000000
,
00010000
00000000
00000000
00000000
,
00000100
00000000
00000010
00000000
,
00000100
00000000
00000000
00000001
,
00000001
00000000
00000000
00000000
,
00000010
00000000
00000000
00000000
,
00001000
00000000
00000100
00000000
,
00001000
00000000
00000000
00010000
,
00010000
00000000
00000000
00000000
,
00001000
00000000
00000000
00000000
,
00010000
00000000
10000000
00000000
,
00010000
00000000
00000000
01000000
,
01000000
00000000
00000000
00000000
,
00010000
00000000
00000000
00000000
,
00001000
00000000
00000000
00000000
,
00000100
00000000
00000000
00000000
,
00000001
00000000
00000000
00000000
,
00001000
00000000
00000000
00000000
,
00011000
00000000
00000000
00000000
;

//---------------dance-double - Blank----------------
#NOTES:
     dance-double:
     Blank:
     Medium:
     4:
     0.230,0.249,0.057,0.096,0.000,152.000,6.000,10.000,0.000,0.000,0.000,0.230,0.249,0.057,0.096,0.000,152.000,6.000,10.000,0.000,0.000,0.000:
00000000
00000000
00000000
00000000
,
00000000
00000000
00000000
00000000
,
00000000
00000000
00000000
00000000
,
00000000
00000000
00000000
00000000
,
00000000
00010000
00000000
00000000
10000000
00000000
00000000
00000000
,
01000000
00000000
00000000
00000000
00000000
00010000
00001000
00000000
,
00000000
00010000
00000000
00000000
00001000
00000000
00000000
00000000
,
00000100
00000000
00000000
00000000
,
00000001
00000100
00000001
00000000
,
00000010
00000000
00001000
00000000
00000010
00001000
00000000
00000000
,
00000100
00000000
00010000
00000000
00001000
00010000
00000000
00000000
,
01000000
01000000
01000000
00000000
,
10000000
01000000
10000000
00000000
,
00100000
00000000
00010000
00000000
00100000
00001000
00000000
00000000
,
00010000
00000000
00001000
00000000
00000100
00000001
00000000
00000000
,
00000010
00000010
00000010
00000000
,
00001000
00000001
00001000
00000000
,
00000010
00000000
00001000
00000000
00000010
00010000
00000000
00000000
,
00001000
00000000
00010000
00000000
00001000
01000000
00000000
00000000
,
00010000
00010000
20020000
30030000
,
00100000
00000000
10000000
00000000
01000000
00100000
00010000
00000000
,
00100000
00000000
01000000
10000000
01000000
00000000
00010000
00000000
,
00002000
00000000
00023000
00000000
,
00030200
00000000
00000320
00000000
,
00000031
00000000
00000100
00000000
00000010
00000100
00001000
00000000
,
00000100
00000000
00001000
00000100
00001000
00000000
00010000
00000000
,
00002000
00000000
00023000
00000000
,
02030000
00000000
23000000
00000000
,
30100000
00000000
00000000
01000000
,
01000000
00000000
00000000
00001000
,
00001000
00000000
00000000
00000100
,
00000100
00000000
00000000
00000001
,
00000001
00000000
00000100
00000000
00000010
00000001
00000010
00000000
,
00001000
00000000
00000000
00000000
00000100
00001000
00000100
00000000
,
00001001
00000000
00000100
00000000
,
00010000
00001000
00010000
00010000
,
00001000
00000000
00001000
00000000
00010000
00001000
01000000
00000000
,
00010000
00000000
00000000
00000000
00100000
10000000
00100000
00000000
,
01100000
00000000
00010000
00000000
,
10000000
10000000
01000000
01000000
,
00100000
00000000
00100000
00000000
00001000
00010000
00001000
00000000
,
00000100
00000000
00000000
00000000
00000001
00001000
00000001
00000000
,
00000110
00000000
00000001
00000000
,
00000100
00000100
00001000
00001000
,
00010000
00000000
00010000
00000000
00001000
00100000
00010000
00000000
,
01000000
00000000
00000000
00000000
10000000
01000000
10000000
00000000
,
00000000
10010000
00000000
00000000
,
00000000
00000000
10000000
01000000
,
00010000
00000000
00001000
00000000
,
00000100
00000000
00000001
00000000
,
00000010
00000000
00001000
00000000
,
00010000
00000000
00100000
00000000
,
00011000
00000000
00000000
00000000
;

//---------------dance-double - Blank----------------
#NOTES:
     dance-double:
     Blank:
     Hard:
     8:
     0.500,0.423,0.259,0.019,0.220,336.000,27.000,2.000,8.000,0.000,0.000,0.500,0.423,0.259,0.019,0.220,336.000,27.000,2.000,8.000,0.000,0.000:
00000000
00000000
00000000
00000000
,
00000000
00000000
00000000
00000000
,
10000000
M0000000
10000000
M0000000
,
10000000
M0000000
10000000
10000000
,
10000000
01000000
0M000000
00010000
00001000
000M0000
00000010
00001000
,
0000M000
00010000
000M0100
00000000
00010000
00001000
01000000
00100000
,
00010000
00001000
00000M00
00000100
00001000
00000000
00010000
00100000
,
00000000
00010000
00001000
00000100
00000010
00000000
00010010
00000000
,
00001000
00000000
00000000
00000100
00001000
00000100
00000000
00000010
00000000
00000001
00000000
00000000
00001000
00000000
00000010
00000000
,
00000100
00000000
00000000
00000001
00001000
00000100
00000000
00000000
00000010
00000000
00001001
00000000
00000100
00000000
00000010
00000000
,
00000100
00000000
00000000
00000010
00001000
00000010
00000000
00000100
00000000
00001000
00000000
00000000
00010000
00000000
00001000
00000000
,
00010000
00000000
00000000
00100000
01000000
00000000
00100000
00000000
10000000
00000000
01000000
00000000
00100000
00000000
00000000
00000000
,
00010000
00000000
00000000
10000000
01000000
10000000
00000000
01000000
00000000
00010000
00000000
00000000
00001000
00000000
00000100
00000000
,
00000001
00000000
00000000
00001000
00000010
00001000
00000000
00000000
00000100
00000000
00001001
00000000
00000100
00000000
00000010
00000000
,
00001000
00000000
00000000
00000100
00000010
00000100
00000000
00000010
00000000
00001000
00000000
00000000
00010000
00000000
00100000
00000000
,
01000000
00000000
00000000
00010000
10000000
00000000
01000000
00000000
00010000
00000000
01000000
00000000
10000000
00000000
00000000
00000000
,
00010000
00000000
00000000
01000000
00100000
01000000
00000000
00100000
00000000
00010000
00000000
00000000
00001000
00000000
00000010
00000000
,
00000001
00000000
00000000
00001000
00000100
00001000
00000000
00000000
00000010
00000000
00001001
00000000
00000010
00000000
00000100
00000000
,
00000001
00000000
00000000
00000100
00001000
00000100
00000000
00001000
00000000
00010000
00000000
00000000
01000000
00000000
00010000
00000000
,
00001000
00000000
00000000
00010000
00001000
00000000
00000100
00000000
00001000
00000000
00010000
00000000
00100000
00000000
00000000
00000000
,
10000000
00000000
00010000
00000000
00100000
01000000
00000000
00010000
00000000
01000000
00000000
10000000
00000000
00000000
01000000
00000000
,
00010000
01000000
00000000
00010000
00000000
00001000
00000000
00000100
00000000
00000000
00001000
00000000
00010000
00000000
00100000
00000000
,
00010000
00001000
00000100
00001000
00010000
00001000
00000010
00000100
,
00010000
00000010
00000100
00001000
00010000
00001000
00000100
00000001
,
00000010
00000000
00000001
00000000
00001000
00000100
00000000
00000010
00000000
00001000
00000000
00010000
00000000
00000000
00000000
00020020
,
00000000
00000000
00000000
00000000
00000000
00000000
00000000
00030030
,
00001000
00010000
00100000
00010000
00001000
01000000
00100000
00010000
,
00001000
01000000
00010000
00100000
10000000
00100000
00010000
00000000
,
10000000
01000000
00010000
01000000
10000000
01000000
00010000
01000000
,
00100000
00010000
01000000
00100000
00010000
00001000
00000100
00000010
,
00010000
00001000
00000010
00000001
00000100
00001000
00000100
00000001
,
00000100
00001000
00000100
00000001
00000100
00001000
00011000
00000000
,
00010000
00100000
00010000
00001000
00000100
00001000
00010000
00100000
,
01000000
00000000
10010000
00000000
10000000
01000000
00010000
01000000
,
10000000
00000000
00110000
00000000
00100000
00010000
01000000
10000000
,
01000000
00010000
00100000
00001000
00010000
01000000
00010000
00001000
,
00010000
00001000
00000100
00000001
00001001
00000000
00000010
00000100
,
00001000
00000100
00000110
00000000
00000100
00010000
00001000
00000000
,
00001100
00000000
00001000
00000000
00010000
00100000
01010000
00000000
,
00100000
00000000
11000000
00000000
00010000
01000000
00110000
00000000
,
00100000
10000000
00100000
00010000
01000000
00001000
00010000
01000000
,
00010000
00000000
00011000
00000000
00000100
00001000
00010000
00100000
,
00010000
00000000
00011000
00000000
00000010
00000100
00010000
00001000
,
00000100
00000010
00010000
00001000
00000010
00000100
00001000
00000000
,
00000010
00001000
00000100
00000010
00000011
00000000
00000010
00000100
,
00001000
00010000
00011000
00000000
00000100
00010000
00001000
00000000
,
01001000
00000000
01010000
00000000
00100000
01000000
01010000
00000000
,
00100000
00000000
00101000
00000000
00010000
10000000
11000000
00000000
,
00010000
01000000
10000000
00100000
10000000
01000000
00010000
00000000
,
00100000
01000000
00010000
00001000
01001000
00000000
00011000
00000000
,
00100000
00010000
00001000
00000010
00001000
00010000
00100000
00000000
,
00010000
00001000
00000100
00000010
00010000
00001000
00010100
00000000
,
00001100
00000000
00000000
00000000
;

//---------------dance-double - Blank----------------
#NOTES:
     dance-double:
     Blank:
     Edit:
     8:
     0.000,0.000,0.000,0.000,0.000,0.000,0.000,0.000,0.000,0.000,0.000,0.000,0.000,0.000,0.000,0.000,0.000,0.000,0.000,0.000,0.000,0.000:
;

//---------------dance-single - BlueChaos----------------
#NOTES:
     dance-single:
     BlueChaos:
     Challenge:
     9:
     0.673,0.603,0.278,0.402,0.594,419.000,29.000,42.000,0.000,1.000,0.000,0.673,0.603,0.278,0.402,0.594,419.000,29.000,42.000,0.000,1.000,0.000:
0000
0000
0000
0000
,
0000
0000
0000
0000
,
0000
0000
0000
0000
,
0000
0000
0000
0000
0000
0000
0000
0000
0000
0000
0000
0000
1000
0001
0000
0000
,
2000
0000
0020
0000
3000
0000
0230
0000
0302
0000
1003
0100
0010
0000
0000
0000
,
0100
0000
0010
0000
0001
0000
0010
0100
1000
0000
0001
0000
0100
0010
0000
0000
,
2000
0000
0002
0000
3000
0000
2003
0000
3200
0000
1300
0000
0001
0100
0010
0000
,
0100
0001
0010
0100
0000
1000
0100
0000
1000
0000
0001
0000
0100
0010
0000
0000
,
2000
0000
0000
3001
0010
0100
0000
1000
0000
1001
0000
0001
0100
0000
0100
0000
,
0020
0000
0000
1030
0100
0010
0000
0000
0002
0000
0200
0003
0000
0000
0310
0000
,
2000
0000
0000
3001
0010
0100
0000
0010
0000
1100
0000
1000
0001
0000
0100
0000
,
0020
0000
0000
0000
2030
0000
0000
0000
3001
0100
0001
0000
1000
0100
0000
0000
,
1000
0000
0100
0010
0001
1000
0010
0000
0100
0000
0001
0000
1000
0000
0100
0000
,
0010
0000
0001
0010
0100
1000
0010
0000
0100
0000
0101
0000
0001
1000
0000
0001
,
0010
0000
0100
0010
0001
1000
0010
0000
0100
0000
0101
0000
0001
0010
0000
0001
,
0200
0000
0000
0000
0320
0000
0000
0000
1030
0100
1000
0000
0001
0100
0000
0000
,
0001
0000
0100
0000
0001
0000
0100
0000
0001
1000
0100
0000
1100
0000
0000
0000
,
1000
0000
0100
0000
1000
0000
0100
0000
1000
0000
1001
0000
0001
0100
0010
0000
,
2000
0000
3001
0100
0010
1000
0000
0000
0001
0000
0011
0000
0000
0001
0100
0000
,
0020
0000
0000
0000
2030
0000
0000
0000
3001
0010
0001
0000
0010
0100
0000
0000
,
2000
0000
0000
3001
0100
0010
0200
0000
0001
0000
0001
0000
0301
0000
0000
0000
,
0001
1000
0200
0000
0010
0000
1000
0000
0310
0000
0001
0000
1000
0010
1000
0010
,
1000
0000
0100
0000
0010
0000
0001
0000
1000
0010
0100
0000
0001
0000
0000
1000
,
0100
0000
1000
0000
0010
1000
0100
0000
0100
0000
0010
0000
0010
0001
0100
0000
,
0202
0000
0303
0001
0010
0100
1000
0000
0200
0000
0010
0000
1300
0000
0000
0000
,
2002
0000
0000
0000
0000
0000
3003
0000
1000
0000
0001
0100
0010
0100
0001
0000
,
1001
0000
1000
0000
0100
0000
0010
0000
0100
0010
0001
0000
1000
0000
1000
0000
,
0001
0100
0001
0000
0010
0000
0010
0000
0100
1000
0100
0000
1000
0010
0000
0000
,
1000
0010
0200
0000
0001
0000
0000
0000
0000
0000
0000
0000
0010
0000
0300
0000
,
0002
0000
0000
0000
1000
0000
0000
0000
0000
0000
0000
0000
0013
0100
1000
0100
,
0010
0001
1000
0010
0000
0100
0001
0000
0001
1000
0000
0100
0000
1000
0010
0000
,
0200
0000
0000
0302
0000
0000
0000
0000
0003
0000
0000
0000
1111
0000
0000
0000
,
1000
0000
0001
0100
0010
1000
0200
0000
0010
0000
0010
0000
0310
0000
0000
0000
,
0002
0000
0000
0000
1003
0000
0010
0000
0100
0001
0010
0000
0100
0000
1000
0000
,
0100
0000
0010
0000
0001
1000
0000
1000
0010
0100
0010
0100
0001
0000
0000
0000
,
1000
0100
0010
0001
0000
0010
0000
0001
0100
0010
0000
0000
1010
0000
1000
0100
,
1000
0100
1001
0001
0110
0010
1010
0000
,
2002
0000
0000
0000
0000
0000
0000
0000
3003
0000
1000
0000
0001
0000
0100
0010
,
1000
0000
0001
0000
0010
0000
0100
1000
0000
1000
0001
0000
0101
0000
0000
0000
,
0001
0100
0010
1000
0000
0010
0000
1000
0100
0010
0000
0000
0011
0000
0010
0001
,
0100
0000
0001
0010
0100
1000
0001
0000
1001
0000
0100
0000
1001
0000
0000
0000
,
0202
0000
0000
0000
0000
0000
0303
0000
0001
0000
0100
0000
0010
0000
1000
0001
,
0010
0000
0100
0000
1100
0000
0000
1000
0001
1000
0001
0100
0010
0000
0000
0000
,
0100
0010
1000
0100
0000
1000
0000
0100
1000
0001
0000
0000
0101
0000
0000
0000
,
0100
0000
0001
1000
0100
0010
0001
0000
0011
0000
0110
0000
1100
0000
0000
0000
,
2002
0000
0000
3003
1000
0001
0100
0110
,
0010
0000
1000
0000
0001
0000
0000
1000
0010
0000
0100
0000
0001
0000
0000
0010
,
0100
0000
1000
0000
0001
0000
0000
0100
0010
0000
1000
0000
0001
0010
0100
0000
,
1000
0100
0010
0000
0010
0100
1000
0000
1000
0010
0100
0000
0100
0010
1000
0000
,
1000
0001
0010
0000
0010
0001
0100
0000
0100
0010
1000
0000
1000
0010
0100
0000
,
0100
0001
0010
0000
0010
0100
1000
0000
1000
0100
0010
0000
0100
0010
0001
0000
,
0010
0001
1000
0000
0001
0100
0010
0000
0100
0001
0010
0000
0001
0010
0100
0000
,
2002
0000
0000
0000
0000
0000
0000
3003
0000
0000
0000
0000
0000
0000
0000
0000
;

//---------------dance-double - K. Zavodney----------------
#NOTES:
     dance-double:
     K. Zavodney:
     Challenge:
     9:
     0.616,0.598,0.383,0.182,0.527,391.000,40.000,19.000,7.000,1.000,0.000,0.616,0.598,0.383,0.182,0.527,391.000,40.000,19.000,7.000,1.000,0.000:
00000000
00000000
00000000
00000000
,
00000000
00000000
00000000
00000000
,
00000000
00000000
00000000
00000000
,
00000000
00000000
00000000
00000000
00000000
00000000
00000000
00000000
00000000
00000000
00000000
00000000
00010000
00100000
01000000
00000000
,
00010000
10000000
00010000
00100000
00001000
00010000
00000100
00001000
,
00000001
00000000
00001000
00000000
00000100
00000000
00010000
00000000
00001000
00000000
00100000
00000000
00010000
10010000
00000000
00000000
,
10000000
00010000
01000000
00001000
00010000
00000010
00001000
00000001
,
00001000
00000000
00000010
00000000
00010000
00000000
00001000
00000000
01000000
00000000
00010000
00000000
10000000
00010000
00100000
00001000
,
00020000
00000000
00000000
00130000
01000000
00010000
00000000
00101000
00000000
00000100
00010000
00000000
00000010
00000000
00000000
00000100
,
00000001
00000000
00000000
00000100
00000010
00001000
00000000
00000000
00010100
00000000
00101000
00000000
010M0000
00000000
00010000
10000000
,
00100000
00000000
00000000
00010000
00100000
01000000
00000000
01010000
00000000
01002000
00000000
00000000
00023000
00000000
00000000
00030100
,
00001000
00000000
00000000
00001000
00010000
00000000
00000000
00010000
00100000
01000000
00000000
00000000
10000000
00100000
01000000
00010000
,
00100000
00000000
00000000
00010000
01000000
00100000
00000000
00120000
00000000
00001000
00030000
00000000
00001000
00000000
00000000
00000100
,
00000001
00000000
00000000
00000000
00000000
00000000
00000000
00000000
00000000
00001000
00000000
00000000
00000100
00000000
00000000
00000010
00000000
00000000
00000000
00000000
00000000
00000000
00000000
00000000
00002010
00000000
00000000
00000000
00000000
00000000
00020000
00000000
00000000
00003000
00000000
00000000
00001000
00000000
00000000
00030000
0000M000
00000000
00010000
00000000
00000000
00001000
00000000
00000000
,
00000100
00000000
00000000
00000100
00000001
00000010
00000000
00000021
00000000
00001000
00000030
00000000
000010M0
00000000
00010000
01000000
,
00020000
00000000
00000000
01030000
00200000
00000000
00000000
01300000
10000000
00010000
00000000
00000000
00010000
01000000
00100000
00010000
,
00001000
00000000
00100000
00000000
00001000
00000000
00010000
00001000
00000100
00000000
00000010
00000000
00000101
00000000
00001000
00000000
,
00000010
00000000
00000100
00000000
00000001
00000000
00010000
00001000
10000000
00000000
00010000
00000000
10010000
01000000
00100000
00000000
,
01000000
00000000
00010000
00000000
00100000
00001000
00010000
00000100
00001000
00000000
00000001
00000000
00000101
00000000
00000001
00000000
,
00000010
00000000
00001000
00000000
00010000
00000000
00000000
00000000
00020200
00000000
00000000
00000000
00101000
00000000
00000000
00030300
,
00000000
00000000
00000000
00000000
00010000
00001000
00000000
00101000
00000000
00M1M100
00000000
00101000
00000000
00000000
00000000
00000000
,
00001000
00010000
00000000
00010010
00000000
010M10M0
00000000
00010010
00000000
00000000
00000000
00000000
00000000
00000000
00000000
00000000
,
10000000
00000000
00100000
00000000
01000000
00100000
00010000
00000000
00001000
00000100
00000010
00000000
00000100
00000000
00000001
00000000
,
00001000
00000000
00000001
00000000
00000100
00000010
00001000
00000000
00010000
01000000
00100000
00000000
10000000
00000000
00010000
00000000
,
01000000
00000000
00100000
00000000
10000000
00010000
00000000
10010000
00000000
00011000
00000000
00001001
00000000
00000000
00000000
00000000
,
00000001
00000010
00001000
00010000
01000000
10000000
00001000
00010000
,
01000000
10000000
00100000
01000000
00000100
00000010
00000001
00000100
,
00000010
00000000
00100000
00000000
01000000
00000000
01000000
00000000
01100000
00000000
01000000
00000000
01000000
00100000
01000000
00000000
,
10010000
00000000
10000000
00000000
00100000
01000000
00000100
00000010
,
00000001
00000000
00000000
00000000
00000000
00000000
00000100
00000000
00000000
00000000
00000000
00000000
00000001
00000000
00000000
00001000
00000000
00000000
00000010
00000000
00000100
00000001
00000000
00000010
,
00000001
00000000
00000000
00000000
00000010
00000000
00000100
00000000
00000000
00000000
00000000
00000000
00001000
00000000
00000000
00000000
00000000
00000000
00000010
00000000
00000000
00000000
00000000
00000000
00000100
00000000
00000000
00001000
00000000
00000000
00010000
00000000
00000000
00100000
00000000
00000000
01000000
00000000
00000000
00000000
00000000
00000000
00010000
00000000
00000000
00000000
00000000
00000000
,
10010000
00000000
10000000
00000000
00010000
00000000
01000000
00000000
00100000
00010000
00001000
00000100
00000010
00000000
00010000
00000000
,
00001100
00000000
00001001
00000000
00000001
00001000
00000000
00010000
00000000
10000000
00000000
01000000
00000000
00000000
00000000
20020000
,
00000000
00000000
00000000
00000000
30000000
00000000
00000000
00130000
,
10000000
00000000
00100000
00010000
01000000
00001000
00010000
00000000
00001000
00010000
00000100
00001000
00000010
00000000
00000100
00000000
,
00001001
00000010
00000100
00001000
00010000
00100000
01000000
00010000
,
10010000
00000000
00000000
00000000
10000000
00010000
00000000
00001000
00000000
00000001
00000000
00000100
00000000
00000000
00000000
00002002
,
00000000
00000000
00000000
00000000
00003000
00000000
00000000
00000013
,
00000100
00000000
00000010
00000100
00001000
00000010
00010000
00000000
00001000
00100000
00010000
01000000
00100000
00000000
01000000
00000000
,
10010000
01000000
00100000
00010000
00001000
00000100
00000010
00000001
,
00001001
00000000
00000000
00000000
00000010
00000100
00000000
00001001
00000000
00011000
00000000
02010000
00000000
00000000
00000000
00002000
,
00000000
00000000
00000000
00000000
03000000
00000000
00000000
00103000
,
00100000
00000000
00100000
00000000
00010000
01000000
00100000
00000000
00010000
00001000
00000100
00000000
00001000
00000000
00010000
00000000
,
00000100
00000000
00000001
00000000
00000100
00000010
00000001
00000000
00000100
00001000
00010000
00000000
00001000
00000000
00100000
00000000
,
00010000
00000000
10000000
00000000
01000000
10000000
00000000
11000000
00000000
01010000
00000000
00012000
00000000
00000000
00000000
00000200
,
00000000
00000000
00000000
00000000
00003000
00000000
00000000
00000301
,
00000010
00001000
00010000
00000001
00000010
00001000
00010000
00000100
,
00000010
00001000
00010000
01000000
00010000
00001000
00100000
01000000
,
00010000
00001000
00000010
00001000
00010000
00000100
00001000
00000001
,
00000010
00001000
00000010
00000100
00010000
00001000
00100000
10000000
,
00100000
01000000
10000000
00010000
00100000
00010000
00001000
00000100
,
00001000
00000100
00010000
00001000
00100000
00010000
00100000
00001000
00010000
00000100
00001000
00000001
00000010
00001000
00000010
00000100
,
00001000
00000000
00000000
00000000
;

//---------------dance-single - K. Ward----------------
#NOTES:
     dance-single:
     K. Ward:
     Hard:
     8:
     0.349,0.349,0.230,0.067,0.239,224.000,24.000,7.000,7.000,0.000,2.000,0.349,0.349,0.230,0.067,0.239,224.000,24.000,7.000,7.000,0.000,2.000:
0000
0000
0000
0000
,
0000
0000
0000
0000
,
0000
0000
0000
0000
,
0000
0000
0000
0000
,
1001
0000
1000
0000
0000
0000
0000
0010
0100
0000
0000
0000
0000
0000
0000
0000
,
0100
1010
0000
0000
0000
0000
0110
0000
,
1001
0000
0100
0000
0000
0000
0000
0010
0100
0000
0000
0000
0000
0000
0000
0000
,
0100
0010
0001
0010
0100
0000
1001
0000
,
0100
0000
0010
0000
1000
0100
0000
1000
0000
0000
0000
0000
0000
0000
0000
0000
,
0100
0000
0010
0000
0100
0010
0000
0000
0101
0000
0000
0000
0000
0000
0000
0000
,
0001
0000
1000
0000
0001
1000
0000
0001
0000
0000
0000
0000
0000
0000
0000
0000
,
0100
0010
0100
0001
0100
0010
0100
0000
,
0001
0000
1000
0000
0100
1000
1000
0000
,
0100
0010
0100
0011
,
0100
0010
0100
0000
1001
0001
0000
0000
,
0010
0100
1000
0100
0010
0000
0110
0000
,
1000
0000
0001
0000
0010
0000
0100
0010
0000
0000
0000
0000
0000
0000
0000
0000
,
0100
1000
0100
0010
0100
0000
0000
0000
,
1001
0000
1000
0000
0010
0000
0100
0010
0000
0000
0000
0000
0000
0000
0000
0000
,
0100
0010
0100
0001
0100
0010
0100
0000
,
0000
0000
0000
0000
0001
1000
0000
0001
0000
1000
0000
0000
1000
0000
0000
0000
,
0100
0001
0000
0010
0000
0100
0000
0010
0000
0000
0000
0000
0000
0000
0000
0000
,
0010
0100
0010
0000
1001
0000
0000
0000
,
0001
1000
0001
0000
1001
0000
0000
0000
,
0000
0000
0000
0000
0100
0010
0000
1000
0000
0100
0000
0000
0100
0000
0000
0000
,
0010
0100
0000
0010
0000
0100
0000
0000
0010
0000
0000
0000
0000
0000
0000
0000
,
0100
0010
0001
0000
0011
0000
0000
0000
,
0100
0010
1000
0000
1100
0000
0000
0000
,
4200
0000
0000
3000
,
M040
0000
0000
0330
,
0110
1001
0000
0010
,
0000
0000
0010
0100
0001
0000
0011
0000
,
0000
0000
0000
0000
1000
0001
0000
1000
0000
0001
0000
0000
0001
0000
0000
0000
,
0010
0100
0000
0100
0000
0010
0000
0000
0100
0000
0000
0000
0010
0000
0000
0000
,
0001
0010
0000
0000
0000
0000
0000
0000
0202
0000
0000
0000
0303
0000
0000
0000
,
0010
0100
1000
0100
0010
0100
0100
0000
,
0000
0000
0000
0000
0001
1000
0000
0001
0000
1000
0000
0000
1000
0000
0000
0000
,
0100
0001
0000
0010
0000
0100
0000
0000
0010
0000
0000
0000
0100
0000
0000
0000
,
1000
0100
0000
0000
0000
0000
0000
0000
2002
0000
0000
0000
3003
0000
0000
0000
,
0010
0100
0001
0010
0001
0001
0001
0000
,
0000
0000
0000
0000
1000
0000
0100
1000
0000
1000
0100
0000
1000
0000
0000
0000
,
0000
0000
0000
0000
0010
0000
0001
0010
0000
0010
0100
0000
0010
0000
0000
0000
,
0000
0000
0000
0000
0000
0000
0001
0000
1000
0001
0000
0001
0000
0000
0000
0000
,
0100
0100
0100
0010
0100
0000
1001
0000
,
0000
0000
0100
0000
0010
0000
1000
0100
0000
0100
1000
0000
0100
0000
0000
0000
,
0000
0000
0010
0000
0001
0000
0010
0100
0000
0100
0010
0000
0100
0000
0000
0000
,
0MM0
0000
1001
2002
0000
0000
0000
0000
,
0000
3003
0000
0000
,
0100
0000
0000
0000
0001
0000
1000
0001
0000
0000
0000
0000
000M
0000
0000
0000
,
0010
0000
0000
0000
0001
0000
1000
0001
0000
0000
0000
0000
000M
0000
0000
0000
,
0100
0000
0000
0000
0010
0000
0100
0001
0000
0000
0000
0000
000M
0000
0000
0000
,
0010
0000
0000
0000
0100
0000
0010
0100
0000
0000
0000
0000
0M10
0000
0000
0000
,
1001
0000
0000
0000
;

//---------------dance-single - J. Frederick----------------
#NOTES:
     dance-single:
     J. Frederick:
     Beginner:
     1:
     0.068,0.075,0.038,0.000,0.000,46.000,4.000,0.000,0.000,0.000,0.000,0.068,0.075,0.038,0.000,0.000,46.000,4.000,0.000,0.000,0.000,0.000:
0000
0000
0000
0000
,
0000
0000
0000
0000
,
0000
0000
0000
0000
,
0000
0000
0000
0000
,
0000
1000
0000
0000
,
0000
0001
0000
0000
,
0000
0100
0000
0000
,
0000
0010
0000
0000
,
0000
1000
0000
0000
,
0000
0000
0000
0000
,
0001
0000
0000
0000
,
1000
0000
0000
0000
,
0010
0000
0000
0000
,
0100
0000
0000
0000
,
0010
0000
0000
0000
,
1000
0000
0000
0000
,
0001
0000
0000
0000
,
0100
0000
0000
0000
,
0010
0000
0000
0000
,
1000
0000
0000
0000
,
1001
0000
0000
0000
,
0010
0000
0000
0000
,
0100
0000
0000
0000
,
1000
0000
0000
0000
,
0001
0000
0000
0000
,
0010
0000
0000
0000
,
0100
0000
0000
0000
,
0010
0000
0000
0000
,
1000
0000
0000
0000
,
0000
0000
0000
0000
,
0001
0000
0000
0000
,
0000
0000
0000
0000
,
0010
0000
0000
0000
,
0100
0000
0000
0000
,
1001
0000
0000
0000
,
0100
0000
0000
0000
,
0010
0000
0000
0000
,
1000
0000
0000
0000
,
0001
0000
0000
0000
,
0010
0000
0000
0000
,
0100
0000
0000
0000
,
1000
0000
0000
0000
,
0001
0000
0000
0000
,
0010
0000
0000
0000
,
0100
0000
0000
0000
,
0010
0000
0000
0000
,
1001
0000
0000
0000
,
0100
0000
0000
0000
,
1000
0000
0000
0000
,
0001
0000
0000
0000
,
0010
0000
0000
0000
,
0100
0000
0000
0000
,
1001
0000
0000
0000
;

//---------------dance-single - J. Frederick----------------
#NOTES:
     dance-single:
     J. Frederick:
     Easy:
     3:
     0.215,0.201,0.077,0.307,0.000,117.000,8.000,32.000,0.000,0.000,0.000,0.215,0.201,0.077,0.307,0.000,117.000,8.000,32.000,0.000,0.000,0.000:
0000
0000
0000
0000
,
0000
0000
0000
0000
,
0000
0000
0000
0000
,
0000
0000
0000
0000
,
1000
0001
0020
0030
,
0100
1000
0020
0030
,
0100
0001
2000
3000
,
0001
1000
0020
0030
,
0100
0001
0020
0030
,
0100
1000
0200
0300
,
1000
0010
0200
0300
,
2002
0000
0000
3003
,
0010
0100
2000
3000
,
0001
0100
0020
0030
,
1000
0010
0002
0003
,
0001
0010
2000
3000
,
0002
0000
0000
0003
,
2000
0000
0000
3000
,
0020
0000
0000
0030
,
0200
0000
0000
0300
,
0010
0100
0001
0000
,
1000
0100
0010
0000
,
0001
0000
1000
0000
,
0010
0000
0100
0000
,
0001
0010
0100
0000
,
1000
0100
0010
0001
,
1001
0000
0100
0000
,
0010
0000
1000
0001
,
0020
0000
0030
0000
,
0100
1000
0010
0100
,
0002
0000
0003
1000
,
0001
0010
0100
1000
,
0100
0000
0010
0000
,
2002
0000
0000
3003
,
0100
0000
0010
0100
,
0001
1000
0001
1000
,
0000
0001
0020
0000
,
0000
0030
0100
1000
,
0100
0000
0010
0001
,
0100
0000
0010
1000
,
2002
0000
0000
3003
,
2020
0000
0000
3030
,
0100
0001
0010
0000
,
0100
1000
0100
1000
,
0022
0000
0000
0033
,
0220
0000
0000
0330
,
1000
0001
0010
0000
,
0100
1000
0010
0000
,
0100
0000
0100
0000
,
0001
0000
0001
0000
,
0010
0000
0010
0000
,
0100
0000
0100
0000
,
2002
0000
3003
0000
;
