#TITLE:Always in My Heart;
#SUBTITLE:;
#ARTIST:Lagoona;
#TITLETRANSLIT:;
#SUBTITLETRANSLIT:;
#ARTISTTRANSLIT:;
#GENRE:Bubblegum Pop;
#CREDIT:;
#BANNER:Always in my Heart-bn.png;
#BACKGROUND:Always in my Heart-bg.png;
#LYRICSPATH:;
#CDTITLE:;
#MUSIC:Always in my Heart.ogg;
#OFFSET:-0.021;
#SAMPLESTART:74.540;
#SAMPLELENGTH:11.840;
#SELECTABLE:YES;
#BPMS:0.000=139.965;
#STOPS:;
#BGCHANGES:0.875=Always in My Heart.mpg=1.000=1=0=0=StretchNoLoop==CrossFade==,
99999=-nosongbg-=1.000=0=0=0 // don't automatically add -songbackground-;
#KEYSOUNDS:;

//---------------dance-single - D. D'Amato----------------
#NOTES:
     dance-single:
     D. D'Amato:
     Challenge:
     11:
     0.736,0.775,0.000,0.009,1.000,547.000,0.000,1.000,0.000,0.000,0.000,0.736,0.775,0.000,0.009,1.000,547.000,0.000,1.000,0.000,0.000,0.000:
0000
0000
0000
0000
,
0000
0000
0000
0000
,
0000
0000
0000
0000
,
0000
0000
0000
0000
,
0001
0000
0100
0000
0010
0000
1000
0000
0100
0000
0000
0000
0010
0000
0000
0001
,
0000
0000
1000
0000
0000
0010
0000
0000
0100
0000
0001
0000
1000
0000
0000
0000
,
0100
0000
0010
0000
0100
0000
1000
0000
0001
0000
0100
0000
0010
0000
0000
1000
,
0000
0000
0001
0000
0000
0010
0000
0000
0100
0000
1000
0000
0001
0000
0000
0000
,
0010
0100
1000
0000
0100
0010
0001
0000
,
0100
0000
0010
0000
1000
0000
0100
0000
0010
0000
0001
0000
0000
0100
0000
0000
,
0010
0100
0001
0000
0100
0010
1000
0000
,
0100
0010
0001
0100
0010
1000
0000
0001
,
0010
0001
0100
0000
0010
1000
0100
1000
,
0010
0100
0001
0010
0100
1000
0100
0010
,
0001
0000
0010
0000
0100
1000
0010
0000
,
0100
0001
0010
0001
0100
0010
1000
0001
,
0000
0010
0001
1000
0010
0000
0100
0001
,
1000
0000
0100
1000
0001
0100
0001
1000
,
0000
0100
1000
0001
0100
0000
0010
0100
,
0001
0010
0100
1000
0010
0100
0001
0010
,
0100
0010
0000
0001
0000
0100
0000
0001
,
1000
0100
0000
0010
0000
0100
0000
1000
,
0001
0100
0000
0010
1000
0100
0000
0010
,
0100
1000
0001
0100
0000
0010
1000
0001
,
0010
0100
0010
0001
0000
1000
0010
0100
,
0010
1000
0001
0010
0000
0100
1000
0010
,
0100
0001
0000
0010
0000
0100
0000
1000
,
0000
0001
0010
0100
1000
0001
0010
0100
,
1000
0001
0100
0000
0010
1000
0000
0010
0100
0000
0001
0100
0000
0001
0010
0100
,
0000
0010
0001
0000
0010
0100
0000
1000
0100
0000
1000
0010
0000
1000
0100
0010
,
0000
0100
1000
0000
0100
0010
0000
0001
0010
0000
0001
0100
0000
0010
0100
0001
,
0000
0100
0010
0000
1000
0010
0000
1000
0100
0000
1000
0001
0000
1000
0010
0100
,
0010
1000
0001
0000
0010
0001
0000
0010
0100
0000
1000
0100
0000
1000
0010
0100
,
0000
0010
1000
0000
0010
0100
0000
0001
0100
0000
0001
0010
0000
0001
0100
0010
,
0000
0100
0001
0000
0100
0010
0000
1000
0010
0000
1000
0100
0000
0010
0100
1000
,
0000
0100
0010
0000
0001
0010
0000
0001
0100
0000
0001
1000
0000
0001
0010
0100
,
0010
0001
1000
0000
0010
1000
0000
0010
0100
0000
0001
0100
0000
0001
0010
0100
,
0000
0010
0001
0000
0010
0100
0000
1000
0100
0000
1000
0010
0000
1000
0100
0010
,
0100
1000
0100
0010
0001
0100
0000
0001
1000
0100
0000
0010
0001
0000
1000
0001
,
0000
0100
0010
0000
1000
0010
0000
1000
0100
0000
1000
0001
0000
1000
0010
0100
,
0010
1000
0001
0000
0010
0001
0000
0010
0100
0000
1000
0100
0000
1000
0010
0100
,
0000
0010
1000
0000
0010
0100
0000
0001
0100
0000
0001
0010
0000
0001
0100
0010
,
0000
0100
0001
0000
0100
0010
0000
1000
0010
0000
1000
0100
0000
0010
0100
1000
,
0000
0100
0010
0000
0001
0010
0000
0001
0100
0000
0001
1000
0000
0001
0010
0100
,
0010
0001
1000
0000
0100
1000
0001
0100
0010
0000
0100
0010
1000
0001
0100
0010
,
0000
0100
0001
1000
0100
0010
0000
0100
0010
0001
1000
0100
0000
1000
0010
0100
,
0000
0010
1000
0001
0010
0100
0000
0010
0100
1000
0001
0010
0000
0100
0010
0001
,
0000
0010
0100
1000
0010
0100
0000
0010
0100
0001
1000
0100
0000
1000
0100
0010
,
0100
1000
0001
0000
0100
0001
1000
0100
0010
0000
0100
0010
0001
1000
0100
0010
,
0000
0100
1000
0001
0100
0010
0000
0100
0010
1000
0001
0100
0000
0001
0010
0100
,
0000
0010
0001
1000
0010
0100
0000
0010
0100
0001
1000
0010
0000
0100
0010
1000
,
0000
0010
0100
0001
0010
0100
0000
0010
0100
1000
0001
0100
0000
0001
0100
0010
,
0100
0001
1000
0000
0100
1000
0001
0100
0010
0000
0100
0010
1000
0001
0100
0010
,
0000
0100
0001
1000
0100
0010
0000
0100
0010
0001
1000
0100
0000
1000
0010
0100
,
0010
1000
0010
0100
0001
0010
0000
0001
1000
0010
0000
0100
0001
0000
1000
0001
,
0000
0010
0100
1000
0010
0100
0000
0010
0100
0001
1000
0100
0000
1000
0100
0010
,
0100
1000
0001
0000
0100
0001
1000
0100
0010
0000
0100
0010
0001
1000
0100
0010
,
0000
0100
1000
0001
0100
0010
0000
0100
0010
1000
0001
0100
0000
0001
0010
0100
,
0000
0010
0001
1000
0010
0100
0000
0010
0100
0001
1000
0010
0000
0100
0010
1000
,
0000
0010
0100
0001
0010
0100
0000
0010
0100
0000
1000
0000
0001
0000
0010
0000
,
0200
0000
0000
0000
,
0300
0000
0000
0000
;

//---------------dance-single - D. D'Amato----------------
#NOTES:
     dance-single:
     D. D'Amato:
     Hard:
     9:
     0.478,0.574,0.000,0.292,0.301,325.000,0.000,31.000,0.000,0.000,28.000,0.478,0.574,0.000,0.292,0.301,325.000,0.000,31.000,0.000,0.000,28.000:
0000
0000
0000
0000
,
0000
0000
0000
0000
,
0000
0000
0000
0000
,
0000
0000
0000
0000
,
0100
0010
1000
0100
0010
0000
0001
0100
,
0000
0010
1000
0000
0100
0000
0010
0000
,
0001
0100
0010
1000
0100
0000
0010
0001
,
0100
0010
1000
0001
,
0010
0100
1000
0000
0010
0100
0001
0000
,
0010
0100
1000
0001
,
0100
0010
1000
0000
0100
0010
0001
0000
,
0100
0010
1000
0100
0010
0001
0100
0000
,
0010
0000
0100
0000
0010
1000
0100
0000
,
0010
0000
0001
0000
1000
0000
0010
1000
,
0001
0000
0010
0000
0100
0000
1000
0001
,
0100
0000
0001
1000
0100
0010
0001
0100
,
0000
0010
1000
0000
0100
0000
0010
0000
,
0001
0000
0100
0010
1000
0100
0010
0001
,
0000
1000
0100
0000
0010
0000
0100
0000
,
1000
0001
0010
0000
0100
1000
0001
0100
,
0010
1000
0000
1000
0000
1000
0000
1000
,
0000
0100
0000
0100
0000
0010
0000
0010
,
0000
0001
0000
0001
0000
0001
0000
0001
,
0000
0100
0000
0100
0000
0010
0000
0010
,
1000
0100
0000
1000
0000
0001
0000
0010
,
0001
0100
0000
0001
0000
1000
0000
0010
,
2000
0000
0001
0000
0000
0001
0000
0000
0001
0000
0000
0001
0000
0000
3001
0000
,
0002
0000
1000
0000
0000
1000
0000
0000
1000
0000
0000
1000
0000
0000
1003
0000
,
2000
0000
0010
0000
0000
0100
0000
0000
0001
0000
0000
3010
0000
0000
0100
0000
,
0002
0000
0010
0000
0000
0100
0000
0000
1000
0000
0000
0013
0000
0000
0100
0000
,
2000
0000
0001
0000
0000
0010
0000
0000
0100
0000
0000
3001
0000
0000
0100
0000
,
0002
0000
1000
0000
0000
0010
0000
0000
0100
0000
0000
1003
0000
0000
0100
0000
,
0020
0000
0001
0000
0000
1000
0000
0000
0100
0000
0000
0031
0000
0000
1000
0000
,
0200
0000
0010
0000
0000
0001
0000
0000
0010
0000
0000
1300
0000
0000
0001
0000
,
0200
0000
0010
0000
0000
1000
0000
0000
0010
0000
0000
0301
0000
0000
1000
0000
,
0020
0000
0100
0000
0000
0001
0000
0000
0100
0000
0000
1030
0000
0000
0001
0000
,
2000
0000
0100
0000
0000
3001
0000
0000
0200
0000
0000
0010
0000
0000
0301
0000
,
0020
0000
0100
0000
0000
0031
0000
0000
2000
0000
0000
0010
0000
0000
3100
0000
,
0010
0000
0001
0000
0100
0000
0010
0000
0000
1000
0000
0000
0010
0000
0100
0000
,
0002
0000
0010
0000
0000
1003
0000
0000
0020
0000
0000
0100
0000
0000
1030
0000
,
0100
0000
0020
0000
0000
0032
0000
0000
0203
0000
0000
0320
0000
0000
1030
0000
,
0100
0000
0020
0000
0000
0032
0000
0000
2003
0000
0000
3020
0000
0000
0130
0000
,
0001
0000
2000
0000
0000
3020
0000
0000
0230
0000
0000
0302
0000
0000
0013
0000
,
0100
0000
2000
0000
0000
3020
0000
0000
0130
0000
0001
0000
0100
0000
0010
0000
,
4000
0000
0100
0000
0000
0010
0000
0000
0001
0000
0000
3100
0000
0000
0010
0000
,
0004
0000
0100
0000
0000
0010
0000
0000
1000
0000
0000
0103
0000
0000
0010
0000
,
4000
0000
0001
0000
0000
0100
0000
0000
0010
0000
0000
3001
0000
0000
0010
0000
,
0004
0000
1000
0000
0000
0100
0000
0000
0010
0000
0000
1003
0000
0000
0010
0000
,
0400
0000
0001
0000
0000
1000
0000
0000
0010
0000
0000
0301
0000
0000
1000
0000
,
0040
0000
0100
0000
0000
0001
0000
0000
0100
0000
0000
1030
0000
0000
0001
0000
,
0040
0000
0100
0000
0000
1000
0000
0000
0100
0000
0000
0031
0000
0000
1000
0000
,
0400
0000
0010
0000
0000
0001
0000
0000
0010
0000
0000
1300
0000
0000
0001
0000
,
4000
0000
0010
0000
0000
3001
0000
0000
0040
0000
0000
0100
0000
0000
0031
0000
,
0400
0000
0010
0000
0000
0301
0000
0000
4000
0000
0000
0100
0000
0000
3010
0000
,
0100
0000
0001
0000
0010
0000
0100
0000
0000
1000
0000
0000
0100
0000
0010
0000
,
0004
0000
0100
0000
0000
1003
0000
0000
0400
0000
0000
0010
0000
0000
1300
0000
,
0010
0000
0400
0000
0000
0304
0000
0000
0043
0000
0000
0430
0000
0000
1300
0000
,
0010
0000
0400
0000
0000
0304
0000
0000
4003
0000
0000
3400
0000
0000
0310
0000
,
0001
0000
4000
0000
0000
3400
0000
0000
0340
0000
0000
0034
0000
0000
0103
0000
,
0010
0000
4000
0000
0000
3400
0000
0000
0310
0000
0001
0000
0100
0000
0010
0000
,
0200
0000
0000
0000
,
0300
0000
0000
0000
;

//---------------dance-single - D. D'Amato----------------
#NOTES:
     dance-single:
     D. D'Amato:
     Medium:
     6:
     0.341,0.373,0.009,0.122,0.108,240.000,1.000,13.000,0.000,0.000,0.000,0.341,0.373,0.009,0.122,0.108,240.000,1.000,13.000,0.000,0.000,0.000:
0000
0000
0000
0000
,
0000
0000
0000
0000
,
0000
0000
0000
0000
,
0000
0000
0000
0000
,
0000
0100
0010
0001
2000
0000
0000
0000
,
3010
0100
0001
0000
1000
0000
0001
0000
,
0000
0100
0010
1000
0002
0000
0000
0000
,
0013
0100
1000
0000
0001
0000
1000
0000
,
0000
0010
0000
0010
,
0000
0000
0010
0000
0010
1000
0100
0010
,
0002
0100
1000
0103
,
2000
0000
0100
0000
3001
0100
0000
0020
,
0000
1000
0000
1030
,
0100
0010
0100
1000
,
0010
0010
0020
0000
,
0000
0000
0130
0000
0010
0000
1000
0001
,
0000
2000
0001
0000
0000
0000
3001
0000
,
0100
0010
0100
0001
,
0010
0100
0000
0100
,
1000
0001
1000
0001
0100
0010
0100
0010
,
0200
0000
0000
0000
,
0310
0000
0010
2000
0000
0000
3001
0000
,
0100
0000
0100
0002
0000
0000
1003
0000
,
0000
0100
0000
0010
,
0100
0000
1000
0000
0001
0100
0000
0010
,
0000
1000
0000
0010
0000
0100
0000
0000
,
2002
0000
0000
0000
,
0000
0000
0000
3003
,
0100
0001
0000
0001
,
0100
1000
0000
1000
,
0001
0100
0000
0100
,
1000
0000
0100
0000
0000
0000
0100
0001
,
0010
1000
0000
1000
,
0010
0001
0000
0001
,
1000
0010
0000
0010
,
0001
0000
0010
0000
0000
0000
0010
1000
,
0100
0000
0010
0001
0000
0010
0001
0000
,
0100
0000
0010
1000
0000
0010
1000
0000
,
0001
0010
0100
0000
0010
0100
1000
0001
,
1000
0000
0010
0100
0000
0010
0100
0001
,
0010
0000
0100
1000
0000
0100
1000
0000
,
0010
0000
0100
0001
0000
0100
0001
0000
,
1000
0000
0100
0010
0000
0100
0010
0000
,
0001
0000
0100
0010
0000
0100
0010
1000
,
0100
0000
0010
0000
0000
0001
0000
0000
0000
0000
0010
0000
0001
0000
0000
0000
,
0100
0000
0010
0000
0000
1000
0000
0000
0000
0000
0010
0000
1000
0000
0000
0000
,
0001
0000
0010
0000
0000
0100
0000
0000
0000
0000
0010
0000
0100
0000
0000
0000
,
1000
0000
0010
0000
0000
0100
0000
0000
0000
0000
0010
0000
0100
0000
0001
0000
,
0010
0000
0100
0000
0000
1000
0000
0000
0000
0000
0100
0000
1000
0000
0000
0000
,
0010
0000
0100
0000
0000
0001
0000
0000
0000
0000
0100
0000
0001
0000
0000
0000
,
1000
0000
0100
0000
0000
0010
0000
0000
0000
0000
0100
0000
0010
0000
0000
0000
,
0001
0000
0100
0000
0000
0010
0000
0000
0000
0000
0100
0000
0010
0000
1000
0000
,
0100
0000
0010
0000
0000
0001
0000
0000
0010
0000
0000
0001
0000
0000
0000
0000
,
0100
0000
0010
0000
0000
1000
0000
0000
0010
0000
0000
1000
0000
0000
0000
0000
,
0001
0000
0010
0000
0000
0100
0000
0000
0010
0000
0000
0100
0000
0000
0000
0000
,
1000
0000
0010
0000
0000
0100
0000
0000
0010
0000
0000
0100
0000
0000
0001
0000
,
0010
0000
0100
0000
0000
1000
0000
0000
0100
0000
0000
1000
0000
0000
0000
0000
,
0010
0000
0100
0000
0000
0001
0000
0000
0100
0000
0000
0001
0000
0000
0000
0000
,
1000
0000
0100
0000
0000
0010
0000
0000
0100
0000
0000
0010
0000
0000
0000
0000
,
0001
0000
0100
0000
0000
0010
0000
0000
0000
0000
0100
0000
0010
0000
1000
0000
,
0200
0000
0000
0000
,
0300
0000
0000
0000
;

//---------------dance-single - D. D'Amato----------------
#NOTES:
     dance-single:
     D. D'Amato:
     Easy:
     3:
     0.231,0.229,0.009,0.216,0.000,148.000,1.000,23.000,0.000,0.000,0.000,0.231,0.229,0.009,0.216,0.000,148.000,1.000,23.000,0.000,0.000,0.000:
0000
0000
0000
0000
,
0000
0000
0000
0000
,
0000
0000
0000
0000
,
0000
0000
0000
0000
,
0001
0000
1000
0000
,
0020
0000
0000
0030
,
1000
0000
0001
0000
,
0020
0000
0000
0030
,
0000
0100
0000
0100
,
0000
1000
0000
0010
,
0100
0001
0000
0001
,
0000
0100
0010
1000
,
0200
0000
0000
0300
,
0010
0000
0010
0000
,
0010
0010
0020
0000
,
0030
0100
0010
0001
,
0100
0002
0000
0000
,
0103
0010
1000
0100
,
0000
2000
0000
0000
,
3000
0100
0000
0100
,
0000
0010
0000
0001
,
0000
0010
0000
0100
,
0000
1000
0000
0100
,
0000
1000
0000
0010
,
0000
1000
0000
0001
,
0000
0100
0000
0010
,
2002
0000
0000
0000
,
0000
0000
0000
3003
,
0010
0010
0000
0001
,
0100
0100
0000
0010
,
1000
1000
0000
0100
,
0010
0010
0000
0001
,
1000
1000
0000
0010
,
0100
0100
0000
0001
,
0010
0010
0000
0100
,
1000
1000
0001
0100
,
0010
0010
0000
1000
,
0100
0100
0000
0010
,
0001
0001
0100
0000
,
0010
0010
0000
1000
,
0001
0001
0000
0010
,
0100
0100
0000
1000
,
0010
0010
0000
0100
,
0001
0001
1000
0010
,
0100
0200
0000
0301
,
0010
0020
0000
0130
,
1000
2000
0000
3010
,
0100
0200
0000
0301
,
1000
2000
0000
3100
,
0010
0020
0000
0031
,
0100
0200
0000
0310
,
1000
1000
0001
0010
,
0100
0200
0000
1300
,
0010
0020
0000
0130
,
0001
0001
0020
0000
,
0130
0200
0000
1300
,
0001
0002
0000
0103
,
0010
0020
0000
1030
,
0100
0200
0000
0310
,
0001
0001
1000
0010
,
0200
0000
0000
0000
,
0300
0000
0000
0000
;

//---------------dance-double - M. Emirzian----------------
#NOTES:
     dance-double:
     M. Emirzian:
     Easy:
     3:
     0.212,0.226,0.113,0.000,0.000,146.000,12.000,0.000,0.000,0.000,0.000,0.212,0.226,0.113,0.000,0.000,146.000,12.000,0.000,0.000,0.000,0.000:
00000000
00000000
00000000
00000000
,
00000000
00000000
00000000
00000000
,
00000000
00000000
00000000
00000000
,
00000000
00000000
00000000
00000000
,
01000000
00000000
00010000
00000000
,
10000000
01000000
00000000
00000000
,
00010000
00000000
00001000
00000000
,
00000100
00001000
00000000
00000000
,
00010000
00001000
00000010
00000000
,
00000100
00000100
00000000
00000000
,
00000001
00000000
00000100
00000000
,
00000010
00001000
00000000
00000000
,
00000100
00001000
00000010
00000000
,
00010000
00000000
00001000
00000000
,
00000100
00001000
00010000
00000000
,
00100000
00000000
10000000
00000000
,
01000000
00100000
00010000
00000000
,
01000000
00000000
00100000
00000000
,
00010000
00001000
00000100
00000000
,
00000001
00000000
00000010
00000100
,
00010000
00000000
00001000
00000000
,
00000100
00000000
00001000
00000000
,
00010000
00000000
01000000
00000000
,
10000000
00000000
00100000
00000000
,
00010000
00000000
00001000
00000000
,
00000010
00000000
00000001
00000000
,
00000100
00000000
00001000
00000000
,
00010000
00000000
01000000
00000000
,
10000000
10000000
10000000
00000000
,
01000000
01000000
01000000
00000000
,
00010000
00010000
00010000
00000000
,
00001000
00001000
00001000
00000000
,
00000100
00000100
00000100
00000000
,
00001001
00000000
00000110
00000000
,
00000010
00000001
00000100
00001000
,
00001100
00000000
00011000
00000000
,
00001000
00001000
00001000
00000000
,
01000000
01000000
01000000
00000000
,
00100000
00100000
00100000
00000000
,
10000000
10000000
10000000
00000000
,
01000000
00010000
00001000
00000000
,
00000110
00000000
00000011
00000000
,
00000100
00001000
00000100
00000010
,
00000001
00000000
00001100
00000000
,
00000010
00001000
00010000
00000000
,
00100000
00010000
00001000
00000000
,
00010000
01000000
10000000
00000000
,
10000000
00100000
01000000
00000000
,
00010000
01000000
00100000
00000000
,
11000000
00000000
00110000
00000000
,
10000000
00100000
00010000
00000000
,
00010100
00000000
00000110
00000000
,
00000001
00000001
00000000
00000100
,
00000000
00000010
00001000
00000000
,
00000100
00000000
00010000
00001000
,
00000000
00000100
00000000
00001000
,
00010000
00100000
00000000
10000000
,
01000000
00100000
00000000
00010000
,
01000000
00001000
00010000
00000100
,
00000000
00000010
00001000
00000100
,
00001010
00000000
00000000
00000000
;

//---------------dance-double - M. Emirzian----------------
#NOTES:
     dance-double:
     M. Emirzian:
     Medium:
     5:
     0.359,0.339,0.009,0.019,0.000,264.000,1.000,2.000,0.000,0.000,0.000,0.359,0.339,0.009,0.019,0.000,264.000,1.000,2.000,0.000,0.000,0.000:
00000000
00000000
00000000
00000000
,
00000000
00000000
00000000
00000000
,
00000000
00000000
00000000
00000000
,
00000000
00000000
00000000
00000000
,
10000000
01000000
10000000
00100000
,
10000000
00000000
01000000
00000000
00100000
00000000
00010000
01000000
,
00010000
00100000
00010000
01000000
,
00001000
00000000
00010000
00000100
00010000
00000000
00001000
00000000
,
00000010
00001000
00000100
00000010
,
00000001
00000000
00000100
00000000
00000001
00000000
00000010
00000100
,
00001000
00000010
00010000
00001000
,
00100000
00000000
00010000
01000000
00010000
00000000
00100000
00000000
,
01000000
10000000
00100000
00010000
,
00100000
00000000
10000000
00000000
01000000
00000000
00010000
01000000
,
00010000
00001000
00000100
00000001
,
00000010
00000000
00000100
00001000
00000010
00000000
00001000
00000000
,
00000100
00000010
00000001
00000000
00000100
00000000
00001000
00000000
,
00010000
00001000
00000100
00000000
00001000
00000000
00010000
00000000
,
00100000
00010000
00001000
00000000
00010000
00000000
02002000
00000000
,
00000000
00000000
00000000
00000000
03003000
00000000
00000000
00100000
,
01000000
00000000
10000000
00000000
,
01000000
00000000
00010000
00000000
,
00001000
00000100
00000001
00000000
,
00000010
00000000
00001000
00010000
,
00100000
00000000
10000000
00000000
,
01000000
00000000
00010000
00000000
,
00001000
00000010
00000001
00000000
,
00000100
00000000
00001000
00010000
,
01000000
10000000
00000000
10000000
00100000
00000000
01000000
00000000
,
00010000
10000000
00000000
01000000
00100000
00000000
01000000
00000000
,
10000000
01000000
00010000
00000000
00001000
00000010
00000001
00000000
,
00000100
00000001
00000010
00000100
,
00001000
00000001
00000100
00000000
00000010
00001000
00000100
00000000
,
00010000
00000000
00001000
00010000
00100000
00010000
00001000
00000000
,
00010000
01000000
00000000
01000000
10000000
00000000
00100000
01000000
,
00000000
00010000
10000000
00000000
01000000
00100000
00010000
00000000
,
01000000
00001000
00000000
00001000
00010000
00000000
00100000
00000000
,
00010000
00001000
00000000
00001000
00000100
00000000
00001000
00000000
,
00010000
00100000
00010000
00000000
00001000
00000100
00001000
00000000
,
00010000
00000100
00001000
00000010
,
00001000
00000100
00000010
00000000
00000001
00000100
00000001
00000000
,
00000010
00000000
00000100
00001000
00000010
00001000
00000100
00000000
,
00010000
00001000
00000000
00001000
01000000
00000000
00010000
10000000
,
00000000
01000000
00100000
00000000
01000000
10000000
00100000
00000000
,
10000000
01000000
00000000
00100000
00010000
00000000
00100000
00000000
,
00001000
00010000
00000000
00010000
01000000
00000000
00010000
00000000
,
00001000
00000100
00000001
00000000
00000010
00000100
00001000
00000000
,
00000010
00001000
00000100
00000010
,
00000100
00001000
00000001
00000000
00000100
00001000
00010000
00000000
,
00001000
00000000
00010000
00001000
00000100
00001000
00010000
00000000
,
00100000
01000000
00000000
01000000
00010000
00000000
10000000
01000000
,
00000000
00100000
00010000
00000000
01000000
00001000
00010000
00000000
,
00100000
00010000
00000000
00010000
01000000
00000000
00100000
00000000
,
10000000
01000000
00000000
01000000
00010000
00000000
00001000
00000000
,
00000100
00000010
00001000
00000000
00000100
00000010
00000001
00000000
,
00000010
00001000
00010000
00100000
,
10000000
00010000
10000000
00000000
00100000
00010000
00001000
00000000
,
00010000
00000000
00001000
00010000
01000000
00010000
00001000
00000000
,
00000010
00000100
00000000
00000100
00001000
00000000
00000010
00001000
,
00000000
00000001
00000100
00000000
00000010
00001000
00000100
00010000
,
00001000
00000000
00000000
00000000
;

//---------------dance-double - M. Emirzian----------------
#NOTES:
     dance-double:
     M. Emirzian:
     Hard:
     7:
     0.465,0.423,0.019,0.038,0.150,340.000,2.000,4.000,0.000,0.000,0.000,0.465,0.423,0.019,0.038,0.150,340.000,2.000,4.000,0.000,0.000,0.000:
00000000
00000000
00000000
00000000
,
00000000
00000000
00000000
00000000
,
00100000
10000000
01000000
20020000
,
00000000
00000000
00000000
30030000
,
10000000
00000000
01000000
00100000
00010000
01000000
00001000
00000000
,
00010000
00001000
00000100
00001000
00010000
00000000
00001000
00000000
,
00000010
00000001
00000100
00000000
00000100
00000001
00000010
00000000
,
00000100
00001000
00000010
00001000
00000100
00000001
00000100
00000000
,
00001000
00000010
00000100
00000000
00000010
00000000
00010000
00000000
,
00001000
00000100
00001000
00000000
00010000
00000000
00100000
00000000
,
10000000
01000000
00100000
00010000
01000000
10000000
01000000
00000000
,
00010000
10000000
01000000
00100000
00010000
00100000
00001000
00000000
,
00010000
00000000
00100000
00010000
00001000
00010000
00100000
00000000
,
00010000
00001000
00000100
00000001
00000010
00000000
00000100
00000000
,
00001000
00000010
00000001
00000000
00000001
00000010
00001000
00000000
,
00000100
00000010
00000100
00001000
00000001
00000100
00000010
00000000
,
00001000
00000100
00000010
00000000
00001000
00000000
00010000
00000000
,
00100000
00010000
00100000
00000000
00010000
00000000
00001000
00000000
,
00010000
00100000
10000000
01000000
00100000
00000000
20020000
00000000
,
00000000
00000000
00000000
00000000
00000000
00000000
30030000
10000000
,
00010000
00000000
00000000
10000000
00000000
00000000
00000000
01000000
,
00000000
00000000
00000000
00010000
00000000
00000000
00000000
00000100
,
00000000
00000000
00000000
00000001
00000000
00000000
00000000
00000010
,
00000000
00000000
00000000
00001000
00000000
00000000
00000000
01000000
,
00000000
00000000
00000000
10000000
00000000
00000000
00000000
01000000
,
00000000
00000000
00000000
00001000
00000000
00000000
00000000
00010000
,
00001000
00000100
00001000
00010000
,
00100000
00000000
00010000
00000000
00001000
00010000
01000000
10000000
,
00100000
00000000
10000000
00000000
00010000
01000000
00000000
00000000
00100000
00000000
10000000
00000000
00010000
01000000
00000000
00000000
,
00100000
01000000
00100000
10000000
01000000
00010000
00001000
00000000
,
00010000
00000000
00000100
00000000
00001000
00000000
00000000
00001000
00000010
00000000
00000100
00000000
00000001
00000000
00000000
00000000
,
00000010
00000000
00000100
00000000
00001000
00000000
00000000
00001000
00000010
00000000
00000100
00000000
00000001
00000000
00000000
00000000
,
00000000
00000100
00000010
00000000
00000100
00000000
00000000
00000000
00000000
00001000
00010000
00000000
00001000
00000000
00000000
00000000
,
00000000
01000000
00100000
00000000
01000000
00000000
00000000
00000000
00000000
10000000
00010000
00000000
10000000
00000000
00000000
00000000
,
01000000
00100000
00010000
01000000
00100000
01000000
00010000
00000000
,
10000000
01000000
00010000
00001000
00000010
00000001
00000100
00000000
,
00000001
00000000
00000100
00000000
00000010
00001000
00000000
00000000
00000001
00000000
00000100
00000000
00000010
00001000
00000000
00000000
,
00000100
00000010
00000100
00001000
00000001
00000100
00001000
00000000
,
00010000
00000000
00000100
00000000
00010000
00000000
00000000
00010000
00001000
00000000
01000000
00000000
00010000
00000000
00000000
00000000
,
00100000
00000000
10000000
00000000
01000000
00000000
00000000
01000000
10000000
00000000
00100000
00000000
01000000
00000000
00000000
00000000
,
00000000
00010000
01000000
00000000
00010000
00000000
00000000
00000000
00000000
00000100
00001000
00000000
00000100
00000000
00000000
00000000
,
00000000
00100000
00010000
00000000
00100000
00000000
00000000
00000000
00000000
00000010
00001000
00000000
00000010
00000000
00000000
00000000
,
00000100
00000001
00000010
00000100
00001000
00000001
00000100
00000000
,
00000001
00000010
00001000
00010000
00100000
10000000
01000000
00000000
,
00100000
00000000
00010000
00000000
10000000
01000000
00000000
00000000
00100000
00000000
00010000
00000000
10000000
01000000
00000000
00000000
,
00100000
00010000
01000000
00001000
00010000
01000000
00010000
00000000
,
00001000
00000000
00010000
00000000
00000010
00000000
00000000
00000010
00001000
00000000
00000100
00000000
00000010
00000000
00000000
00000000
,
00000100
00000000
00001000
00000000
00000010
00000000
00000000
00000010
00000100
00000000
00000001
00000000
00000010
00000000
00000000
00000000
,
00000000
00000100
00000010
00000000
00000100
00000000
00000000
00000000
00000000
00010000
00001000
00000000
00010000
00000000
00000000
00000000
,
00000000
00100000
01000000
00000000
00100000
00000000
00000000
00000000
00000000
10000000
00010000
00000000
10000000
00000000
00000000
00000000
,
00010000
01000000
00100000
10000000
01000000
00010000
01000000
00000000
,
00010000
01000000
00010000
00001000
00010000
00001000
01000000
00000000
,
00001000
00000000
00010000
00000000
00001000
01000000
00000000
00000000
00001000
00000000
00010000
00000000
00001000
01000000
00000000
00000000
,
00000010
00010000
00001000
01000000
00001000
00010000
00000100
00000000
,
00000010
00000000
00010000
00000000
00001000
00000000
00000000
00001000
01000000
00000000
00010000
00000000
00100000
00000000
00000000
00000000
,
00001000
00000000
00010000
00000000
00000100
00000000
00000000
00000100
00001000
00000000
00000010
00000000
00001000
00000000
00000000
00000000
,
00000000
00000010
00001000
00000000
00000010
00000000
00000000
00000000
00000000
00010000
00001000
00000000
00010000
00000000
00000000
00000000
,
00000000
00001000
01000000
00000000
00001000
00000000
00000000
00000000
00000000
00010000
00000010
00000000
00010000
00000000
00000000
00000000
,
00001000
00010000
00100000
10000000
01000000
00100000
01000000
00000000
,
10000000
00100000
10000000
01000000
00010000
00001000
00000100
00000001
,
00001000
00000000
00000000
00000000
;

//---------------dance-double - M. Emirzian----------------
#NOTES:
     dance-double:
     M. Emirzian:
     Challenge:
     9:
     0.625,0.564,0.132,0.056,0.433,445.000,14.000,6.000,0.000,0.000,0.000,0.625,0.564,0.132,0.056,0.433,445.000,14.000,6.000,0.000,0.000,0.000:
00000000
00000000
00000000
00000000
,
00000000
00000000
00000000
00000000
,
00000010
00000001
00000100
00002002
,
00000000
00000000
00000000
00003003
,
00000010
00000001
00000100
00001000
00010000
01000000
10000000
00100000
,
10000000
00000000
00000000
10000000
01000000
00000000
00100000
00000000
00010000
00000000
00000000
00010000
01000000
00000000
00100000
00000000
,
00010000
00001000
00000100
00000000
00021000
00000000
00130000
00000000
,
00010000
00001000
00000010
00000001
00000100
00001000
00000100
00000001
,
00000010
00000000
00000000
00000010
00000100
00000000
00010000
00000000
00001000
00000000
00000000
00001000
01000000
00000000
00100000
00000000
,
00010000
00100000
10000000
00000000
01000000
00100000
00010000
00000000
,
01002000
00000000
00013000
00000000
00001000
00010000
00100000
00010000
,
00001000
00000000
00000010
00000000
00000001
00000000
00000100
00000000
00000010
00000000
00000000
00000010
00001000
00000000
00000100
00000000
,
00000010
00001000
00010000
00100000
00010000
00001000
00010000
00100000
,
10000000
00000000
00000000
10000000
01000000
00000000
00010000
00000000
00001000
00000000
00000000
00001000
00000100
00000000
00000001
00000000
,
00000010
00000100
00001000
00000000
00000102
00000000
00000013
00000000
,
00000100
00001000
00000010
00010000
00100000
00010000
00001000
00100000
,
01000000
00000000
00000000
01000000
10000000
00000000
00100000
00000000
00010000
00000000
00000000
00010000
00001000
00000000
00000010
00000000
,
00000001
00000100
00000010
00000000
00000100
00001000
01000000
00000000
,
00120000
00000000
10030000
00000000
00100000
01000000
00100000
10000000
,
01000000
00010000
00000000
00001000
00000000
00000100
00000000
00000001
,
00001000
00000100
00000000
00000010
00000000
00000001
00000000
00000100
,
00000000
00001000
00000000
01000000
00000000
00001000
00000000
00000010
,
00000000
00000100
00000000
00010000
00000000
00100000
00000000
00010000
,
00000000
00000010
00000000
00010000
00000000
10000000
00000000
01000000
,
00000000
00001000
00000000
00000010
00000000
00000001
00000000
00010000
,
00000000
00001000
00000000
10000000
00000000
01000000
00000000
00100000
,
00010000
01000000
00100000
10000000
01000000
00010000
00001000
00000100
,
00000001
00000010
00000100
00001000
00000001
00000100
00001000
00000000
,
00000000
00010000
00001000
00000000
00001000
01000000
00000000
01000000
00100000
00000000
00100000
10000000
00000000
10000000
01000000
00000000
,
00000000
10000000
00100000
00000000
00100000
00010000
00000000
00010000
00001000
00000000
00001000
00000010
00000000
00000010
00000001
00000000
,
00000010
00000001
00000100
00001000
00010000
01000000
10000000
01000000
,
00010000
00001000
00000100
00000001
00000010
00000100
00001000
00000000
,
00000001
00000100
00000001
00000000
00000100
00000010
00000000
00001000
00000100
00000000
00010000
00000000
00011000
00000000
00000000
00000000
,
00000100
00010000
00000100
00000000
00010000
00001000
00000000
01000000
00010000
00000000
01000000
00000000
01001000
00000000
00000000
00000000
,
00100000
10000000
00010000
01000000
10000000
01000000
00010000
10000000
,
01000000
10000000
01000000
00000000
00100000
00010000
00000000
10000000
01000000
00000000
00100000
01000000
00000000
10000000
00010000
10000000
,
00000000
00100000
01000000
00000000
01000000
00001000
00000000
00001000
00000100
00000000
00000100
00000001
00000000
00000001
00000010
00000000
,
00000000
00000010
00000001
00000000
00000001
00000100
00000000
00000100
00001000
00000000
00001000
00010000
00000000
00010000
00100000
00000000
,
10000000
01000000
00100000
00001000
00000010
00001000
00100000
00001000
,
00000100
00000001
00000010
00001000
00010000
00000100
00000001
00000000
,
00000100
00001000
00000100
00000000
00000010
00000001
00000000
00001000
00000010
00000000
00000100
00000000
00001010
00000000
00000000
00000000
,
00000010
00010000
00000010
00000000
00001000
00000100
00000000
00010000
00001000
00000000
00100000
00000000
00101000
00000000
00000000
00000000
,
01000000
00100000
01000000
00001000
00010000
10000000
01000000
00010000
,
10000000
00010000
10000000
00000000
01000000
00100000
00000000
00010000
10000000
00000000
01000000
00100000
00000000
00001000
00100000
00000000
,
00000000
00010000
01000000
00000000
01000000
00100000
00000000
00100000
00010000
00000000
00010000
00000010
00000000
00000010
00001000
00000000
,
00000000
00000100
00000010
00000000
00000010
00000001
00000000
00000001
00000100
00000000
00000100
00001000
00000000
00001000
00010000
00000000
,
00001000
00000100
00001000
00010000
00100000
10000000
01000000
00010000
,
00001000
00000010
00000001
00001000
00000010
00000100
00000001
00000000
,
00000010
00000100
00000010
00000000
00001000
00000010
00000000
00010000
00001000
00000000
00000100
00000000
00001100
00000000
00000000
00000000
,
00001000
00000100
00001000
00000000
00010000
00001000
00000000
01000000
00100000
00000000
00010000
00000000
00110000
00000000
00000000
00000000
,
10000000
01000000
00010000
01000000
10000000
00100000
00010000
00001000
,
00000010
00000100
00000010
00000000
00000001
00001000
00000000
00001000
00000100
00000000
00000100
00000010
00000000
00000001
00001000
00000001
,
00000000
00000010
00000100
00000000
00010000
00001000
00000000
01000000
00100000
00000000
10000000
00010000
00000000
01000000
00100000
00000000
,
00000000
10000000
00010000
00000000
00010000
00001000
00000000
00001000
00000001
00000000
00000001
00000100
00000000
00000100
00000010
00000000
,
00001000
00000100
00000001
00000100
00010000
00001000
00000100
00001000
,
01000000
00100000
10000000
01000000
00100000
00001000
00010000
00000000
,
00001000
01000000
00001000
00000000
00010000
00000010
00000000
00001000
00000100
00000000
00000010
00000000
00000011
00000000
00000000
00000000
,
00000010
00001000
00000010
00000000
00001000
00000100
00000000
01000000
00001000
00000000
00010000
00000000
01001000
00000000
00000000
00000000
,
01000000
00100000
10000000
01000000
00010000
00000100
00000001
00000100
,
00010000
00000000
00001000
00000000
01000000
00000000
10000000
00000000
01000000
00100000
01000000
00000000
00001000
01000000
00010000
00000000
,
01001000
00000000
00000000
00000000
;

//---------------dance-single - J. Frederick----------------
#NOTES:
     dance-single:
     J. Frederick:
     Beginner:
     1:
     0.081,0.085,0.028,0.000,0.000,57.000,3.000,0.000,0.000,0.000,0.000,0.081,0.085,0.028,0.000,0.000,57.000,3.000,0.000,0.000,0.000,0.000:
0000
0000
0000
0000
,
0000
0000
0000
0000
,
0000
0000
0000
0000
,
0000
0000
0000
0000
,
1000
0000
0000
0000
,
0001
0000
0000
0000
,
0010
0000
0000
0000
,
0100
0000
0000
0000
,
1000
0000
0000
0000
,
0001
0000
0000
0000
,
0100
0000
0000
0000
,
0010
0000
0000
0000
,
1001
0000
0000
0000
,
0100
0000
0000
0000
,
0010
0000
0000
0000
,
1000
0000
0000
0000
,
0001
0000
0000
0000
,
0010
0000
0000
0000
,
0100
0000
0000
0000
,
1000
0000
0000
0000
,
0001
0000
0000
0000
,
0100
0000
0000
0000
,
0010
0000
0000
0000
,
1000
0000
0000
0000
,
0001
0000
0000
0000
,
0100
0000
0000
0000
,
0010
0000
0000
0000
,
1000
0000
0000
0000
,
1001
0000
0000
0000
,
0100
0000
0000
0000
,
0010
0000
0000
0000
,
1000
0000
0000
0000
,
0001
0000
0000
0000
,
0100
0000
0000
0000
,
1000
0000
0000
0000
,
0010
0000
0000
0000
,
0100
0000
0000
0000
,
0001
0000
0000
0000
,
1000
0000
0000
0000
,
0100
0000
0000
0000
,
0010
0000
0000
0000
,
0001
0000
0000
0000
,
1000
0000
0000
0000
,
0100
0000
0000
0000
,
0110
0000
0000
0000
,
0001
0000
0000
0000
,
1000
0000
0000
0000
,
0010
0000
0000
0000
,
0100
0000
0000
0000
,
1000
0000
0000
0000
,
0001
0000
0000
0000
,
0010
0000
0000
0000
,
0100
0000
0000
0000
,
1000
0000
0000
0000
,
0001
0000
0000
0000
,
0100
0000
0000
0000
,
0010
0000
0000
0000
,
1000
0000
0000
0000
,
0001
0000
0000
0000
,
1000
0000
0000
0000
,
0100
0000
0000
0000
;
