#TITLE:All That Matters;
#SUBTITLE:;
#ARTIST:Andreas Viklund;
#TITLETRANSLIT:;
#SUBTITLETRANSLIT:;
#ARTISTTRANSLIT:;
#GENRE:;
#CREDIT:;
#BANNER:All That Matters-bn.png;
#BACKGROUND:All That Matters-bg.png;
#LYRICSPATH:;
#CDTITLE:;
#MUSIC:All That Matters.ogg;
#OFFSET:-0.029;
#SAMPLESTART:69.920;
#SAMPLELENGTH:11.860;
#SELECTABLE:YES;
#BPMS:0.000=151.025;
#STOPS:;
#BGCHANGES:0.067=All That Matters.mpg=1.000=1=0=0=StretchNoLoop==CrossFade==,
99999=-nosongbg-=1.000=0=0=0 // don't automatically add -songbackground-;
#KEYSOUNDS:;

//---------------dance-double - J.Casarino----------------
#NOTES:
     dance-double:
     J.Casarino:
     Hard:
     8:
     0.577,0.493,0.063,0.054,0.099,434.000,7.000,6.000,2.000,0.000,2.000,0.577,0.493,0.063,0.054,0.099,434.000,7.000,6.000,2.000,0.000,2.000:
00000000
00000000
00000000
00000000
,
00000000
00000000
00000000
00000000
,
00000000
00000000
00000000
00000000
,
10000000
01000000
00010000
00001000
,
00000100
00000000
00000001
00001000
00000001
00000000
00010000
00001000
,
00010000
00000000
00000100
00010000
00000100
00000000
00001000
00000000
,
00000001
00000100
00000001
00000100
00001000
00000100
00001000
00010000
,
00001000
00010000
01000000
00010000
01000000
00010000
00001000
00040000
,
00004000
00000000
00000000
00033000
,
00101000
00000000
00000000
00000000
00000000
00000000
00000000
00000000
00010010
00000000
00000000
00010000
00001000
00000000
00010000
00000000
,
00001000
01000000
00001000
00010000
00001000
00100000
00010000
10000000
,
01000000
01000000
01000000
01000000
,
10000000
00010000
10000000
01000000
00010000
00001000
00000100
00000001
,
00001000
00001000
00001000
00001000
,
00000010
00001000
00000100
00000010
00001000
00010000
00000100
00001000
,
00000010
00000010
00000010
00000010
,
00000100
00001000
00010000
00100000
10000000
00010000
00100000
01000000
,
00100000
00000000
00000000
00000000
00100000
00000000
00000000
00000000
00100000
00000000
00000000
00100000
01000000
00000000
10000000
00000000
,
01000000
10000000
00010000
10000000
01000000
10000000
00010000
10000000
,
01000000
00100000
00100000
00010000
01000000
00001000
00010000
00001000
,
00010000
00000100
00001000
00000100
00010000
00000100
00001000
00000100
,
00010000
00001000
00001000
00010000
00000100
00000010
00000100
00000010
,
00000100
00001000
00000010
00001000
00000100
00001000
00000010
00001000
,
00000100
00000010
00000010
00000001
00001000
00000010
00001000
00000010
,
00010000
00001000
00000100
00001000
00010000
00001000
00000100
00001000
,
00020000
00000000
00000000
00000000
02030000
00000000
00000000
00000000
13000000
00000000
00000000
01000000
00100000
00000000
00001000
00000000
,
00010000
01001000
00000100
00010100
,
00000010
00000000
00001000
00000000
00000001
00000000
00000010
00000000
00000100
00000000
00000000
00001000
00000001
00000000
00000100
00000000
,
00000010
00000000
00000100
00010000
00001000
00100000
00010000
10000000
,
00000000
00000000
10000000
00100000
01000000
00010000
00100000
00001000
,
00000000
00000000
00010000
00001000
00000100
00000000
00001000
00000100
,
00000001
00000000
00000100
00000001
00000010
00000100
00001000
00000000
,
00010100
00000000
00001000
00100000
00010000
10000000
00010000
01000000
,
00000000
00000000
00100000
00001000
00010000
00000010
00001000
00000100
,
00000000
00000000
00001000
00010000
01000000
00000000
00010000
01000000
,
10000000
00000000
01000000
10000000
00100000
01000000
00010000
00000000
,
11000000
00000000
00100000
01000000
10000000
01000000
00100000
00010000
,
00000000
00000000
00100000
00001000
00010000
00000100
00010000
00001000
,
00000000
00000000
00000100
00001000
00000001
00000010
00000001
00000100
,
00000000
00000000
00000100
00000010
00000001
00001000
00000010
00010000
,
00001000
00000000
00010000
01000000
00100000
10000000
00010000
00100000
,
00000000
00000000
00010000
00001000
00010000
00000010
00001000
00000100
,
00000010
00000000
00001000
00010000
00100000
00000000
10000000
00100000
,
00010000
00000000
00000000
00000000
00001000
00000000
00010000
00000000
00000100
00000000
00000000
00000100
00000010
00000000
00000001
00000000
,
00000010
00000001
00001000
00000001
00000010
00000001
00001000
00000001
,
00000010
00000100
00000100
00001000
00000010
00010000
00000010
00010000
,
00000010
00001000
00000100
00001000
00000010
00001000
00000100
00001000
,
00000010
00010000
00010000
00001000
00100000
00010000
00100000
00010000
,
10000000
00100000
00010000
00100000
10000000
00100000
00010000
00100000
,
10000000
01000000
01000000
00100000
00010000
01000000
00010000
01000000
,
00001000
00010000
01000000
00010000
00001000
00010000
01000000
00010000
,
00002000
00000000
00000000
00000000
00023000
00000000
00000000
00000000
00030010
00000000
00000000
00010000
00001000
00000000
00010000
00000000
,
00001000
00010000
00100000
00010000
00001000
00010000
00100000
00010000
,
00001000
00100000
00100000
01000000
10000000
00100000
10000000
00100000
,
01000000
10000000
01000000
00010000
01000000
10000000
01000000
00010000
,
01000000
00001000
00001000
00010000
00000010
00010000
00000010
00001000
,
00000100
00000010
00000001
00000010
00000100
00000010
00000001
00000010
,
00000100
00010000
00010000
00001000
01000000
00010000
01000000
00010000
,
00100000
10000000
00100000
01000000
00100000
10000000
00100000
01000000
,
00200000
00000000
00000000
00000000
00302000
00000000
00000000
00000000
00013000
00000000
00000000
00010000
00001000
00000000
00000100
00000000
,
00000001
00000000
00001000
00000000
00000100
00000000
00000000
00000010
00000000
00000000
00000001
00000000
00001000
00000000
00000000
00000010
,
00000000
00000000
00000001
00000000
00000010
00000000
00000000
00000100
00000000
00000000
00000001
00000000
00001000
00000000
00000000
00000010
,
00000000
00000000
00010000
00000000
00001000
00000000
00000000
00100000
00000000
00000000
00000010
00000000
00010000
00000000
00000000
00001000
,
00000000
00000000
00100000
00000000
00010000
00000000
00000000
01000000
00000000
00000000
00100000
00000000
00010000
00000000
00000000
00001000
,
00000000
00000000
01000000
00000000
00010000
00000000
00000000
00100000
00000000
00000000
01000000
00000000
00100000
00000000
00000000
10000000
,
00000000
00000000
00100000
00000000
00010000
00000000
00000000
10000000
00000000
00000000
00001000
00000000
01000000
00000000
00000000
00001000
,
00000000
00000000
00010000
00000000
00000100
00000000
00000000
00001000
00000000
00000000
00000001
00000000
00000100
00000000
00000000
00001000
,
00000000
00000000
00010000
00000000
01000000
00000000
00000000
10000000
00000000
00000000
00100000
00000000
10000000
00000000
00010000
00000000
,
01100000
0MM00000
00000000
00000000
00000000
00000000
00000000
00000000
;

//---------------dance-double - M.Emirzian----------------
#NOTES:
     dance-double:
     M.Emirzian:
     Easy:
     3:
     0.213,0.246,0.027,0.036,0.000,158.000,3.000,4.000,0.000,0.000,0.000,0.213,0.246,0.027,0.036,0.000,158.000,3.000,4.000,0.000,0.000,0.000:
00000000
00000000
00000000
00000000
,
00000000
00000000
00000000
00000000
,
00000000
00000000
00000000
00000000
,
00000000
00000000
00000000
00000000
,
00010000
00000000
00010000
00000000
,
01000000
00000000
01000000
00000000
,
00100000
00000000
00100000
00000000
,
10000000
00000000
10000000
00000000
,
22000000
00000000
00000000
33000000
,
10010000
00000000
10000000
01000000
,
00100000
00000000
00010000
00000000
,
00010000
00000000
01000000
00001000
,
00010000
00000000
00010000
00000000
,
00000100
00001000
00000010
00000000
,
00000100
00000000
00001000
00000000
,
00000001
00000100
00000010
00000000
,
00001000
00000000
00001000
00000000
,
00000100
00000000
00000100
00010000
,
00001000
00000000
01000000
00001000
,
00010000
00000000
00100000
01000000
,
10000000
00000000
01000000
00010000
,
00100000
00000000
00001000
00010000
,
00000100
00000000
00000100
00000000
,
00010000
00001000
00000100
00000000
,
00000001
00000100
00001000
00000000
,
00000010
00001000
00000100
00000000
,
00000001
00000000
00000100
00001000
,
00010000
00000000
00010000
00000000
,
00100000
00100000
00000000
10000000
,
10000000
00000000
00000000
00010000
,
00010000
00000000
00000000
00100000
,
00100000
00000000
00000000
00001000
,
00001000
00000000
00000000
00000100
,
00000100
00000000
00000000
00000001
,
00000001
00000000
00000000
00001000
,
00001000
00000000
00000000
00000100
,
00000100
00000000
00000000
00010000
,
00010000
00000000
00000000
00001000
,
00001000
00000000
00000000
01000000
,
01000000
00000000
00000000
00010000
,
00010000
00000000
00000000
10000000
,
10000000
00000000
00000000
01000000
,
00100000
00000000
00000000
00200000
,
00020000
00000000
00000000
00330000
,
01000000
00001000
00010000
00000000
,
00000010
00010000
00000100
00000000
,
00010000
00001000
00000010
00000000
,
00000010
00000000
00000001
00000010
,
00001000
00000000
00010000
00100000
,
10000000
00000000
10000000
01000000
,
00100000
00000000
00100000
00000000
,
00010000
01000000
00001000
00000000
,
00001000
00010000
00100000
00000000
,
01000000
00001000
00010000
00000000
,
00000100
00000000
00000100
00000010
,
00000001
00000000
00001000
00000100
,
00000010
00000000
00000001
00000100
,
00000010
00000000
00001000
00000100
,
00010000
00000000
00001000
00000000
,
00000100
00000000
00001000
00000000
,
00010000
00000000
00100000
00000000
,
10000000
01000000
00010000
00000000
,
00100000
00000000
00010000
00000000
,
01000000
00100000
00001000
00000000
,
00010000
00000000
00010000
00000000
,
00000010
00001000
00000100
00000000
,
00000010
00000000
00000001
00000000
,
00000100
00001000
00010000
00000000
,
01001000
00000000
00000000
00000000
;

//---------------dance-double - M.Emirzian----------------
#NOTES:
     dance-double:
     M.Emirzian:
     Medium:
     6:
     0.402,0.338,0.090,0.036,0.000,297.000,10.000,4.000,0.000,0.000,0.000,0.402,0.338,0.090,0.036,0.000,297.000,10.000,4.000,0.000,0.000,0.000:
00000000
00000000
00000000
00000000
,
00000000
00000000
00000000
00000000
,
00000000
00000000
00000000
00000000
,
00000000
00000000
00000000
00000000
,
00100000
00000000
00000000
01000000
00010000
00000000
00000000
10000000
,
00100000
00000000
00000000
00010000
01000000
00000000
00000000
00001000
,
00010000
00000000
00000000
00000100
00001000
00000000
00000000
00000001
,
00000010
00000000
00000000
00000100
00001000
00000000
00000000
00000020
,
00000200
00000000
00000000
00000330
,
00001001
00000000
00000100
00000010
,
00000001
00001000
00000100
00000000
00001000
00000010
00010000
00000000
,
00001000
00010000
00001000
00000000
01000000
00000000
00010000
00000000
,
01000000
00001000
00010000
00000000
00001000
00010000
00100000
00000000
,
10000000
10000000
01000000
01000000
,
00100000
00010000
00100000
00000000
01000000
10000000
01000000
00000000
,
00100000
00010000
01000000
00000000
00001000
00000000
00010000
00000000
,
00000100
00001000
00000010
00000000
00001000
00000100
00000010
00000000
,
00000001
00000001
00001000
00001000
,
00000010
00000100
00000010
00000000
00001000
00000100
00010000
00000000
,
00001000
00010000
00000100
00000000
00010000
00000000
00001000
00000000
,
01000000
00010000
01000000
00000000
00001000
00010000
00001000
00000000
,
00100000
00100000
00010000
00010000
,
10000000
00100000
01000000
00000000
00010000
10000000
00010000
00000000
,
00100000
01000000
00100000
00000000
00010000
00000000
10000000
00000000
,
01000000
00100000
00010000
00000000
00100000
00001000
00010000
00000000
,
00000010
00000010
00001000
00001000
,
00002200
00000000
00000000
00003300
,
00001001
00000000
00001000
00000100
,
00000000
00000010
00000100
00000010
00000000
00000001
00001000
00000001
,
00000000
00000100
00000000
00000100
00000000
00001000
00000000
00001000
,
00000000
00010000
00000100
00010000
00000000
00001000
01000000
00001000
,
00000000
00010000
00000000
00010000
00000000
00100000
00000000
00100000
,
00000000
01000000
00010000
01000000
00000000
00100000
10000000
00100000
,
00000000
01000000
00000000
01000000
00000000
00010000
00000000
00010000
,
00000000
00100000
00001000
00100000
00000000
00001000
00010000
00001000
,
00000000
00000100
00000000
00000100
00000000
00000001
00000000
00000001
,
00000000
00000000
00000110
00000000
00001000
00000100
00000000
00000100
,
00000000
00000000
00010010
00000000
00010000
00001000
00000000
00001000
,
00000000
00000000
01001000
00000000
01000000
00010000
00000000
00010000
,
00000000
00000000
00100000
00000000
01000000
10000000
00100000
00000000
,
00000000
00000000
01010000
00000000
01000000
00100000
00000000
00100000
,
00000000
00000000
01001000
00000000
00001000
00010000
00000000
00010000
,
00000000
00000000
00010010
00000000
00001000
00000010
00000000
00000010
,
00000000
00000100
00000001
00000100
,
00000010
00001000
00000010
00000000
00010000
00000010
00001000
00000000
,
00000010
00010000
00001000
00000000
01000000
00000000
00001000
00000000
,
00010000
00000100
00001000
00000000
00000100
00010000
00001000
00000000
,
01000000
01000000
00100000
00100000
,
01000000
00010000
00100000
00000000
00001000
00010000
01000000
00000000
,
10000000
00010000
10000000
00000000
00100000
00000000
01000000
00000000
,
00010000
00100000
00010000
00000000
01000000
00001000
01000000
00000000
,
00001000
00001000
00010000
00010000
,
00000100
00001000
00000100
00000000
00010000
00000010
00010000
00000000
,
00000010
00001000
00000010
00000000
00000100
00000000
00000001
00000000
,
00000010
00000100
00001000
00000000
00000001
00000100
00000010
00000000
,
00001000
00001000
00000100
00000100
,
00010000
00000100
00001000
00000000
00000100
00010000
00001000
00000000
,
01000000
00010000
10000000
00000000
00100000
00000000
01000000
00000000
,
00010000
10000000
01000000
00000000
00100000
01000000
10000000
00000000
,
01000000
01000000
00100000
00100000
,
00010000
00000000
00000000
00010000
01000000
00000000
00000000
01000000
,
00001000
00000000
00000000
00001000
00010000
00000000
00000100
00000000
,
00000100
00000000
00000000
00001000
00000010
00000000
00000000
00000010
,
00000100
00000000
00000000
00000001
00001000
00000000
00000100
00000000
,
00000100
00000000
00000000
00010000
00001000
00000000
00000000
01000000
,
00010000
00000000
00000000
00100000
00010000
00000000
10000000
00000000
,
10000000
00100000
01000000
00001000
,
00010000
00000000
00000100
00000000
00001000
00000010
00000100
00000000
,
00001001
00000000
00000000
00000000
;

//---------------dance-double - M.Emirzian----------------
#NOTES:
     dance-double:
     M.Emirzian:
     Challenge:
     9:
     0.616,0.523,0.072,0.000,0.357,469.000,8.000,0.000,3.000,0.000,2.000,0.616,0.523,0.072,0.000,0.357,469.000,8.000,0.000,3.000,0.000,2.000:
00000000
00000000
00000000
00000000
,
00000000
00000000
00000000
00000000
,
00000000
00000000
00000000
00000000
,
00100000
00000000
00M00000
00100000
00010000
00000000
000M0000
00010000
,
01000000
00000000
10000000
01000000
00010000
00000000
01000000
00001000
,
00010000
00000000
00001000
00010000
00000100
00001000
00000100
00000010
,
00000001
00010000
00000100
00000010
00000001
00010000
00000100
00000010
,
00000100
00010000
00001000
01000000
00100000
10000000
00010000
01000000
,
40040000
00000000
00000000
30030000
,
01010000
00000000
00000000
00000000
00000000
00000000
0000M000
00000000
00001001
00000000
00000000
00001000
00000100
00000000
00000010
00000000
,
00000001
00000010
00000100
00010000
00000001
00000010
00000100
00010000
,
00000001
00000010
00000100
00010000
00000001
00000100
00001000
00010000
,
00100000
00000000
10000000
00000000
00010000
00000000
00000000
01000000
00000000
00000000
00001000
00000000
00010000
00000000
00000000
10000000
,
00000000
00000000
01000000
00000000
00010000
00000000
00000000
00100000
00000000
00000000
00010000
00000000
10000000
00000000
00100000
00000000
,
10000000
01000000
00100000
00001000
10000000
01000000
00100000
00001000
,
10000000
01000000
00100000
00001000
00010000
00001000
00000010
00000001
,
00001000
00000000
00000010
00000000
00010000
00000000
00000000
00000001
00000000
00000000
00000100
00000000
00001000
00000000
00000000
00000010
,
00000000
00000000
00001000
00000000
00000100
00000000
00000001
00000000
00001000
00000000
00000000
00001000
00000100
00000000
00000010
00000000
,
00000001
00000100
00000001
00010000
00000100
00001000
00000001
00010000
,
00000100
00001000
00000010
00000100
00001000
00000010
00001000
00010000
,
00001000
00000000
01000000
00000000
00001000
00000000
00000000
10000000
00000000
00000000
01000000
00000000
00100000
00000000
00000000
10000000
,
00000000
00000000
00100000
00000000
00001000
00000000
00000000
00010000
00000000
00000000
00100000
00000000
01000000
00000000
00001000
00000000
,
01000000
00100000
10000000
00001000
01000000
00100000
10000000
00001000
,
01000000
00010000
00100000
01000000
00100000
00001000
00010000
00000100
,
00010000
00000000
00000010
00000000
00010000
00000000
00000000
00001000
00000000
00000000
00000001
00000000
00000100
00000000
00000000
00010000
,
00000000
00000000
00000001
00000000
00000100
00000000
00000010
00000000
00001000
00000000
00000000
00001000
00000100
00000000
00000010
00000000
,
00000100
00001000
00000100
00000000
00000010
00001000
00100000
00000000
,
01000000
00000000
00100000
00000000
00001000
00000000
00010000
00000000
00100000
00000000
00000000
00100000
10000000
00000000
00100000
00000000
,
00000000
01000000
00000000
01000000
00010000
00000000
01000000
00000000
00000000
00100000
00000000
00100000
10000000
00000000
01000000
00000000
,
00000000
00100000
00000000
00100000
00001000
00000000
00010000
00000000
00000000
00000001
00000000
00000001
00001000
00000000
00000100
00000000
,
00000000
00000001
00000000
00000001
00000100
00000000
00001000
00000000
00000000
00000010
00000000
00000010
00010000
00000000
00001000
00000000
,
00000100
00001000
00100000
00010000
00100000
01000000
10000000
00010000
,
10000000
00100000
00000000
00100000
10000000
00000000
01000000
00000000
00000000
00010000
00000000
00010000
00001000
00000000
01000000
00000000
,
00000000
00100000
00000000
00100000
01000000
00000000
00001000
00000000
00000000
00010000
00000000
00010000
00001000
00000000
00000100
00000000
,
00000000
00000001
00000000
00000001
00000010
00000000
00000001
00000000
00000000
00001000
00000000
00001000
00000010
00000000
00000100
00000000
,
00001000
01000000
00010000
01000000
00000000
00100000
10000000
00100000
,
01000000
00010000
00000000
00010000
00100000
00000000
00000000
00000000
01000000
00001000
00000000
00010000
00000010
00000000
00000000
00000000
,
00010000
00001000
00000000
00001000
01000000
00000000
00000000
00000000
00000010
00010000
00000000
00010000
00001000
00000000
00000000
00000000
,
00010000
00001000
00000000
00001000
00010000
00000000
00000100
00000000
00000000
00010000
00000000
00010000
00001000
00000000
00000100
00000000
,
00000000
00001000
00000000
00001000
00010000
00000000
00000010
00000000
00000000
00000010
00000000
00000010
00010000
00000000
00001000
00000000
,
00010000
00000100
00000000
00000100
00001000
00000000
00000000
00000000
00000010
00010000
00000000
00001000
00100000
00000000
00000000
00000000
,
00010000
01000000
00000000
01000000
00100000
00000000
00000000
00000000
01000000
00001000
00000000
00010000
00000100
00000000
00001000
00000000
,
00000001
00001000
00000100
00000010
00000001
00010000
00000100
00000010
,
00000001
00000000
00010000
00000000
00001000
00000000
10000000
00000000
00100000
00000000
00000000
00100000
10000000
00000000
00010000
00000000
,
10000000
01000000
00100000
00001000
10000000
01000000
00100000
00001000
,
10000000
01000000
00100000
00001000
00010000
00001000
00000010
00000001
,
00001000
00000000
00000010
00000000
00000100
00000000
00000000
00001000
00000000
00000000
00000010
00000000
00001000
00000000
00000000
00000100
,
00000000
00000000
00000001
00000000
00010000
00000000
00000000
00001000
00000000
00000000
00000100
00000000
00001000
00000000
00010000
00000000
,
00100000
01000000
00001000
10000000
00010000
01000000
00100000
10000000
,
00001000
01000000
00100000
10000000
00001000
00100000
00010000
00100000
,
00001000
00000000
01000000
00000000
00001000
00000000
00000000
00010000
00000000
00000000
00000100
00000000
01000000
00000000
00000000
00001000
,
00000000
00000000
00010000
00000000
00000001
00000000
00001000
00000000
00000100
00000000
00000000
00000100
00001000
00000000
00000010
00000000
,
00010000
00001000
00100000
00000010
00010000
00001000
00100000
00000010
,
00010000
00001000
00010000
00000010
00001000
00000100
00000010
00000001
,
00001000
00000000
00000010
00000000
00000100
00000000
00000000
00001000
00000000
00000000
01000000
00000000
00001000
00000000
00000000
00000010
,
00000000
00000000
00001000
00000000
00010000
00000000
00000000
10000000
00000000
00000000
01000000
00000000
00010000
00000000
10000000
00000000
,
01000000
00100000
00001000
01000000
00000100
00010000
00001000
01000000
,
00000100
00010000
00001000
01000000
00010000
00100000
10000000
01000000
,
10000000
00000000
00100000
00000000
00010000
00000000
00000000
01000000
00000000
00000000
00001000
00000000
00010000
00000000
00000000
00000001
,
00000000
00000000
00000100
00000000
00000010
00000000
00010000
00000000
00000100
00000000
00000000
00000100
00001000
00000000
00000010
00000000
,
00001000
00000100
00000000
00000010
00000000
00001001
00000000
00001100
,
00000000
00010000
00000010
00000100
00001000
00000010
00001000
00000100
,
00000000
00000000
00000001
00000000
00001000
00000000
00000000
00000100
00000000
00000000
01000000
00000000
00001000
00000000
00000000
00010000
,
00000000
01000000
10000000
00001000
01000000
00100000
10000000
00001000
,
00000000
00100000
00000000
00000010
00000000
00011000
00000000
00010010
,
00000000
00010000
00000001
00001000
00000001
00010000
00000001
00001000
,
00000000
00000000
00000010
00000000
00010000
00000000
00000000
00100000
00000000
00000000
01000000
00000000
00000100
00000000
00000000
00010000
,
00000000
00001000
00100000
01000000
10000000
00001000
00100000
01000000
,
11000000
00000000
00000000
00000000
;

//---------------dance-single - M. Calfin----------------
#NOTES:
     dance-single:
     M. Calfin:
     Edit:
     9:
     0.652,0.530,0.081,0.018,0.357,494.000,9.000,2.000,4.000,0.000,2.000,0.652,0.530,0.081,0.018,0.357,494.000,9.000,2.000,4.000,0.000,2.000: // measure 1
0000
0000
0000
0000
,  // measure 2
0000
0000
0000
0000
,  // measure 3
0000
0000
0000
0000
,  // measure 4
1001
0000
M000
0001
1000
0000
M000
1000
,  // measure 5
0001
0000
0100
0010
1000
0000
0010
0100
,  // measure 6
0001
0000
0010
0100
0010
0001
0100
0010
,  // measure 7
1000
0010
0100
0001
1000
0100
0010
0001
,  // measure 8
0010
0100
1000
0001
0100
0010
1000
0010
,  // measure 9
0404
0000
0000
0303
,  // measure 10
1010
0000
0000
0000
0000
0000
M00M
0000
0110
0000
0000
0010
1000
0000
0010
0000
,  // measure 11
0100
0001
1000
0100
1000
0100
0010
0001
,  // measure 12
0100
0010
1000
0010
0100
0001
1000
0100
,  // measure 13
0010
0000
0100
0000
1000
0000
0000
0100
0010
0000
0010
0000
0001
0000
0000
0010
,  // measure 14
0100
0000
1000
0000
0100
0000
0000
0010
0001
0000
0100
0000
0010
0000
1000
0000
,  // measure 15
0010
0100
0001
1000
0100
0001
0100
1000
,  // measure 16
0010
0001
1000
0100
0001
0010
1000
0010
,  // measure 17
0001
0000
0100
0000
0010
0000
0000
1000
0010
0000
0100
0000
0001
0000
0000
1000
,  // measure 18
0100
0000
0010
0000
0001
0000
1000
0000
0001
0000
0000
0100
0010
0000
1000
0000
,  // measure 19
0010
0100
0001
1000
0100
1000
0100
0010
,  // measure 20
0001
0010
0100
0010
0001
0100
1000
0100
,  // measure 21
0001
0000
0010
0000
0100
0000
0000
1000
0100
0000
0010
0000
0100
0000
0000
1000
,  // measure 22
0100
0000
0001
0000
0100
0000
0000
1000
0010
0000
0100
0000
0001
0000
0010
0000
,  // measure 23
0100
0010
0001
0100
0010
1000
0010
0100
,  // measure 24
0001
1000
0100
0010
0100
1000
0001
0100
,  // measure 25
0010
0000
0100
0000
0001
0000
0000
1000
0100
0000
0010
0000
0001
0000
0000
1000
,  // measure 26
0100
0000
0010
0000
0001
0000
0100
0000
0010
0000
0000
1000
0010
0000
0100
0000
,  // measure 27
0001
1000
0100
0000
0010
0001
1000
0000
,  // measure 28
0010
0000
0100
0000
0001
0000
0100
0000
0010
0000
0000
1000
0010
0000
0100
0000
,  // measure 29
0000
0001
0000
1000
0100
0000
0010
0000
0000
0001
0000
0010
0100
0000
0010
0000
,  // measure 30
0000
0001
0000
0100
0010
0000
1000
0000
0000
0010
0000
0001
0010
0000
1000
0000
,  // measure 31
0000
0100
0000
0001
0100
0000
1000
0000
0000
0010
0000
1000
0010
0000
0100
0000
,  // measure 32
0001
0010
0100
0010
0001
0100
0010
1000
,  // measure 33
0010
0100
0000
0010
1000
0000
0010
0000
0000
0100
0000
0001
1000
0000
0100
0000
,  // measure 34
0000
0010
0000
0001
1000
0000
0001
0000
0000
0100
0000
0010
1000
0000
0010
0000
,  // measure 35
0000
0100
0000
0010
1000
0000
0010
0000
0000
0100
0000
0001
0010
0000
1000
0000
,  // measure 36
0010
0001
0100
1000
0000
0100
0001
0010
,  // measure 37
0100
1000
0000
0100
0010
0000
0000
0000
0001
1000
0000
0100
0010
0000
0000
0000
,  // measure 38
0001
1000
0000
0010
0100
0000
0000
0000
0001
0010
0000
0100
1000
0000
0000
0000
,  // measure 39
0100
1000
0000
0010
0100
0000
0001
0000
0000
1000
0000
0100
0010
0000
0100
0000
,  // measure 40
0000
1000
0000
0100
0010
0000
0100
0000
0000
0010
0000
0001
0100
0000
0010
0000
,  // measure 41
1000
0010
0000
0010
1000
0000
0000
0000
0010
0100
0000
0100
0001
0000
0000
0000
,  // measure 42
0001
0010
0000
0010
0100
0000
0000
0000
1000
0100
0000
0100
0010
0000
0100
0000
,  // measure 43
1000
0100
0001
0100
1000
0010
0001
1000
,  // measure 44
0100
0000
0001
0000
0010
0000
0100
0000
1000
0000
0000
0100
1000
0000
0100
0000
,  // measure 45
0010
0001
0100
0010
1000
0010
0001
0010
,  // measure 46
1000
0100
0001
0100
1000
0010
0100
0001
,  // measure 47
1000
0000
0100
0000
0010
0000
0000
0010
0001
0000
1000
0000
0100
0000
0000
0010
,  // measure 48
0001
0000
1000
0000
0100
0000
0000
0010
0001
0000
0100
0000
0010
0000
1000
0000
,  // measure 49
0010
0001
0010
1000
0100
0010
0100
0010
,  // measure 50
0001
0100
0010
1000
0010
0100
0001
1000
,  // measure 51
0100
0000
0010
0000
0100
0000
0000
1000
0100
0000
0010
0000
0001
0000
0000
0100
,  // measure 52
0010
0000
1000
0000
0010
0000
0100
0000
0010
0000
0000
0100
0010
0000
1000
0000
,  // measure 53
0100
0001
0100
1000
0010
0100
0001
0010
,  // measure 54
0100
0010
0001
0100
1000
0100
0001
0010
,  // measure 55
0100
0000
0010
0000
0001
0000
0000
0100
0010
0000
1000
0000
0001
0000
0000
0010
,  // measure 56
0100
0000
1000
0000
0010
0000
0000
0100
0001
0000
1000
0000
0100
0000
0010
0000
,  // measure 57
0100
0010
0001
0100
1000
0100
0001
0010
,  // measure 58
1000
0010
0001
0100
0010
1000
0010
0100
,  // measure 59
0001
0000
1000
0000
0100
0000
0000
0010
0100
0000
0010
0000
0001
0000
0100
0010
,  // measure 60
1000
0000
0010
0000
0100
0000
0001
0000
0010
0000
0000
0100
1000
0000
0100
0000
,  // measure 61
0010
0001
0000
1000
0000
1010
0000
0101
,  // measure 62
0000
1000
0010
0100
0001
0010
0100
0010
,  // measure 63
0000
0000
0001
0000
0100
0000
0000
0010
0100
0000
0001
0000
0010
0000
0000
0100
,  // measure 64
1000
0100
0010
0001
0100
0010
1000
0010
,  // measure 65
0000
0100
0000
0001
0000
1010
0000
0110
,  // measure 66
0000
1000
0010
0100
0001
1000
0100
0010
,  // measure 67
0000
0000
0010
0000
0100
0000
0000
1000
0100
0000
0010
0000
0001
0000
0000
1000
,  // measure 68
0001
0100
0010
1000
0010
0100
0001
1000
,  // measure 69
2002
0000
0000
0000
,  // measure 70
3003
0000
0000
0000
;

//---------------dance-single - R. Konkul----------------
#NOTES:
     dance-single:
     R. Konkul:
     Beginner:
     1:
     0.084,0.123,0.000,0.000,0.000,65.000,0.000,0.000,0.000,0.000,0.000,0.084,0.123,0.000,0.000,0.000,65.000,0.000,0.000,0.000,0.000,0.000:
0000
0000
0000
0000
,
0000
0000
0000
0000
,
0000
0000
0000
0000
,
0000
0000
0000
0000
,
0001
0000
0000
0000
,
0010
0000
0000
0000
,
0100
0000
1000
0000
,
1000
0000
0000
0000
,
0001
0000
0000
0000
,
0010
0000
0000
0000
,
0001
0000
0000
0000
,
0100
0000
0000
0000
,
0001
0000
0000
0000
,
0010
0000
0000
0000
,
0000
0100
0000
0000
,
0000
0000
1000
0000
,
0000
0000
0001
0000
,
0000
0000
0100
0000
,
0000
0000
0000
0001
,
0000
0000
0000
0010
,
0000
0000
0001
0000
,
0000
0000
0100
0000
,
0000
0000
0000
0010
,
0000
0000
0000
1000
,
0000
0000
0000
0000
,
0100
0000
0000
0000
,
0010
0000
0000
0000
,
0010
0000
0000
0000
,
0001
0000
0000
0000
,
1000
0000
0000
0000
,
0001
0000
0000
0000
,
0100
0000
0000
0000
,
0010
0000
0000
0000
,
0100
0000
0000
0000
,
0001
0000
0000
0000
,
0010
0000
0000
0000
,
0100
0000
0000
0000
,
1000
0000
0000
0000
,
0001
0000
0000
0000
,
0100
0000
0000
0000
,
0010
0000
0000
0000
,
0100
0000
0000
0000
,
0001
0000
0000
0000
,
0000
0000
1000
0000
,
0000
0000
0000
0000
,
0100
0000
0000
0000
,
0000
0010
0000
0000
,
0000
0000
0000
0000
,
0001
0000
0000
0000
,
0000
1000
0000
0000
,
0000
0000
0000
0010
,
0000
0000
0000
0000
,
0100
0000
0000
0000
,
0001
0000
0000
0000
,
1000
0000
0000
0000
,
0100
0000
0000
0000
,
0010
0000
0000
0000
,
0001
0000
0000
0000
,
0100
0000
0000
0000
,
0001
0000
0000
0000
,
0010
0010
0010
0000
,
0000
0000
0000
0100
,
0000
1000
0000
0001
,
0000
0000
0000
0100
,
0000
0000
0000
0010
,
0000
0000
0000
0100
,
0000
0000
0000
0001
,
0000
0000
0010
0000
,
0100
0000
0000
0000
;

//---------------dance-single - R. Konkul----------------
#NOTES:
     dance-single:
     R. Konkul:
     Easy:
     3:
     0.202,0.215,0.154,0.054,0.000,133.000,17.000,6.000,0.000,0.000,0.000,0.202,0.215,0.154,0.054,0.000,133.000,17.000,6.000,0.000,0.000,0.000:
0000
0000
0000
0000
,
0000
0000
0000
0000
,
0001
0000
0010
0010
,
0010
0000
0100
1000
,
0001
0000
0100
0000
,
0100
0000
0000
0001
,
0001
0000
0000
0010
,
0010
0000
0000
0000
,
1001
0000
0000
0000
,
1001
0000
0000
0000
,
1000
0000
0001
0000
,
0010
0000
0010
0010
,
0010
0000
0001
0000
,
0001
0000
0100
0100
,
0100
0000
0010
0000
,
1000
0000
0001
0001
,
0001
0000
0010
0000
,
0010
0000
0100
0100
,
0100
0000
1000
0001
,
1000
0000
0010
0010
,
0101
0000
0001
0000
,
1001
0000
0001
0010
,
0001
0000
1000
0100
,
1000
0000
0010
0000
,
0110
0000
0100
0001
,
1000
0000
0000
0001
,
0010
0000
0002
0000
,
0100
0000
1000
0003
,
0001
0000
0010
0000
,
0100
0000
1000
0000
,
0000
0000
0000
1000
,
1000
0000
0001
0100
,
0001
0100
0000
0010
,
0000
1000
0000
0000
,
1001
0000
0001
0000
,
0011
0000
0100
0000
,
1000
0000
0010
0000
,
0100
0000
0001
0000
,
1000
0000
0001
0000
,
0000
0001
0001
0010
,
0100
0000
0000
0000
,
1001
0000
0000
0000
,
0110
0000
0001
0000
,
0010
0001
1000
0000
,
1100
0000
0000
0001
,
0011
0000
0000
0100
,
0101
0000
0000
0000
,
1010
0000
0000
0000
,
0011
0000
0000
0000
,
0101
0000
0000
0000
,
1100
0000
0001
0000
,
1000
0000
0010
0000
,
0100
0000
0000
0001
,
0001
0001
1000
0000
,
0100
0000
0000
1000
,
0010
0000
0100
0000
,
0001
0000
0000
0010
,
0100
0000
0010
0001
,
1000
0000
0000
0010
,
0010
0000
0100
0000
,
1001
0000
0000
0001
,
0001
0000
0000
0010
,
0010
0000
0000
0000
,
0200
0000
0000
0000
,
2300
0000
0000
0000
,
3002
0000
0000
0000
,
0023
0000
0000
0030
,
0020
0000
0000
0030
,
0100
0000
0000
0000
;

//---------------dance-single - Rynker----------------
#NOTES:
     dance-single:
     R. Konkul:
     Medium:
     6:
     0.381,0.400,0.109,0.009,0.000,282.000,12.000,1.000,0.000,0.000,0.000,0.381,0.400,0.109,0.009,0.000,282.000,12.000,1.000,0.000,0.000,0.000:
0000
0000
0000
0000
,
0000
0000
0000
0000
,
0000
0000
0000
1000
,
0001
0000
0000
0000
0010
0001
0010
0001
,
0010
0000
0001
0100
,
0010
0000
0100
0000
,
0001
0010
0001
0000
,
1000
0000
0100
0000
1000
0001
1000
0001
,
1000
0000
0000
0001
,
0002
0000
0100
0100
,
0103
0000
0010
0000
1000
0000
0001
0010
,
0001
0000
1000
0000
1000
1000
1000
1000
,
1000
0000
0001
0000
0100
0000
0010
0100
,
0010
0000
0100
0000
0001
0010
0001
0010
,
0001
0000
0000
0000
1000
0000
0100
1000
,
0010
0000
0000
0000
0100
0000
0100
0100
,
0001
0000
0000
0001
0010
0000
0000
0010
,
0100
0000
0000
0100
1000
0001
1000
0000
,
0001
0000
0100
0000
0010
0000
1000
0010
,
1000
0000
0001
0000
0010
0000
0001
1000
,
0100
0000
1000
0000
0001
0000
0010
0010
,
0001
0000
0001
0000
0100
0100
0100
0001
,
0001
0000
0100
0000
0010
0100
0010
1000
,
0010
0000
1000
0000
0001
0010
0001
0000
,
1000
0100
1000
0000
0001
0100
1000
0000
,
1000
0100
0001
0010
1000
0000
0010
0000
,
0110
0000
1000
0001
,
0110
0000
0000
0000
0100
0001
0100
0010
,
1000
0000
0001
0000
0010
0000
0100
1000
,
0001
0000
0100
0000
0001
0010
1000
0001
,
0010
0000
1000
0000
0001
0000
0000
1000
,
0010
0000
0000
0010
0100
0000
0001
0000
,
0011
0000
0000
0100
,
1000
0000
0000
0000
1000
0000
0001
0010
,
0001
0000
0000
0001
0100
0000
0000
0100
,
0010
0000
1000
0000
0001
1000
0001
0010
,
0001
0000
0000
0000
0010
0000
0100
1000
,
0010
0000
0000
0000
1000
0000
0000
0010
,
1000
0000
0000
0000
,
0011
0000
0000
0000
0011
0000
0000
1000
,
0100
0000
1000
0000
0001
0000
0100
0010
,
0100
0000
0001
0000
0001
0000
0000
0010
,
0010
0000
0100
0000
0100
0000
0000
1000
,
0001
0000
1000
0000
0010
1000
0010
0100
,
0100
0000
0000
0000
0100
0000
0001
0010
,
0001
0000
0010
0000
0100
0000
1000
0100
,
1000
0000
0010
0000
0010
0001
0100
1000
,
0010
0000
0010
0000
0010
0010
0010
0010
,
0010
0000
0000
0000
1000
0000
0100
0010
,
0000
0000
0000
0000
0001
0000
0000
0001
,
0100
0000
0000
0000
0100
0000
0000
0010
,
1000
0000
0000
0010
1000
0000
1000
0000
,
1100
0100
0010
0010
,
0110
0100
0101
0001
,
0011
0010
0110
0010
,
1010
0000
0010
0000
1000
0100
1000
0100
,
1000
0000
0001
0010
,
0000
0000
0100
0000
0010
0000
0010
0001
,
1000
0000
0000
0001
1000
0000
0000
0010
,
1000
0000
0001
0000
0100
0001
0100
0001
,
1000
0000
0100
0000
,
0010
0000
0001
0100
,
0010
0000
0000
0000
0010
1000
0010
1000
,
0010
0000
1000
0100
,
0100
0000
0000
0000
0010
0000
0010
0001
,
0010
0000
0000
0000
0001
0100
0001
0000
,
1000
0100
1000
0000
0010
1000
0010
0000
,
0100
0100
0001
0001
,
1001
0000
0000
0000
;

//---------------dance-single - R. Konkul----------------
#NOTES:
     dance-single:
     R. Konkul:
     Hard:
     8:
     0.553,0.492,0.199,0.054,0.027,400.000,22.000,6.000,0.000,0.000,0.000,0.553,0.492,0.199,0.054,0.027,400.000,22.000,6.000,0.000,0.000,0.000: // measure 1
0000
0000
0000
0000
,  // measure 2
0000
0000
0000
0000
,  // measure 3
0001
0000
0010
0000
0100
1000
0100
1000
,  // measure 4
1000
0000
0010
0000
0100
0010
0100
0100
,  // measure 5
0001
0000
0010
0000
0001
0010
0001
0001
,  // measure 6
0100
0000
0010
0000
1000
0001
0010
0000
,  // measure 7
0001
1000
0100
0000
1000
0001
0010
0001
,  // measure 8
1000
0010
0110
1001
,  // measure 9
0011
0000
0010
0000
0100
1000
0001
1000
,  // measure 10
0010
0000
0000
0000
1000
0000
0000
0000
1010
0000
0000
0100
1000
0000
1000
0000
,  // measure 11
1001
0000
0011
0000
0011
1000
0001
1000
,  // measure 12
0010
0000
0110
0000
0100
0001
0010
0100
,  // measure 13
1000
0000
1100
0000
0010
0001
1000
0001
,  // measure 14
0001
0100
0010
0010
0100
0010
1000
1000
,  // measure 15
0001
0000
0010
0000
0001
1000
0010
0100
,  // measure 16
0010
0000
1000
0000
0100
0001
0100
1000
,  // measure 17
0101
0000
0100
0000
0010
1000
0010
0000
,  // measure 18
0001
0010
1000
0001
0010
1000
0010
0001
,  // measure 19
1000
0000
0100
0000
1000
0001
0010
0100
,  // measure 20
1000
0100
0100
0010
0001
1000
0010
0100
,  // measure 21
0010
1000
1000
0001
0010
0000
0100
0000
,  // measure 22
1000
0001
1000
0000
0001
0100
0010
0100
,  // measure 23
0100
0000
0000
0000
0001
0000
0000
0000
0010
0000
0001
0000
1000
0000
0100
1000
,  // measure 24
0100
0000
0000
0000
1000
0000
0000
0000
0001
0000
0010
0100
0010
0000
0001
0000
,  // measure 25
1000
0010
0010
0100
0001
0000
1000
0000
,  // measure 26
0100
0010
0100
1000
1000
0000
0010
0000
,  // measure 27
0110
0000
0100
0000
0001
0000
1000
0100
,  // measure 28
1000
0001
0010
0000
0001
0100
0010
0100
,  // measure 29
0100
0000
0001
0000
1000
0000
0001
0010
,  // measure 30
0100
0000
1100
0000
1000
0000
0001
0100
,  // measure 31
0110
0000
0100
0000
0001
0000
1000
0100
,  // measure 32
0010
0100
1000
0001
0100
0010
0100
0001
,  // measure 33
0101
0000
0100
0000
0001
0000
1000
0100
,  // measure 34
1100
0000
1000
0000
0001
0000
0010
0001
,  // measure 35
0011
0000
0010
0000
0001
0100
0110
0000
,  // measure 36
0100
0010
1010
0000
1000
0001
0010
0100
,  // measure 37
1000
0000
0001
0000
0100
0000
1000
0100
,  // measure 38
0001
0000
0010
0000
0001
0010
1000
0010
,  // measure 39
0001
0000
1000
0000
0100
0010
0001
0000
,  // measure 40
1000
0100
1000
0000
0001
0100
0010
0000
,  // measure 41
0100
0001
0100
0000
0001
1000
0100
0000
,  // measure 42
1000
0001
0010
0000
0001
1000
0010
0000
,  // measure 43
0100
0000
0001
0000
0010
0000
0000
0000
0100
0010
0100
0000
1000
0000
0000
0000
,  // measure 44
1000
0010
1000
0000
0100
0010
0100
0010
,  // measure 45
0001
0000
1000
0000
0001
0100
0010
1000
,  // measure 46
1001
0000
1000
0000
0001
0010
0001
1000
,  // measure 47
0100
0000
1100
0000
1000
0001
0010
0001
,  // measure 48
0200
0001
0010
0301
,  // measure 49
1000
0000
0100
0000
0010
0002
1000
0000
,  // measure 50
0010
0000
0010
0000
1003
0100
1000
0001
,  // measure 51
0010
0000
0001
0000
0100
0010
0100
0000
,  // measure 52
0001
0010
0100
0010
0100
0000
1000
0000
,  // measure 53
1020
0030
1000
0000
0001
0010
0100
1000
,  // measure 54
1000
0000
0001
0000
0010
0000
0000
0000
0001
0000
0100
0000
0010
0001
0010
0000
,  // measure 55
0100
0000
0001
0000
1000
0100
0100
0010
,  // measure 56
0001
0100
0001
0000
0100
0000
0010
0000
0010
0000
1000
0000
0001
0000
0010
0000
,  // measure 57
0011
0000
0010
0000
0001
0100
0010
0010
,  // measure 58
1000
0000
0002
0000
0010
0000
1000
0003
,  // measure 59
1000
0100
1000
0002
0010
0000
1003
0000
,  // measure 60
0010
0100
0010
2000
0100
0000
3001
0000
,  // measure 61
0010
0001
0010
0001
0100
0010
0100
0010
,  // measure 62
1000
0000
0001
0000
1000
0001
1000
0100
,  // measure 63
0100
0000
0010
0000
0001
0010
0010
0001
,  // measure 64
1000
0000
0010
0000
1000
0010
0010
0100
,  // measure 65
0001
0000
0001
0000
0100
0001
0010
0001
,  // measure 66
1000
0000
0100
0000
1000
0001
0010
0000
,  // measure 67
0001
1000
0010
0000
0100
0010
0100
0000
,  // measure 68
0001
0100
0001
0000
0010
0001
0000
0001
,  // measure 69
0100
0000
0000
0000
;

//---------------dance-single - D. Renzetti----------------
#NOTES:
     dance-single:
     D. Renzetti:
     Challenge:
     10:
     0.699,0.780,0.226,0.172,0.497,497.000,25.000,19.000,0.000,0.000,0.000,0.699,0.780,0.226,0.172,0.497,497.000,25.000,19.000,0.000,0.000,0.000: // measure 1
0000
0000
0000
0000
,  // measure 2
0000
0000
0000
0000
,  // measure 3
0000
0000
0000
0000
,  // measure 4
0000
0000
0000
0000
,  // measure 5
2000
0000
3010
0000
0100
0001
0010
0100
,  // measure 6
2000
0000
3001
0000
0100
0010
1000
0100
,  // measure 7
0020
0000
0130
0000
1000
0100
0010
0001
,  // measure 8
0200
0000
0310
0000
1000
0001
0100
0010
,  // measure 9
2000
0100
0100
0100
,  // measure 10
3002
0000
0000
0000
0010
0000
0000
0000
0103
0000
0000
0010
1000
0000
0100
0000
,  // measure 11
0010
0000
0001
0000
0100
0000
0010
0000
1000
0000
0100
0000
0010
0000
0001
0100
,  // measure 12
0010
0000
1000
0000
0001
0000
0100
0000
0001
0000
0010
0000
0100
0000
1000
0010
,  // measure 13
0100
0001
0100
0010
1000
0100
1000
0010
,  // measure 14
0200
0000
0001
0300
2000
0000
3010
0100
,  // measure 15
0001
0000
0100
0000
0010
0000
1000
0000
0001
0000
0100
0000
0001
0000
0010
0100
,  // measure 16
1000
0000
0100
0000
0010
0000
0001
0000
0100
0000
0001
0000
0010
0000
0100
1000
,  // measure 17
0010
0000
0100
0000
0001
0000
0010
0100
1000
0000
0001
0000
0100
0000
0010
1000
,  // measure 18
0001
0000
0100
0000
0010
0000
1000
0010
0200
0000
0300
0001
0010
0000
0100
0000
,  // measure 19
1001
0000
0110
0000
0010
1000
0010
0100
,  // measure 20
1001
0000
1010
0000
0100
0010
1000
0001
,  // measure 21
0101
0000
0011
0000
0010
0100
1000
0001
,  // measure 22
0101
0000
1010
0000
1000
0100
0010
0001
,  // measure 23
0110
0000
1010
0000
0100
0001
1000
0100
,  // measure 24
0010
0000
0000
0000
1001
0000
0000
0000
0100
0000
0010
1000
0100
0000
0010
0000
,  // measure 25
0110
0011
0101
1010
,  // measure 26
1000
0000
0100
0000
1000
0000
0100
0000
0010
0001
0100
0001
0010
0001
0100
0001
,  // measure 27
0020
0001
0100
1000
,  // measure 28
0230
0000
0000
0000
1000
0000
0000
0000
0010
0000
0300
0001
0100
0000
1000
0000
,  // measure 29
0100
0010
0000
0010
0001
0000
0100
0000
0010
1000
0000
1000
0100
0000
0010
0000
,  // measure 30
0001
0100
0000
0100
0010
0000
1000
0000
0001
0010
0000
0010
1000
0000
0010
0000
,  // measure 31
0001
0100
0000
0100
1000
0000
0100
0000
0010
1000
0000
1000
0010
0000
0100
0000
,  // measure 32
0001
0100
0000
0100
0010
0000
1000
0000
0100
0001
0000
0001
0100
0010
0100
0000
,  // measure 33
1000
0010
0000
0010
0100
0001
0100
0000
0010
0001
0000
0001
1000
0100
1000
0000
,  // measure 34
0100
0001
0000
0001
0010
0100
1000
0000
0001
0100
0000
0100
0010
1000
0100
0000
,  // measure 35
0010
0001
0000
0001
0100
0010
1000
0000
0100
0010
0000
0010
0001
1000
0100
0000
,  // measure 36
0010
0100
0000
0100
1000
0001
0010
0000
0100
1000
0000
1000
0100
0010
0001
1000
,  // measure 37
0010
0100
0000
0100
0010
1000
0100
0000
0001
0100
0000
0100
1000
0001
0010
0000
,  // measure 38
0100
1000
0000
1000
0010
0100
0001
0000
0010
0100
0000
0100
1000
0001
0100
0000
,  // measure 39
0010
0100
0000
0100
0001
1000
0100
0000
0010
0001
0000
0001
0100
0010
1000
0000
,  // measure 40
0100
0001
0000
0001
0100
1000
0100
0000
0001
0100
0000
0100
1000
0010
0100
0001
,  // measure 41
1000
0000
0000
0100
0010
0000
0001
0000
0100
0000
0000
0010
1000
0000
0001
0000
,  // measure 42
0010
0000
0000
0100
1000
0000
0001
0000
0100
0010
0000
0010
1000
0000
0001
0000
,  // measure 43
1000
0000
0000
0100
0010
0000
0001
0000
0100
0000
0000
0010
1000
0000
0100
0000
,  // measure 44
0010
0001
0010
0001
1000
0001
1000
0001
0100
0001
0100
0001
1000
0001
1000
0001
,  // measure 45
1000
0000
0001
0000
0100
0000
0010
0000
1000
0000
0100
0000
0010
0000
0001
0100
,  // measure 46
0010
0000
1000
0000
0010
0000
0100
0000
0010
0000
1000
0000
0001
0000
0100
0010
,  // measure 47
1000
0000
0001
0000
0010
0000
0100
0000
1000
0000
0010
0000
0100
0000
0001
1000
,  // measure 48
0010
0000
0000
0100
0001
0000
0000
0010
0100
0000
0000
1000
0001
0000
0010
0000
,  // measure 49
0001
0000
0100
0000
0010
0000
1000
0000
0100
0000
0010
0000
0001
0000
0100
0001
,  // measure 50
0010
0000
0100
0000
1000
0000
0001
0000
0100
0000
0001
0000
0010
0000
0100
1000
,  // measure 51
0100
0000
0010
0000
0001
0000
0100
0010
1000
0000
0001
0000
1000
0000
0100
0010
,  // measure 52
0001
0000
0010
0000
0100
0000
1000
0010
0100
0000
0000
0001
0010
0000
0100
0000
,  // measure 53
1000
0000
1100
0000
1000
0010
0100
0100
,  // measure 54
0001
0000
0101
0000
0010
1000
0100
0100
,  // measure 55
1000
0000
1001
0000
0001
0010
0100
0100
,  // measure 56
1000
0000
0101
0000
0001
1000
0100
0100
,  // measure 57
0010
0000
0110
0000
0001
1000
0010
0010
,  // measure 58
0100
0000
0011
0000
1000
0100
0010
0010
,  // measure 59
0001
0000
1001
0000
0001
0100
0010
0010
,  // measure 60
1100
0000
0000
0000
1010
0000
0000
0000
0101
0000
0000
0100
0010
0000
1000
0000
,  // measure 61
0200
0001
0000
0010
,  // measure 62
2300
0010
0000
0001
,  // measure 63
3020
0100
0000
0001
,  // measure 64
0230
1000
0010
1000
,  // measure 65
0302
0010
0000
1000
,  // measure 66
0203
0010
0000
1000
,  // measure 67
0320
0100
0100
0100
,  // measure 68
1030
0100
0001
0100
1000
0010
0001
0010
,  // measure 69
0200
0000
0000
0000
,  // measure 70
0300
0000
0000
0000
;
