#TITLE:Aliens in Our Midst;
#SUBTITLE:;
#ARTIST:Corporation;
#TITLETRANSLIT:;
#SUBTITLETRANSLIT:;
#ARTISTTRANSLIT:;
#GENRE:Trance;
#CREDIT:;
#BANNER:Aliens in our Midst-bn.png;
#BACKGROUND:Aliens in our Midst-bg.png;
#LYRICSPATH:;
#CDTITLE:;
#MUSIC:Aliens in our Midst.ogg;
#OFFSET:-0.542;
#SAMPLESTART:21.160;
#SAMPLELENGTH:11.860;
#SELECTABLE:YES;
#BPMS:0.000=116.000;
#STOPS:;
#BGCHANGES:-0.796=Aliens in our Midst.mpg=1.000=1=0=0=StretchNoLoop==CrossFade==,
99999=-nosongbg-=1.000=0=0=0 // don't automatically add -songbackground-;
#KEYSOUNDS:;

//---------------dance-double - M.Emirzian----------------
#NOTES:
     dance-double:
     M.Emirzian:
     Easy:
     2:
     0.145,0.162,0.037,0.037,0.000,102.000,4.000,4.000,0.000,0.000,0.000,0.145,0.162,0.037,0.037,0.000,102.000,4.000,4.000,0.000,0.000,0.000:
00000000
00000000
00000000
00000000
,
00000000
00000000
00000000
00000000
,
00000000
00000000
00000000
00000000
,
00000000
00000000
00000000
00000000
,
00010000
00000000
00000000
00000000
,
10000000
00000000
00000000
00000000
,
01000000
00000000
00000000
00000000
,
00100000
00000000
00000000
00000000
,
00010000
00000000
00000000
00000000
,
10000000
00000000
00000000
01000000
,
00100000
00100000
00100000
00000000
,
00001000
00001000
00001000
00000000
,
00010000
00010000
00010000
00000000
,
00000100
00000100
00000100
00000000
,
00001000
00001000
00001000
00000000
,
00000001
00000001
00000001
00000000
,
00000100
00000000
00000010
00000000
,
00001000
00000000
00000000
00000000
,
00000010
00000000
00001000
00000000
,
00000100
00000100
00000100
00000000
,
00010000
00000000
00001000
00000000
,
01000000
01000000
01000000
00000000
,
00010000
00000000
10000000
00000000
,
00100000
00100000
00100000
00000000
,
01000000
00000000
00010000
00000000
,
00022000
00000000
00000000
00033000
,
00010000
00010000
00000000
00000000
,
00001000
00010000
01000000
00000000
,
00010000
00001000
00000000
00000000
,
00000010
00001000
00010000
00000000
,
01000000
00010000
00000000
00000000
,
00001000
00010000
00000100
00000000
,
00001000
00000000
00000010
00000000
,
00000202
00000000
00000000
00000303
,
00000001
00000000
00000010
00000000
,
00000001
00000000
00000010
00000000
,
00001000
00000000
00000010
00000000
,
00001000
00000000
00000010
00000000
,
00001000
00000000
00010000
00000000
,
00001000
00000000
00010000
00000000
,
01000000
00000000
00010000
00000000
,
01000000
00000000
10000000
00000000
,
00010000
00010000
00010000
00000000
,
01000000
00000000
00100000
00000000
,
10000000
10000000
10000000
00000000
,
01000000
00000000
00010000
00000000
,
00001000
00001000
00001000
00000000
,
00010000
00000000
00000100
00000000
,
00001000
00001000
00001000
00000100
,
00001000
00000000
00000110
00000000
,
00001001
00000000
00000000
00000000
;

//---------------dance-double - M.Emirzian----------------
#NOTES:
     dance-double:
     M.Emirzian:
     Medium:
     5:
     0.283,0.277,0.139,0.000,0.000,199.000,15.000,0.000,18.000,0.000,0.000,0.283,0.277,0.139,0.000,0.000,199.000,15.000,0.000,18.000,0.000,0.000:
00000000
00000000
00000000
00000000
,
00000000
00000000
00000000
00000000
,
00000000
00000000
00000000
00000000
,
00000000
00000000
00000000
00000000
,
00000000
00010000
00000000
10000000
00000000
00010000
00000000
10000000
,
00000000
00010000
00000000
10000000
00000000
01000000
00000000
00100000
,
00000000
00010000
00000000
01000000
00000000
00001000
00000000
00010000
,
00000000
00000010
00000000
00001000
00000000
00000100
00000000
00000010
,
00000000
00000001
00000000
00000100
00000000
00000010
00000000
00001000
,
00000000
00000100
00000000
00000010
00000000
00000001
00001000
00000000
,
00000010
00001000
00000010
00001000
00000000
00000000
00011000
00000000
,
01000000
00001000
01000000
00001000
00000000
00000000
00110000
00000000
,
01000000
10000000
01000000
10000000
00000000
00000000
01001000
00000000
,
00010000
01000000
00010000
01000000
00000000
00000000
00011000
00000000
,
00000010
00010000
00000010
00010000
00000000
00000000
00001100
00000000
,
00000100
00000010
00000100
00000010
00000000
00000000
00000011
00000000
,
00001000
00000010
00000100
00000001
,
00000100
00001000
00010000
00100000
,
10100000
M00M0000
10010000
00000000
,
10000000
00000000
01000000
00100000
00000000
01000000
00100000
00001000
,
00010000
0M00M000
01001000
00000000
,
00001000
00010000
01000000
00010000
00001000
00000000
00010000
00000000
,
00010100
0000M0M0
00001010
00000M0M
,
00000101
00000000
00000001
00001000
00000000
00001000
00000100
00000000
,
00001010
00000000
0M0M0000
00000000
01010000
00000000
01000000
00100000
,
00000000
10000000
01000000
00010000
,
00001000
00000000
00010000
00000100
00000000
00000000
00000000
00010000
,
00001000
00010000
00001000
00000100
00000001
00000000
00000000
00001000
,
00000100
00000000
00000100
00000001
00000000
00000000
00000000
00000100
,
00001000
00000100
00010000
00001000
01000000
00000000
00000000
00010000
,
01000000
00000000
01000000
00100000
00000000
00000000
00000000
10000000
,
00010000
10000000
00010000
00100000
01000000
00000000
00000000
10000000
,
01000000
00000000
01000000
00100000
00000000
00100000
00010000
00100000
,
00010000
01000000
00001000
00010000
,
00000100
00000000
00001000
00000100
00000001
00000000
00000M00
00000000
,
00000100
00000000
00001000
00000010
00000100
00000000
00000M00
00000000
,
00000100
00001000
00010000
00000000
00001000
00000000
0000M000
00000000
,
00001000
00010000
00100000
00000000
10000000
00000000
M0000000
00000000
,
10000000
00010000
00000000
00100000
00000000
01000000
00000000
10000000
,
00000000
00010000
00000000
10000000
00000000
01000000
00000000
00010000
,
00000000
00001000
00000000
00000100
00000000
00000001
00000000
00001000
,
00000000
00000100
00000000
00001000
00000000
00000010
00000000
00000100
,
00000001
00000000
00001000
00000100
00000010
00000000
000000M0
00000000
,
00000010
00000000
00000100
00010000
00001000
00000000
0000M000
00000000
,
00001000
00000100
00001000
00000000
00010000
00000000
000M0000
00000000
,
00010000
00100000
01000000
00000000
00010000
00000000
000M0000
00000000
,
00010000
10000000
00000000
00100000
00000000
01000000
00000000
00010000
,
00000000
10000000
00000000
00100000
00000000
00010000
00000000
00001000
,
00000000
00000010
00000000
00000001
00000000
00001000
00000000
00000010
,
00000000
00000100
00000000
00000001
00000000
00001000
00000000
00000100
,
00001001
00000000
00000000
00000000
;

//---------------dance-double - M.Emirzian----------------
#NOTES:
     dance-double:
     M.Emirzian:
     Hard:
     7:
     0.430,0.370,0.287,0.055,0.060,289.000,31.000,6.000,3.000,0.000,0.000,0.430,0.370,0.287,0.055,0.060,289.000,31.000,6.000,3.000,0.000,0.000:
00000000
00000000
00000000
00000000
,
00000000
00000000
00000000
00000000
,
00000000
00001010
00000000
00001200
00000000
00010000
00000000
00001000
,
00000000
01000300
00000000
02010000
00000000
00100000
00000000
00001000
,
00000000
03000100
00000000
00001020
00000000
00000100
00000000
00001000
,
00000000
00100030
00000000
00210000
00000000
00001000
00000000
00010000
,
00000000
00300100
00000000
00011000
00000000
00100000
00000000
01000000
,
00000000
10000000
00000000
01010000
00000000
01000000
00000000
00010000
,
00000000
00001000
00000000
00010010
00000000
00000100
00000000
00001000
,
00000000
00000000
00010000
00000000
00000000
00000000
00101000
00000000
00010000
00000000
00000000
00001000
00010000
00000000
00001000
00000000
,
00010000
00000100
00001000
00000010
00000000
00000010
00000100
00000000
,
00000100
00000001
00000010
00000100
00000000
00000100
00010000
00000000
,
00010000
00000010
00010000
00001000
00000000
00001000
00010000
00001000
,
00010000
01000000
10000000
01000000
00000000
01100000
00000000
01000000
,
00010000
01000000
00010000
00001000
00000000
00001000
00000100
00000000
,
00000100
00000001
00001000
00000100
00000000
00000100
00000010
00000001
,
00000010
00000000
00001000
00010000
00100000
00000000
10000000
01000000
,
00000000
00010000
00000000
00001000
00000000
00000100
00001000
00010000
,
00100000
00000000
01000000
00010000
00110000
00000000
01001000
00000000
,
01100000
00000000
00000000
00000000
00010000
00000000
10000000
00000000
00000000
00000000
01000000
10000000
01000000
00000000
00100000
00000000
,
00010000
00000000
01000000
00010000
01001000
00000000
00011000
00000000
,
00010000
00000000
00001000
00000000
00010000
00000000
00001000
00000000
00000100
00000000
00000000
00000100
00000001
00000000
00000010
00000000
,
00000110
00000000
00001100
00000000
00010100
00000000
00001000
00010000
,
00010010
00000000
00000000
00000000
00001000
00000000
00010000
00000000
00000000
00000000
00010000
00000000
00100000
00000000
10000000
00100000
,
10000000
00000000
01010000
00000000
01001000
00000000
00010000
10000000
,
00000000
01200000
00000000
10000000
00000000
00010000
00000000
01300000
,
10000000
00000000
00000000
00000000
10000000
00000000
00100000
00000000
00000000
00000000
00100000
00010000
00100000
00000000
10000000
00000000
,
00010000
01000000
00001000
00010000
00000100
00000000
00000M00
00001000
,
00000010
00000000
00000000
00000000
00000010
00000000
00000001
00000000
00000000
00000000
00000010
00000001
00000010
00000000
00001000
00000000
,
00000010
00010000
00001000
00010000
01000000
00000000
0M000000
01000000
,
10000000
00000000
00000000
00000000
10000000
00000000
00100000
00000000
00000000
00000000
00010000
00100000
00010000
00000000
00100000
00000000
,
00010000
00001000
00010000
00001000
00000100
00000000
00000M00
00000100
,
00000001
00000000
00000001
00000010
00000000
00000010
00001000
00010000
,
00001000
00000000
00000000
00000000
00010000
00001000
00010000
00000000
00001000
00010000
00000000
00010000
00001000
00000000
00010000
00000000
,
00001000
00010000
00100000
10000000
00100000
10000000
00010000
01000000
,
00100000
00010000
10000000
01000000
00010000
01000000
00001000
00010000
,
00001000
00100000
00001000
00010000
00001000
00000010
00001000
00000010
,
00000001
00001000
00000010
00000100
00000001
00001000
00000001
00000000
,
00000100
00000000
00000010
00000000
00000000
00000000
00001100
00000000
00000000
00001000
00000010
00000000
00010000
00000000
00000000
00000000
,
00001000
00000000
00010000
00000000
00000000
00000000
01001000
00000000
00000000
01000000
00100000
00000000
01000000
00000000
00010000
00000000
,
10000000
00010000
00000000
00210000
00000000
01000000
00000000
00010000
,
00000000
00000000
00301000
00000000
00000000
00000000
00010010
00000000
00000000
00010000
00001000
00000000
00010000
00000000
00000100
00000000
,
00010000
00000001
00001000
00000010
00000100
00001000
00000100
00001000
,
00010000
00001000
00010000
01000000
10000000
01000000
10000000
00010000
,
01000000
00001000
00010000
00001000
01000000
00010000
10000000
01000000
,
00010000
00001000
00010000
00000100
00001000
00000100
00000010
00000001
,
00000100
00000010
00000000
00001100
00000000
00010000
00000000
00001000
,
00000000
01000000
00000000
00110000
00000000
00001000
00000000
00010000
,
00000000
00000100
00000000
00001010
00000000
00010000
00000000
00001000
,
00000000
00100000
00000000
01010000
00000000
00100000
10000000
00010000
,
10010000
00000000
00000000
00000000
;

//---------------dance-double - M.Emirzian----------------
#NOTES:
     dance-double:
     M.Emirzian:
     Challenge:
     10:
     0.478,0.462,0.194,0.314,0.028,307.000,21.000,34.000,12.000,16.000,16.000,0.478,0.462,0.194,0.314,0.028,307.000,21.000,34.000,12.000,16.000,16.000:
00000000
00000000
00000000
00000000
,
00000000
00000000
00000000
00000000
,
00000000
00000202
00000000
00001303
00000000
00000220
00000000
00001330
,
00000000
00020200
00000000
00031300
00000000
02000200
00000000
03001300
,
00000000
00010000
00004000
00000000
00100000
00000000
00043000
00000000
,
00001000
00430000
10000000
00310000
,
00000000
02200000
00000000
03310000
00000000
02002000
00000000
03013000
,
00000000
02000200
00000000
03010300
00000000
00002200
00000000
00013300
,
00000000
00001000
00000400
00000000
00000010
00000000
00040300
00000000
,
00001000
00000000
00000000
00000000
00430000
00000000
00000000
00000000
01000000
00000000
00300000
01000000
00001000
00000000
00010000
00000000
,
00001000
01000000
00000010
00100000
00M000M0
00001000
10000000
00001000
,
00010000
00000001
00010000
00001000
000MM000
00010000
00000100
01000000
,
00100000
00010000
00000100
00000001
00000M0M
00000100
00010000
00100000
,
10000000
00001000
00010000
00000100
000M0M00
00000010
00000100
01000000
,
00100000
00010000
00000100
00000010
00000MM0
00000001
00010000
00001000
,
10000000
01000000
00100000
00000100
00M00M00
00010000
00000001
00000100
,
00000010
00400000
00000000
00300400
00000000
00040300
00000000
40030000
,
00000000
00000000
34000000
00000000
00000000
00000000
03000400
00000000
00000000
00000000
00000300
00010000
00001000
00000000
00010000
00000000
,
00100000
01000000
00000010
00000100
00000010
10000000
01000000
10000000
,
00000100
00000010
00000100
10000000
00100000
10000000
00000100
00000010
,
00000001
01000000
00100000
01000000
00000100
00000001
00000100
00100000
,
01000000
00100000
00000010
00000001
00000010
00000000
00010004
00000000
,
00010003
00000010
00001000
00000010
10000000
00100000
10000000
00000010
,
00001000
00000000
01000000
10000000
00000000
00000010
00000100
00000000
,
00000004
00000000
00040003
00000000
00430000
00000000
00310000
00001000
,
00000000
01000010
00000000
00011000
00000000
00100100
00000000
10000000
,
00010000
00000000
00000001
00001000
00000000
10000000
00010000
00001000
,
00000001
00001000
00010000
20000000
00020000
00000000
30030000
00100000
,
01000000
00000000
00000010
00000001
00000000
00100000
01000000
00100000
,
00000001
00100000
01000000
00100000
00000001
00100000
01000000
10000000
,
00010000
00000000
00000001
00001000
00000000
10000000
00010000
00001000
,
00000001
00001000
00010000
10000000
00010000
00000010
00000100
01000000
,
00001000
00000100
00000010
00000001
00000010
00100000
01000000
10000000
,
00010000
00000000
00000000
00000000
01000000
00100000
01000000
00000000
00010000
10000000
00000000
10000000
01000000
00100000
00010000
00000000
,
00100000
00010000
01000000
00001000
00000100
00000001
00010000
00001000
,
01000000
00100000
00000100
00000001
00000100
00100000
01000000
10000000
,
01000000
00000100
00000001
00000100
00010000
00100000
10000000
00001000
,
00100000
00000100
00001000
00000001
01000000
00100000
10000000
00001000
,
00000100
00000001
00000010
01000000
10000000
00001000
00010000
00000100
,
00000000
00022000
00000000
00033010
00000000
00020200
00000000
00030310
,
00000000
00020002
00000000
00030013
00000000
00000202
00000000
00000313
,
00000000
00001000
00000001
00000100
00001000
10000000
01000000
10000000
,
00001000
00000100
00001000
10000000
00100000
10000000
00001000
00000010
,
00001000
01000000
00000100
01000000
00000010
01000000
00100000
00010000
,
00000100
00000010
00000001
00000010
00001000
01000000
00100000
00000100
,
00000001
00000100
00100000
01000000
00100000
00010000
00000001
00000100
,
00001000
10000000
01000000
00010000
00000100
00100000
00001000
00010000
,
00000000
02000200
00000000
03010300
00000000
02002000
00000000
03013000
,
00000000
20002000
00000000
30013000
00000000
02200000
00000000
03310000
,
00000000
10000000
00100000
10000000
00000001
00000010
00000001
00010000
,
00011000
00000000
00000000
00000000
;

//---------------dance-single - J. Frederick----------------
#NOTES:
     dance-single:
     J. Frederick:
     Beginner:
     1:
     0.058,0.046,0.009,0.000,0.000,43.000,1.000,0.000,0.000,0.000,0.000,0.058,0.046,0.009,0.000,0.000,43.000,1.000,0.000,0.000,0.000,0.000:
0000
0000
0000
0000
,
0000
0000
0000
0000
,
1000
0000
0000
0000
,
0001
0000
0000
0000
,
0100
0000
0000
0000
,
0010
0000
0000
0000
,
1000
0000
0000
0000
,
0001
0000
0000
0000
,
0100
0000
0000
0000
,
0010
0000
0000
0000
,
1000
0000
0000
0000
,
0000
0000
0000
0000
,
0001
0000
0000
0000
,
0010
0000
0000
0000
,
0100
0000
0000
0000
,
0000
0000
0000
0000
,
1000
0000
0000
0000
,
0001
0000
0000
0000
,
0100
0000
0000
0000
,
0000
0000
0000
0000
,
0010
0000
0000
0000
,
0000
0000
0000
0000
,
1000
0000
0000
0000
,
0000
0000
0000
0000
,
0001
0000
0000
0000
,
0100
0000
0000
0000
,
0010
0000
0000
0000
,
1000
0000
0000
0000
,
0001
0000
0000
0000
,
0100
0000
0000
0000
,
0010
0000
0000
0000
,
1000
0000
0000
0000
,
0001
0000
0000
0000
,
0000
0000
0000
0000
,
0010
0000
0000
0000
,
1000
0000
0000
0000
,
0001
0000
0000
0000
,
0100
0000
0000
0000
,
0010
0000
0000
0000
,
1000
0000
0000
0000
,
0001
0000
0000
0000
,
0100
0000
0000
0000
,
0010
0000
0000
0000
,
1000
0000
0000
0000
,
0001
0000
0000
0000
,
0010
0000
0000
0000
,
0100
0000
0000
0000
,
0001
0000
0000
0000
,
1000
0000
0000
0000
,
0010
0000
0000
0000
,
0110
0000
0000
0000
;

//---------------dance-single - J. Frederick----------------
#NOTES:
     dance-single:
     J. Frederick:
     Easy:
     4:
     0.161,0.185,0.018,0.102,0.000,109.000,2.000,11.000,0.000,0.000,0.000,0.161,0.185,0.018,0.102,0.000,109.000,2.000,11.000,0.000,0.000,0.000:
0000
0000
0000
0000
,
0000
0000
0000
0000
,
0000
1000
0000
0000
0000
0000
0000
0000
,
0000
0001
0000
0000
0000
0000
0000
0000
,
0000
0010
0000
0000
0000
0000
0000
0000
,
0000
0100
0000
0000
0000
0000
0000
0000
,
0000
1000
0000
0001
0000
0010
0000
0100
,
0000
1000
0000
0010
0000
0100
0000
0001
,
0000
0010
0000
0001
0000
1000
0000
0001
,
0000
0100
0000
0010
0000
1000
0000
0001
,
2000
0000
0000
3000
,
0002
0000
0000
0003
,
0200
0000
0000
0300
,
0020
0000
0000
0030
,
2000
0000
0000
3000
,
0002
0000
0000
0003
,
0220
0000
0000
0000
,
0000
0000
0000
0000
0000
0000
0000
0330
,
1000
0000
0001
0000
,
0010
0000
0100
0000
,
1000
0000
0001
0000
,
0100
0010
0200
0300
,
0001
0000
1000
0000
,
0010
0000
0100
0000
,
0002
0000
0000
0003
,
2000
0000
0000
3000
,
0010
0000
0000
0000
,
1000
0001
1000
0001
,
1000
0000
0000
0000
,
0010
0100
0010
0100
,
0010
0000
0000
0000
,
1000
0100
1000
0100
,
1000
0000
0000
0000
,
0001
0000
1000
0000
,
0000
0001
0000
1000
0000
0010
0000
0000
,
0000
0100
0000
0001
0000
0010
0000
0000
,
0000
0100
0000
1000
0000
0001
0000
0000
,
0000
0100
0000
0010
0000
1000
0000
0000
,
0000
0100
0000
0010
0000
0100
0000
0000
,
0000
1000
0000
0001
0000
1000
0000
0000
,
0000
0010
0000
0100
0000
0001
0000
0000
,
0000
0001
0000
1000
0000
0100
0000
0000
,
0000
0010
0000
0001
0000
0100
0000
0000
,
0000
0010
0000
1000
0000
0001
0000
0000
,
0000
0010
0000
0100
0000
1000
0000
0000
,
0000
0100
0000
0010
0000
0001
0000
0000
,
0000
0100
0000
0001
0000
1000
0000
0000
,
0000
0010
0000
0100
0000
0001
0000
0000
,
0000
0010
0000
0100
0000
1000
0000
0000
,
0000
0010
0000
0100
0000
0001
0000
0000
,
0110
0000
0000
0000
;

//---------------dance-single - J. Frederick----------------
#NOTES:
     dance-single:
     J. Frederick:
     Medium:
     5:
     0.302,0.370,0.351,0.360,0.000,152.000,38.000,39.000,0.000,0.000,0.000,0.302,0.370,0.351,0.360,0.000,152.000,38.000,39.000,0.000,0.000,0.000:
0000
0000
0000
0000
,
0000
0000
0000
0000
,
0000
1001
0000
1010
0000
0101
0000
0011
,
0000
0110
0000
1100
0000
0110
0000
0011
,
0000
0101
0000
1001
0000
0110
0000
1010
,
0000
0101
0000
0011
0000
0110
0000
1100
,
0000
2000
0000
0010
0000
0001
0000
3100
,
0000
0020
0000
0100
0000
1000
0000
0130
,
0000
0002
0000
0100
0000
0010
0000
1003
,
0000
0100
0000
0010
0000
1000
0000
0100
,
0020
0030
0002
0003
,
2000
3000
0020
0030
,
0200
0300
0002
0003
,
0020
0030
0200
0300
,
1000
0000
0010
0200
0000
0000
0300
0000
,
0001
0000
0010
0200
0000
0000
0300
0000
,
2002
0000
0000
0003
0001
3000
0100
0020
,
0000
0000
0000
0030
,
2000
3000
0002
0003
,
0010
0000
0100
2000
0000
0000
3000
0000
,
0020
0030
0200
0300
,
0001
0000
0010
0200
0000
0000
0300
0000
,
2000
3000
0020
0030
,
0100
0000
0001
0020
0000
0000
0030
0000
,
1001
0000
0100
0010
,
2002
0000
0000
0000
0000
3003
0000
0000
,
0020
0000
0000
0000
0000
0000
0030
0100
,
1000
0010
0100
0001
,
0020
0000
0000
0000
0000
0000
0030
0001
,
0100
0010
1000
0100
,
2000
0000
0000
0000
0000
0000
3000
0001
,
0100
0010
1000
0001
,
0020
0030
0002
0003
,
0100
0010
1000
0001
,
0000
1010
0000
0101
0000
0101
0000
0011
,
0000
0110
0000
1100
0000
1100
0000
0110
,
0000
1001
0000
0110
0000
1010
0000
0101
,
0000
0011
0000
0110
0000
1100
0000
0011
,
0000
2000
0000
0010
0000
0100
0000
3010
,
0000
0002
0000
0100
0000
0010
0000
1003
,
0000
0020
0000
0100
0000
1000
0000
0130
,
0000
0200
0000
0010
0000
1000
0000
0310
,
0000
1000
0000
0010
0000
0100
0000
0001
,
0000
0010
0000
0001
0000
1000
0000
0010
,
0200
0000
0000
0000
0000
0300
0001
0020
,
0000
0000
0000
0030
0200
0000
0300
0000
,
1001
0100
0010
0000
,
1100
0010
0001
0000
,
0000
0100
0000
0010
0000
1000
0000
0100
,
0000
0010
0000
0001
0100
0000
0001
0000
,
0110
0000
0000
0000
;

//---------------dance-single - J. Frederick----------------
#NOTES:
     dance-single:
     J. Frederick:
     Hard:
     7:
     0.403,0.563,0.397,0.564,0.000,201.000,43.000,61.000,0.000,13.000,0.000,0.403,0.563,0.397,0.564,0.000,201.000,43.000,61.000,0.000,13.000,0.000:
0000
0000
0000
0000
,
0000
0000
0000
0000
,
0000
2001
0000
3010
0000
0210
0000
0310
,
0000
2001
0000
3001
0000
2010
0000
3010
,
0000
0201
0000
0301
0000
0120
0000
0130
,
0000
1002
0000
0103
0000
2010
0000
3100
,
0000
1002
0000
0103
0000
0120
0000
0130
,
0000
1020
0000
0130
0000
0102
0000
0013
,
0000
0210
0000
1300
0000
1020
0000
0130
,
0000
2010
0000
3001
0000
0021
0000
0130
,
1000
0010
0100
0002
0000
0000
0000
0000
,
1003
0010
0100
0002
0000
0000
0000
0000
,
0013
0100
1000
0200
0000
0000
0310
0001
,
0100
0010
1000
0020
0000
0000
0000
0000
,
1030
0010
0100
0002
0000
0000
0000
0000
,
0013
0100
1000
0020
0000
0000
0130
0010
,
0200
0000
0000
0000
0310
0000
0001
0020
,
0000
0000
0000
0030
,
0200
0300
2000
3000
,
0010
0000
0100
0001
0000
0010
0100
1000
,
0020
0030
0200
0300
,
0001
0010
0001
0100
0002
0000
1000
0003
,
0220
0000
0000
0330
0202
0000
0000
0303
,
1000
0000
0010
0200
0000
0300
0001
0010
,
0200
0000
0300
0000
2000
0000
3010
0200
,
0000
0000
0000
0000
0000
0000
0300
0001
,
0020
0000
0000
0000
0000
0000
0030
0010
,
1000
0010
0001
0010
1000
0000
1000
0100
,
0020
0000
0000
0000
0000
0000
0030
0001
,
0010
1000
0010
0001
0100
0000
0100
0010
,
2000
0000
0000
0000
0000
0000
3000
0001
,
0010
0001
0100
0010
1000
0000
1000
0010
,
0200
0000
0300
0000
0002
0003
0010
0100
,
2000
0000
0000
3000
,
0010
0210
0000
2301
0000
3120
0000
1230
,
0000
0321
0000
0231
0000
1301
0000
0210
,
0000
1320
0000
0231
0000
0312
0000
0123
,
0000
1230
0000
0321
0000
0131
0000
1001
,
1000
0001
0100
0010
0000
1000
0100
0010
,
0001
0100
0010
1000
0000
1000
0010
0100
,
0001
0010
0001
0100
0000
0100
0001
1000
,
0100
0010
0100
1000
0000
1000
0010
0100
,
0010
0001
0000
0110
0000
1010
0000
0101
,
0000
0011
0000
0110
0000
1100
0000
1000
,
0020
0000
0000
0000
0000
0030
0100
0002
,
0000
0000
0003
0020
0000
0000
0030
0000
,
0100
1000
0000
0110
0000
0001
0000
0010
,
0000
1100
0000
0010
0000
0001
0000
0000
,
1000
0000
0010
0100
0000
0000
0100
0001
,
0010
0000
0100
1000
0010
0000
0100
0000
,
0220
0000
0000
0330
;

//---------------dance-single - K. Ward & D. D'Amato----------------
#NOTES:
     dance-single:
     K. Ward & D. D'Amato:
     Challenge:
     9:
     0.420,0.531,0.074,0.268,0.310,281.000,8.000,29.000,37.000,10.000,25.000:
0000
0000
0000
0000
,
0000
0000
0000
0000
,
1000
0000
0100
0000
0010
0000
0001
0000
1000
0000
0100
0000
0010
0001
0010
0001
,
0100
0010
0100
0001
0100
0010
0100
0000
,
0001
0000
0010
0000
0100
0000
1000
0000
0001
0000
0010
0000
0100
1000
0100
1000
,
0010
0100
0010
1000
0010
0100
0010
0000
,
1000
0000
0000
1000
0100
0000
0010
0000
0100
0000
0010
0000
0001
0010
0001
0010
,
0001
0010
0100
1000
0100
0001
0100
0000
,
1000
0000
0000
1000
0100
0000
0000
0000
0010
0000
0000
0010
0100
0000
0000
0000
,
0010
0000
0001
0000
0010
0000
1000
0000
0010
0000
0000
0100
0010
0000
0100
0000
,
4000
0000
3400
0000
0320
0000
0130
00M0
,
0040
0000
0000
0034
0000
0000
2003
0000
0000
3100
0000
M000
,
0040
0000
0000
0034
0000
0000
0023
0000
0000
0130
0000
00M0
,
0004
0000
0000
4003
0000
0000
3200
0000
0000
1300
0000
0M00
,
0010
0001
0010
0100
0004
0000
0103
0000
,
0100
1000
0100
0010
4000
0000
3010
0000
,
0010
0100
0001
0010
0200
0000
2000
0000
,
0020
0000
0000
0000
0000
0000
0000
0000
0000
0000
0000
0000
0001
0000
0000
3330
0000
0000
0000
0000
MMMM
0000
0000
0000
,
0400
0000
0020
0000
0030
00M0
2000
0000
,
3000
0000
M000
0000
0020
0000
0000
0000
0030
0000
00M0
0300
1001
0000
0000
0000
,
0040
0000
0200
0000
0300
0M00
0002
0000
,
0003
0000
000M
0000
0200
0000
0000
0000
0300
0000
0M00
0030
1001
0000
0000
0000
,
0100
0000
0000
0100
0000
0000
0100
0000
0000
0000
0M00
0000
0040
0000
0000
0000
0000
0000
0030
0000
0000
0000
00M0
0000
,
1000
0000
1000
0000
1000
0000
0000
M000
0004
0000
0000
0000
0003
0000
0000
000M
,
1000
0001
0010
0001
1000
0001
0010
0001
,
0100
0000
1000
0000
0100
0000
0000
0000
0000
0010
0100
0000
0001
0000
0010
0000
,
0404
0000
0000
0000
0000
0000
0000
0000
0000
0000
0000
0000
0000
0000
0000
0000
0000
0000
0000
0000
0000
0000
0000
0000
0000
0000
0000
0000
0000
0000
0000
0000
0000
0000
0000
0000
0000
0000
0000
0000
0000
0000
0000
0000
0000
0000
0000
0000
0000
0000
0000
0000
0000
0000
0000
0000
0000
0000
0000
0000
0000
0000
0000
0000
0000
0000
0000
0000
0000
0000
0000
0000
0000
0000
0000
0000
0000
0000
0000
0000
0000
0000
0000
0000
0000
0000
0000
0000
0000
0000
0000
0000
0000
0000
0000
0303
0202
0000
0000
0000
0000
0000
0000
0000
0000
0000
0000
0000
0000
0000
0000
0000
0000
0000
0000
0000
0000
0000
0000
0000
0000
0000
0000
0000
0000
0000
0000
0000
0000
0000
0000
0000
0000
0000
0000
0000
0000
0000
0000
0000
0000
0000
0000
0000
0000
0000
0000
0000
0000
0000
0000
0000
0000
0000
0000
0000
0000
0000
0000
0000
0000
0000
0000
0000
0000
0000
0000
0000
0000
0000
0000
0000
0000
0000
0000
0000
0000
0000
0000
0000
0000
0000
0000
0000
0000
0000
0000
0000
0000
0000
0000
0000
,
1000
0000
0000
0000
0000
0000
0000
0000
0000
0000
0000
0000
0010
0000
0000
0303
0000
0000
0000
0000
M00M
0000
0000
0000
,
4400
0000
0000
0000
0000
0000
0000
0000
0000
0000
0000
0000
0000
0000
0000
0000
0000
0000
0000
0000
0000
0000
0000
0000
0000
0000
0000
0000
0000
0000
0000
0000
0000
0000
0000
0000
0000
0000
0000
0000
0000
0000
0000
0000
0000
0000
0000
0000
0000
0000
0000
0000
0000
0000
0000
0000
0000
0000
0000
0000
0000
0000
0000
0000
0000
0000
0000
0000
0000
0000
0000
0000
0000
0000
0000
0000
0000
0000
0000
0000
0000
0000
0000
0000
0000
0000
0000
0000
0000
0000
0000
0000
0000
0000
0000
3300
2200
0000
0000
0000
0000
0000
0000
0000
0000
0000
0000
0000
0000
0000
0000
0000
0000
0000
0000
0000
0000
0000
0000
0000
0000
0000
0000
0000
0000
0000
0000
0000
0000
0000
0000
0000
0000
0000
0000
0000
0000
0000
0000
0000
0000
0000
0000
0000
0000
0000
0000
0000
0000
0000
0000
0000
0000
0000
0000
0000
0000
0000
0000
0000
0000
0000
0000
0000
0000
0000
0000
0000
0000
0000
0000
0000
0000
0000
0000
0000
0000
0000
0000
0000
0000
0000
0000
0000
0000
0000
0000
0000
0000
0000
0000
0000
,
0010
0000
0000
0000
0001
3300
0MM0
0000
,
2200
0000
0000
0000
0040
0000
0030
3300
,
0202
0000
0000
0000
0040
0000
0030
0303
,
1000
0001
1000
0000
0001
0000
0000
0000
0001
1000
0001
0000
1000
0000
0000
0000
,
0010
0100
0001
0010
0001
0000
0000
0000
0100
0010
1000
0100
1000
0000
0000
0000
,
0100
0010
0001
0010
0100
1000
0100
0000
,
0010
0100
0001
0100
0010
0100
0001
0000
,
0040
0000
0000
1000
0000
000M
0100
0000
0M00
0032
0000
0000
,
0403
0000
M000
1000
0000
00M0
0010
0000
M000
0302
0000
0M00
,
1003
0000
0000
0001
00M0
0000
0100
0000
0000
0010
0000
0000
0200
0000
0000
0000
0000
0000
0301
0000
0000
0000
0M00
0000
,
1000
0000
0000
0001
0000
0000
0100
0000
0000
0010
0000
0000
2000
0000
0000
0000
0000
0000
3010
0000
0000
0000
000M
0000
,
0004
0000
0000
0100
0000
0000
0010
0000
0000
0103
0000
000M
,
4000
0000
0000
0010
0000
0000
0100
0000
0000
3010
0000
M000
,
0001
1000
0001
1000
0000
1000
0100
0000
0010
0100
1000
0100
0000
0100
1000
0000
,
0010
0100
0001
0010
0000
0010
0001
0000
0100
0010
0100
0000
0010
0000
1000
0000
,
0001
1000
0001
1000
0000
0010
0100
0000
0001
0100
0010
0100
0000
0100
0001
0000
,
1000
0000
0010
0000
0001
0000
0010
0000
0100
0000
0001
0000
0010
0001
0010
0000
,
0001
1000
0001
1000
0000
1000
0010
0000
0100
0010
1000
0010
0000
0010
1000
0000
,
0100
0010
0001
0100
0000
0100
0001
0000
0010
0100
0010
0000
1000
0000
0010
0000
,
0400
0000
0000
0010
0000
00M0
1000
0000
M000
0310
0000
0MM0
,
0002
0200
0020
2000
,
3333
0000
0000
0000
;

//---------------dance-single - J. Frederick----------------
#NOTES:
     dance-single:
     J. Frederick:
     Edit:
     10:
     0.580,0.750,0.342,1.000,0.287,286.000,37.000,116.000,23.000,47.000,0.000,0.580,0.750,0.342,1.000,0.287,286.000,37.000,116.000,23.000,47.000,0.000:
0000
0000
0000
0000
,
0000
0000
0000
0000
,
0000
2002
0000
0010
3003
2020
0000
0100
,
3030
0202
0000
0010
0303
0220
0000
0001
,
0330
2020
0000
0100
3030
2002
0000
0010
,
3003
0220
0000
1000
0330
0022
0000
0100
,
0033
2200
0000
0001
3300
0022
0000
0100
,
0033
0220
0000
0001
0330
2200
0000
0010
,
3300
0220
0000
1000
0330
0022
0000
0100
,
0033
0000
0220
0000
0000
0000
1000
0000
0330
0000
0001
1000
0010
0000
0100
0000
,
0002
0000
0020
0003
0200
0030
200M
0300
00M0
0000
0M00
0000
0000
0000
0000
0000
,
3020
0000
0002
0030
0020
0003
0200
0030
000M
0000
00M0
0000
0000
0000
0000
0000
,
2300
0000
0200
3000
0002
0300
M200
0003
0000
0000
000M
0000
0320
0000
0200
0030
,
2000
0300
0200
3000
0002
0300
M020
0003
0M00
0000
000M
0000
0000
0000
0200
0000
,
2030
0300
0020
3000
0M02
0030
M200
0003
00M0
0000
000M
0000
0000
0000
0000
0000
,
0302
0000
0020
0003
2000
0030
020M
3000
00M0
0000
M000
0000
0320
0000
0200
0030
,
2000
0300
00M0
0000
0M00
0000
0000
0000
3020
0000
0000
0030
0002
0000
0020
0003
,
0000
0000
000M
0000
0000
0000
0000
0000
0000
0000
0000
0030
0000
0000
0000
0000
,
2000
0000
0002
0000
,
0100
0000
0000
0000
0010
0000
0100
0000
0000
3003
0100
0000
0010
0000
0001
0000
,
0200
0000
0020
0000
,
1000
0001
1000
0001
1000
0000
1331
0000
,
2000
0000
0200
0000
,
0010
0000
0001
0010
0000
0010
3301
0000
,
0200
0000
0000
0000
0020
0300
1000
0200
,
0000
0000
0000
0000
0000
0000
0330
1000
,
2002
0000
0000
0000
0000
0000
3003
0100
,
0010
1000
0001
0010
0100
0000
1000
0010
,
0220
0000
0000
0000
0000
0000
0330
1000
,
0010
0001
0010
1000
0100
0000
0100
0010
,
0022
0000
0133
0220
0000
0000
0330
0001
,
0010
1000
0010
0001
0100
0000
0100
0010
,
2020
0000
3031
0100
0000
1000
0010
0200
,
M020
0000
0000
000M
0000
0000
M000
0330
,
0000
2002
0000
0010
3003
2020
0000
0100
,
3030
0202
0000
0010
0303
0220
0000
0001
,
0330
2020
0000
0100
3030
2002
0000
0010
,
3003
0220
0000
1000
0330
0022
0000
0100
,
0033
2200
0000
0001
3300
0022
0000
0100
,
0033
0220
0000
0001
0330
2200
0000
0010
,
3300
0220
0000
1000
0330
0022
0000
0100
,
2233
0000
0000
3300
,
1000
0100
0010
0001
0010
0100
1000
0100
0001
0100
1000
0100
0010
0100
1000
0001
,
0100
1000
0100
0001
0100
1000
0100
1000
0100
0010
0001
0010
0100
1000
0100
0010
,
0001
0010
0100
0010
0001
0010
0100
0010
0001
0010
0100
1000
0100
0010
0001
0010
,
0100
1000
0100
0001
0100
1000
0100
1000
0100
0010
0001
0010
1000
0010
0001
0010
,
1000
0100
0010
0001
0010
0100
1000
0100
0010
0001
0010
0100
1000
0100
0001
0100
,
1000
0100
0010
0001
0010
1000
0010
0001
0010
1000
0100
0001
0100
1000
0100
0001
,
0010
0100
1000
0100
0010
0001
0010
1000
0010
0001
0010
1000
0100
0010
0001
0010
,
0100
1000
0100
0010
0001
0010
0100
1000
0100
0000
0010
0100
1000
0000
0100
0000
,
0220
0000
0000
0330
;
