#TITLE:my love;
#SUBTITLE:;
#ARTIST:kinzica;
#TITLETRANSLIT:;
#SUBTITLETRANSLIT:;
#ARTISTTRANSLIT:;
#CREDIT:;
#BANNER:MY LOVE.png.png;
#BACKGROUND:MY LOVE.bg.png;
#LYRICSPATH:;
#CDTITLE:;
#MUSIC:MY LOVE.mp3;
#OFFSET:-7.020;
#SAMPLESTART:40.420;
#SAMPLELENGTH:12.000;
#SELECTABLE:YES;
#BPMS:0.000=140.040;
#STOPS:;
#BGCHANGES:;

//---------------dance-single - ----------------
#NOTES:
     dance-single:
     :
     Easy:
     4:
     0.275,0.284,0.159,0.209,0.000:
1000
0010
1000
0100
,
0001
0010
0001
0100
,
0100
0010
0001
0100
,
0100
0010
1000
0100
,
2000
0000
3100
0001
,
0010
0000
0010
0010
,
0200
0000
0310
0010
,
0001
0100
0001
0000
,
1002
0000
0103
0010
,
1000
0000
1000
0100
,
2000
0000
3010
0001
,
0100
0001
0010
0000
,
0200
0000
0310
0010
,
0001
0000
0001
0100
,
0020
0000
0230
0000
,
0301
0000
0001
1001
,
0020
0000
0130
0001
,
0010
0000
0010
0001
,
2000
0000
0100
0000
,
3010
0010
0001
0011
,
1001
0100
0001
0010
,
0110
1000
0001
0100
,
0010
0000
1000
0000
,
0001
1000
0001
0000
,
1010
0100
0001
0010
,
0110
0001
1000
0010
,
1000
0100
0001
0000
,
0010
0100
0010
0001
,
1020
0000
0130
0000
,
0002
0000
0103
0000
,
0010
0100
0010
0000
,
0100
0010
0100
0110
,
2000
0000
3001
0000
,
0020
0000
0130
0000
,
0001
0100
0001
0000
,
1000
0100
1000
0000
,
1010
0100
0001
0100
,
0010
1000
0001
0100
,
0001
0000
0000
0001
0000
0000
0000
0000
,
1000
0000
0000
1000
0000
0000
1001
0000
,
0110
1000
0010
0100
,
0001
0001
0001
0100
,
0010
0000
0000
0100
0000
0000
0000
0000
,
0100
0000
0000
0010
0000
0000
1001
0000
,
0200
0000
0310
0000
,
0020
0000
1030
0000
,
0002
0000
0103
0000
,
0002
0000
0103
0010
,
2010
0000
3001
0000
,
0200
0000
0310
0000
,
2000
0000
3010
0000
,
0002
0000
0013
0110
,
1001
0000
0000
0000
;

//---------------dance-single - ----------------
#NOTES:
     dance-single:
     :
     Medium:
     6:
     0.405,0.362,0.258,0.298,0.000:
1000
0000
0010
0000
1000
1000
1000
0000
,
0010
0000
0100
0000
0001
0100
1000
0000
,
0010
0000
0100
0000
0100
0100
0100
0000
,
0010
0000
0001
0000
1000
0001
1000
0001
,
0020
0100
1030
0100
,
0002
0013
0100
1100
,
0020
0001
0130
1000
,
0001
1000
0010
0000
0001
1000
0100
0000
,
0210
1000
0310
0100
,
0002
0013
2000
3010
,
0100
0000
0001
0100
0001
0000
1000
1000
,
2000
0100
3001
0101
,
2000
0010
3100
0101
,
0020
0031
0200
0310
,
2000
0100
3200
0010
,
0310
0000
0001
1000
0100
0000
0110
0000
,
0200
0010
0301
0110
,
0020
0001
0130
0101
,
0002
0103
2000
3010
,
1000
0001
1000
0001
0010
0000
0001
1000
,
0200
0001
0310
1000
,
0200
1000
0310
0001
,
0002
0000
1000
0000
0103
0000
1000
0010
,
0000
0010
0000
0010
0000
0000
0110
0000
,
1002
0010
0103
1000
,
2000
0001
3010
0010
,
0020
0000
0100
0000
1030
0000
0001
1000
,
0000
0010
0000
0100
0000
0000
1001
0000
,
0110
0000
1000
0010
0100
0000
1000
0000
,
0010
0000
0010
0001
0100
0000
0001
0000
,
1000
0000
1000
0001
1000
0000
0001
0100
,
0000
0100
0000
0100
0000
0000
0011
0000
,
1100
0000
0010
0100
0001
0000
1000
0000
,
0010
0000
0100
0001
0100
0000
0010
0000
,
1000
0000
0001
0001
1000
0000
0010
0001
,
0000
0001
0000
0001
0000
0100
0010
0000
,
1020
1000
1030
0100
,
0102
0010
1003
0100
,
0002
0000
0010
0010
0003
0000
0110
0000
,
0200
0000
0010
0010
0300
0000
1001
0000
,
1020
0100
0031
0001
,
0002
0100
1003
1000
,
0020
0000
0100
0100
0030
0000
0110
0000
,
2000
0000
0001
0001
3000
0000
1001
0000
,
0101
1000
0010
0100
,
0110
1000
0001
0010
,
0001
0010
0000
0100
0000
0000
0001
0000
,
0010
1000
0000
0100
0000
0000
1000
0000
,
0110
0001
1000
0010
,
0011
1000
0001
0100
,
0010
1000
0000
0001
0000
0000
0100
0000
,
0001
1000
0000
0010
0000
0000
0110
0000
,
1001
0000
0000
0000
;

//---------------dance-single - ----------------
#NOTES:
     dance-single:
     :
     Hard:
     9:
     0.677,0.569,0.487,0.278,0.303: // measure 1
1000
0000
0010
1000
0000
0010
1000
0000
0000
0100
0000
0000
0001
0000
0010
0000
,  // measure 2
0001
0000
0100
0001
0000
0100
0010
0000
0000
0100
0000
0000
0001
0000
0001
0000
,  // measure 3
0100
0000
1000
0010
0000
0100
0010
0000
0000
0100
0000
0000
0001
0000
1000
0000
,  // measure 4
0010
0000
0100
0001
0000
1000
0001
0000
0010
0100
0000
0001
1000
0000
1001
0000
,  // measure 5
0020
0130
0001
0100
0010
1000
0100
1000
,  // measure 6
0002
0103
0010
0100
1000
0100
0010
0210
,  // measure 7
0000
0301
0010
1020
0000
1000
0130
0002
,  // measure 8
1003
0010
1000
0200
0310
0001
0100
1001
,  // measure 9
0020
0031
0100
0010
1000
0010
0001
0100
,  // measure 10
0020
1030
0001
0100
1000
0100
0001
2010
,  // measure 11
0000
3100
0001
0201
0000
0310
1000
0002
,  // measure 12
0103
1000
0001
0020
1030
0100
0001
0011
,  // measure 13
0100
0000
0000
0000
0101
0000
0010
0000
1000
0000
0100
1000
0000
0000
0010
0000
,  // measure 14
0100
0000
0000
0100
0000
0000
0001
0000
0010
0000
0000
1000
0001
0000
0201
0000
,  // measure 15
0000
0000
0310
0000
0000
0000
2000
0000
0000
0000
0010
3000
0100
0000
0001
0000
,  // measure 16
2000
3100
0001
0010
0200
1300
0001
0110
,  // measure 17
1000
0000
1010
0100
0001
0100
0000
0001
,  // measure 18
0010
0001
0100
0001
0000
1000
1001
0010
,  // measure 19
2000
0100
3001
0010
0020
0100
1030
0100
,  // measure 20
0001
0010
0001
0000
1000
0100
1000
0000
0010
0000
0110
0000
1000
0000
0001
0000
,  // measure 21
0100
0001
0000
0100
0001
0000
0010
0000
0000
0000
1000
0000
1010
0000
0100
0000
,  // measure 22
0001
1000
0000
0001
1000
0000
0010
0000
0000
0000
0100
0000
0101
0000
0010
0000
,  // measure 23
1000
0010
0000
1000
0010
0000
0100
0000
0001
0000
1000
0000
0010
0000
1010
0000
,  // measure 24
0000
0000
0101
0000
0000
0000
0110
0000
1000
0000
0010
0100
0010
0000
0001
0000
,  // measure 25
0010
0001
0000
0010
0001
0000
1000
0000
0000
0000
0010
0000
0110
0000
1000
0000
,  // measure 26
0001
0100
0000
0010
1000
0000
0100
0000
0000
0000
0010
0000
0110
0000
1000
0000
,  // measure 27
0001
0100
0000
0001
0100
0000
0010
0000
0000
0000
1000
0000
0010
0000
0101
0000
,  // measure 28
0000
0101
0000
0011
0000
1010
0000
0110
,  // measure 29
2000
3100
0001
0100
0000
0010
1010
0100
,  // measure 30
0002
0013
1000
0100
0000
0010
0110
1000
,  // measure 31
0002
0000
0103
0000
1000
0000
0010
0000
0100
0000
0001
1000
0001
0000
0010
0000
,  // measure 32
0000
1010
0000
1100
0000
0110
0010
0001
,  // measure 33
0200
0301
0010
1000
0000
0010
0101
0010
,  // measure 34
0200
0301
0010
1000
0000
0010
0110
1000
,  // measure 35
0002
0000
0103
0000
1000
0000
0010
0000
0100
0000
0001
0100
0010
0000
0100
0000
,  // measure 36
0000
0011
0000
1010
0000
0110
1000
0001
,  // measure 37
0200
0000
0000
0010
0000
0000
0310
0000
1000
0010
1000
0000
0001
0000
0000
0000
,  // measure 38
0200
0000
0000
0001
0000
0000
0301
0000
0010
1000
0010
0000
0100
0000
0001
0000
,  // measure 39
1000
0010
1000
0000
0000
0000
0110
0000
0000
0000
0001
0000
1000
0000
0010
0000
,  // measure 40
0100
0001
0100
0000
0010
0000
1000
0000
0000
0000
0001
0000
1001
0000
0100
0000
,  // measure 41
2000
0000
0000
0100
0000
0000
3100
0000
0001
0100
0010
0000
1000
0000
0000
0000
,  // measure 42
0002
0000
0000
0010
0000
0000
0013
0000
0100
0010
1000
0000
0001
0000
0000
0000
,  // measure 43
1000
0010
1000
0000
0001
0000
0100
0000
0000
0000
0101
0000
0010
0000
1000
0000
,  // measure 44
0001
0010
0001
0000
1000
0000
0001
0000
0100
0001
0100
0000
1010
0000
0101
0000
,  // measure 45
1000
0010
0000
1000
0010
0000
0100
0000
0001
0000
0100
0000
0110
0000
0000
0000
,  // measure 46
1000
0001
0000
1000
0100
0000
0010
0000
1000
0000
0100
0000
1100
0000
0010
0000
,  // measure 47
1000
0010
0000
1000
0010
0000
0100
0000
0000
0000
0001
0000
0101
0000
0010
0000
,  // measure 48
0001
0010
0000
0100
0010
0000
0100
0000
0000
0000
0001
0000
1001
0000
0010
0000
,  // measure 49
0100
0001
0000
0100
0010
0000
1000
0000
0010
0000
0100
0000
0110
0000
0001
0000
,  // measure 50
1000
0010
0000
1000
0010
0000
0100
0000
0001
0000
1000
0000
0101
0000
0010
0000
,  // measure 51
1000
0010
1000
0000
0100
0000
0001
0000
0000
0000
0010
0000
0110
0000
1000
0000
,  // measure 52
0001
0100
0001
0000
1000
0000
0110
0000
1000
0000
0001
0100
0010
0000
1000
0000
,  // measure 53
1001
0000
0000
0000
;
