#TITLE:move to the rhythm;
#SUBTITLE:;
#ARTIST:spring gang feat. ebba;
#TITLETRANSLIT:;
#SUBTITLETRANSLIT:;
#ARTISTTRANSLIT:;
#CREDIT:;
#BANNER:MOVE TO THE RHYTHM.png;
#BACKGROUND:MOVE TO THE RHYTHM.bg.png;
#LYRICSPATH:;
#CDTITLE:;
#MUSIC:MOVE TO THE RHYTHM.mp3;
#OFFSET:-5.420;
#SAMPLESTART:50.800;
#SAMPLELENGTH:12.000;
#SELECTABLE:YES;
#BPMS:0.000=95.080;
#STOPS:;
#BGCHANGES:;

//---------------dance-single - ----------------
#NOTES:
     dance-single:
     :
     Easy:
     1:
     0.111,0.106,0.053,0.000,0.000:
0100
0000
0001
0000
,
0100
0000
0001
0000
,
0010
0000
0100
0000
,
0010
0000
0010
0000
,
1000
0000
0001
0000
,
1000
0000
1000
0000
,
0001
0000
0100
0000
,
0001
0000
0001
0000
,
1000
0000
0100
0000
,
1000
0000
1000
0000
,
0010
0000
0010
0000
,
0100
0000
0100
0000
,
0001
0000
0001
0000
,
1000
0000
1000
0000
,
0001
0000
0010
0000
,
0001
0000
0010
0000
,
1000
0000
0010
0000
,
1000
0000
0010
0000
,
1001
0000
0100
0000
,
0010
0000
0100
0000
,
0001
0000
0001
0000
,
1000
0000
1000
0000
,
0110
0000
0100
0000
,
0010
0000
0010
0000
,
0010
0000
1000
0000
,
0010
0000
0010
0000
,
1001
0000
0100
0000
,
0001
0000
0001
0000
,
0100
0000
0001
0000
,
0010
0000
1000
0000
,
0110
0000
0100
0000
,
0010
0000
0010
0000
,
1000
0000
0010
0000
,
1000
0000
1001
0010
;

//---------------dance-single - ----------------
#NOTES:
     dance-single:
     :
     Medium:
     4:
     0.261,0.249,0.231,0.000,0.000:
0010
0100
0010
0010
,
0001
0000
0100
0000
0001
0100
1000
0000
,
1000
0010
0001
0100
,
0010
0000
0010
0000
1000
0000
0100
1000
,
0100
0010
0100
0001
,
1000
0000
0010
0000
0001
0000
0100
0010
,
0100
0001
1000
0100
,
0010
0000
0010
0000
0001
0000
1000
0100
,
0001
0001
0001
0010
,
0100
0000
0001
0000
0100
0000
0010
1000
,
0010
0110
0000
0101
,
0001
0011
0000
0110
,
1000
1001
0000
1010
,
0100
1100
0000
1010
,
0100
0100
0100
0000
0001
0000
0010
0000
,
1000
0000
1000
0000
0001
1000
0001
0000
,
0010
0010
0010
0000
0001
0000
0100
0000
,
0010
0000
0110
1001
,
0101
0001
0001
0000
0010
0000
1000
0000
,
1000
0100
0001
0000
0010
0000
0110
0000
,
1001
0100
0001
0000
0010
0000
1000
0000
,
0100
0000
0000
0000
0100
1000
0010
0000
,
0110
0000
0100
0000
0001
0100
1000
0000
,
0010
0000
0100
0000
0001
0001
0010
0000
,
0100
0000
0001
0000
1001
0100
0001
0000
,
0010
0000
0000
0000
1000
0010
0001
0000
,
0110
0000
1000
0000
0100
1000
0100
0000
,
0010
0000
0001
0000
0101
0010
1000
0000
,
0100
0000
0001
0000
0010
0010
0010
0000
,
0110
0000
0000
0000
0010
1000
0001
0000
,
0101
0000
0010
0000
0001
0010
0100
0000
,
0101
0000
0001
0000
0010
1000
0010
0000
,
0100
0000
0001
0000
1100
0010
0100
0000
,
0001
0000
0000
0000
0001
1000
0001
1001
;

//---------------dance-single - ----------------
#NOTES:
     dance-single:
     :
     Hard:
     7:
     0.460,0.393,0.252,0.000,0.352: // measure 1
1000
0000
0000
0010
0000
0000
0100
0000
0000
0001
0000
0000
0010
0000
0000
0000
,  // measure 2
1000
0000
0000
0100
0000
0000
1000
0000
0000
0001
0000
0000
0010
1000
0010
0100
,  // measure 3
0001
0000
0100
0001
0000
0000
0010
0000
0001
0000
0010
0001
0000
0000
0100
0000
,  // measure 4
0001
0000
1000
0001
0000
0000
0100
0000
0001
0000
0010
0000
1000
0000
1000
0100
,  // measure 5
0001
0010
0100
0001
1000
0110
0000
1000
,  // measure 6
0101
0001
0001
0010
0100
1000
0000
0110
,  // measure 7
1000
0000
0010
1000
0000
0000
0001
0000
0100
0000
0010
0100
0000
0000
1000
0000
,  // measure 8
0001
0000
0010
0001
0000
0000
0100
0000
0001
0000
1000
0000
0110
0000
1000
0001
,  // measure 9
0100
0000
0100
0000
0100
0000
0001
0000
0010
0000
0001
0000
0100
0000
0010
1000
,  // measure 10
0100
0100
0100
1000
0010
0100
0001
1000
,  // measure 11
1001
0000
0010
0100
0000
0000
0010
0000
1000
0010
0000
0000
0100
0000
0001
1000
,  // measure 12
0001
0100
0001
0010
0101
0010
0011
1000
,  // measure 13
1001
0000
0100
0000
0010
0000
1000
0000
0010
0000
0100
0000
0001
0000
1000
0001
,  // measure 14
0010
0100
0010
0001
0100
0001
0010
1001
,  // measure 15
1100
0000
0010
1000
0000
0000
0100
0000
1000
0000
0010
1000
0000
0000
0001
1000
,  // measure 16
0010
0100
0001
1000
0010
0101
0010
0011
,  // measure 17
1001
0100
0001
0100
0001
0001
0001
1000
,  // measure 18
1100
0010
0100
0001
0010
1000
0100
0001
,  // measure 19
1001
0000
0100
0000
0010
1000
0000
0010
1000
0000
0010
1000
0000
0010
1000
0000
,  // measure 20
0100
0000
0001
0000
0100
0001
0000
0100
0001
0000
0100
0001
0000
0100
0001
0000
,  // measure 21
0010
0000
1000
0000
0001
1000
0000
0001
1000
0000
0001
1000
0000
0001
1000
0000
,  // measure 22
1001
0000
0000
0100
0001
0010
0100
0000
,  // measure 23
1010
0000
0100
0000
0010
1000
0000
0010
1000
0000
0010
1000
0000
0010
1000
0000
,  // measure 24
0001
0000
0100
0000
0001
0100
0000
0001
0100
0000
0001
0100
0000
0001
0100
0000
,  // measure 25
0010
0000
0100
0000
0010
0100
0000
0010
0100
0000
0010
0100
0000
0000
0001
0000
,  // measure 26
1001
0000
0000
0000
0000
0000
0100
0000
0001
0000
0010
0000
0100
0001
0100
0001
,  // measure 27
0010
0000
0110
0000
1000
0001
0000
1000
0001
0000
1000
0001
0000
0000
0100
0000
,  // measure 28
0000
0000
0010
0000
1000
0010
0000
1000
0010
0000
1000
0010
0000
0000
0100
0000
,  // measure 29
0001
0000
1000
0000
0001
0100
0000
0001
1000
0000
0001
0010
0000
0000
1001
0000
,  // measure 30
0100
0000
0000
0010
1000
0100
1000
0000
,  // measure 31
1010
0000
1000
0000
0010
1000
0000
0010
1000
0000
0010
1000
0000
0000
0100
0000
,  // measure 32
0000
0000
0001
0000
0100
0001
0000
1000
0001
0000
0010
0001
0000
0000
0100
0000
,  // measure 33
0110
0000
0100
0000
0010
1000
0000
0010
0100
0000
0010
1000
0000
0000
0001
0000
,  // measure 34
1001
0000
0000
0000
0000
0000
0100
0000
0001
0000
1001
0000
0010
1000
0001
0100
;
