#TITLE:YOU AND ME;
#SUBTITLE:;
#ARTIST:AIRBAG;
#TITLETRANSLIT:;
#SUBTITLETRANSLIT:;
#ARTISTTRANSLIT:;
#CREDIT:;
#BANNER:YOU AND ME.png.png;
#BACKGROUND:YOU AND ME.bg.png;
#LYRICSPATH:;
#CDTITLE:;
#MUSIC:YOU AND ME.mp3;
#OFFSET:-7.370;
#SAMPLESTART:64.200;
#SAMPLELENGTH:12.000;
#SELECTABLE:YES;
#BPMS:0.000=134.990;
#STOPS:;
#BGCHANGES:;

//---------------dance-single - ----------------
#NOTES:
     dance-single:
     :
     Easy:
     3:
     0.216,0.229,0.150,0.000,0.000:
1000
0010
1000
0000
,
0100
0000
1001
0000
,
0001
0100
0001
0000
,
0010
0000
1001
0000
,
0010
0000
0010
0010
,
0100
0000
0100
0100
,
0001
0000
0001
0001
,
1000
0000
1000
0010
,
1001
0000
0100
0001
,
0010
0000
1000
0000
,
0001
0000
0100
0010
,
0100
0000
1001
0000
,
0110
0000
0100
0001
,
0010
0000
0100
0000
,
0001
0000
0100
1000
,
0010
0000
1001
0000
,
1010
0000
0100
0000
,
1100
0000
0010
0000
,
0100
0001
0010
0000
,
0100
0000
0001
0000
,
1001
0000
0010
0000
,
0011
0000
0100
0000
,
0001
1000
0010
0000
,
0001
1000
0100
0000
,
0010
0010
0010
0000
,
0100
0001
0100
0000
,
0010
0010
0010
0000
,
1000
0100
1000
0000
,
0100
0100
0100
0000
,
0001
1000
0001
0000
,
0100
0100
0100
0000
,
1000
0001
1000
0010
,
1001
0000
0100
0000
,
0010
1000
0100
0000
,
0010
0000
0100
0000
,
0010
0001
0100
0000
,
0010
0010
0100
0000
,
0001
0000
1000
0000
,
0001
1000
0010
0000
,
0001
1000
0100
0000
,
1001
0000
0100
0000
,
0010
0010
0001
0000
,
0100
0000
0001
0000
,
0010
0010
1000
0000
,
1001
0010
0100
0000
,
0010
0000
1000
0000
,
0010
1000
0100
0000
,
0010
0000
1001
0000
;

//---------------dance-single - ----------------
#NOTES:
     dance-single:
     :
     Medium:
     4:
     0.311,0.305,0.161,0.000,0.000:
1010
0100
0001
0100
,
0010
0000
1000
0000
0001
1000
0010
0000
,
0100
0001
0010
0001
,
0100
0000
0001
0000
0001
0100
1000
0000
,
1001
0010
0010
0000
,
0100
0001
0100
0000
,
0001
0010
0010
0000
,
1000
0100
0001
0000
1000
0001
1000
0000
,
1001
0010
1000
0100
,
1000
0010
0010
1000
,
1000
0001
0100
0010
,
1000
0000
0001
0000
0100
0001
0010
0000
,
0011
0001
0100
0001
,
0010
1000
0100
1000
,
0001
1000
0100
0001
,
0001
0000
0010
0000
1000
0010
1000
0000
,
0110
1000
0010
0000
,
1100
0010
0001
0000
,
0010
0001
0100
0001
,
1000
0000
1000
0000
0001
1000
0001
0000
,
1001
0010
0001
0000
,
0101
0010
1000
0000
,
0100
0100
1000
0010
,
0001
1000
0001
0000
0001
1000
0001
0000
,
0110
0000
0100
0000
,
0010
0010
1000
0001
,
0100
0000
0001
0000
,
0010
0000
0001
0000
0100
0001
0100
0000
,
0110
0000
1000
0000
,
0010
1000
0100
1000
,
0010
0000
0100
0000
,
0010
0000
0001
0000
0010
0010
0001
0000
,
0101
0010
1000
0100
,
0001
0000
1000
0000
0010
1000
0100
0000
,
0010
0001
0100
0010
,
0001
0000
1000
0000
0001
0100
1000
0000
,
1010
0100
0001
1000
,
0010
0000
0100
0000
0010
0001
0100
0000
,
0010
0010
1000
0001
,
0100
0000
0001
0000
1000
0001
1000
0000
,
1001
0010
0100
0000
,
0010
0010
1000
0001
,
0100
0001
0100
0000
,
0010
1000
0001
0000
0100
0000
0000
0000
,
1010
0100
0001
0000
,
0010
0001
0100
1000
,
0010
0100
0001
0000
,
1000
0010
0100
0000
1001
0000
0000
0000
;

//---------------dance-single - ----------------
#NOTES:
     dance-single:
     :
     Hard:
     5:
     0.399,0.382,0.353,0.000,0.032: // measure 1
0110
1001
0101
0010
,  // measure 2
0001
0010
0001
0000
0001
0100
1000
0000
,  // measure 3
0110
0001
0101
1000
,  // measure 4
0010
1000
0100
0000
0100
0001
0010
0100
,  // measure 5
0000
1010
0000
0100
0000
0001
0000
1000
,  // measure 6
0000
1000
0000
0001
0000
0100
0000
0001
,  // measure 7
0000
0001
0000
0001
0000
0100
0000
0010
,  // measure 8
0000
1000
0000
0001
0000
1000
1001
0000
,  // measure 9
1010
0000
0100
0000
0001
0100
0001
0000
,  // measure 10
0001
1000
0010
0000
0100
0000
0101
0000
,  // measure 11
0010
0000
1000
0000
0100
1000
0010
0000
,  // measure 12
0100
0000
0001
0010
0000
0000
0011
0000
,  // measure 13
0110
0000
1000
0000
0001
0100
1000
0000
,  // measure 14
1000
0010
0100
0000
0001
0000
1010
0000
,  // measure 15
0100
0000
0001
0000
1000
0010
0001
0000
,  // measure 16
0100
0000
0010
0100
0000
0000
0101
0000
,  // measure 17
1010
0000
0000
0000
0100
0000
0000
0100
0000
0000
0001
0000
0000
0000
0000
0000
,  // measure 18
0010
0000
0000
0000
1000
0000
0000
1000
0000
0000
0001
0000
0000
0000
0100
0000
,  // measure 19
0010
0000
0000
0000
0011
0000
0000
0001
0000
0000
0100
0000
0000
0000
0010
0000
,  // measure 20
1000
1000
1000
0000
0001
0000
0101
0000
,  // measure 21
1010
0000
0000
0000
0100
0000
0000
0001
0000
0000
1000
0000
0000
0000
0010
0000
,  // measure 22
1000
0000
0000
0000
0100
0000
0000
0010
0000
0000
1000
0000
0000
0000
0010
0000
,  // measure 23
0100
0000
0000
0000
0101
0000
0000
0001
0000
0000
0010
0000
0000
0000
0001
0000
,  // measure 24
1000
0010
0001
0000
1000
0010
0110
0000
,  // measure 25
1001
0100
0001
1000
,  // measure 26
0010
1000
0010
0000
0100
0001
0100
0000
,  // measure 27
0010
0010
0001
0100
,  // measure 28
1000
0001
0010
0000
0001
1000
0100
0000
,  // measure 29
0101
0010
0001
1000
,  // measure 30
0010
0010
0010
0000
0100
0100
0001
0000
,  // measure 31
1000
0010
0100
0001
,  // measure 32
1000
1000
0100
0000
0010
0010
1000
0000
,  // measure 33
1001
0100
0101
0010
,  // measure 34
0001
0010
0001
0000
0100
0010
0001
0000
,  // measure 35
0110
1000
1001
0100
,  // measure 36
0010
1000
0010
0100
0001
0000
0000
0000
,  // measure 37
1010
0100
0110
0001
,  // measure 38
1000
0001
0100
0000
0001
1000
0010
0000
,  // measure 39
0011
0001
0101
0010
,  // measure 40
1000
0010
0100
0001
0100
0000
0000
0000
,  // measure 41
0010
1000
0001
0000
,  // measure 42
1000
0010
1000
0000
0001
0100
0001
0000
,  // measure 43
0110
0001
0110
0000
,  // measure 44
0001
0100
1000
0000
0110
0000
0000
0000
,  // measure 45
1000
0010
1000
0000
0001
0100
0001
0000
,  // measure 46
0010
0100
0001
1000
0010
0000
0000
0000
,  // measure 47
0110
0001
1000
0000
,  // measure 48
0010
1000
0001
0100
0010
0000
0000
0000
;
