#TITLE:WALKIE TALKIE;
#SUBTITLE:~MOMO MIX~;
#ARTIST:KING KONG & D. JUNGLE GIRLS;
#TITLETRANSLIT:;
#SUBTITLETRANSLIT:;
#ARTISTTRANSLIT:;
#CREDIT:;
#BANNER:WALKIE TALKIE (MOMO MIX).png.png;
#BACKGROUND:WALKIE TALKIE (MOMO MIX).bg.png;
#LYRICSPATH:;
#CDTITLE:;
#MUSIC:WALKIE TALKIE (MOMO MIX).mp3;
#OFFSET:-7.180;
#SAMPLESTART:35.020;
#SAMPLELENGTH:12.000;
#SELECTABLE:YES;
#BPMS:0.000=172.160;
#STOPS:;
#BGCHANGES:;

//---------------dance-single - ----------------
#NOTES:
     dance-single:
     :
     Challenge:
     8:
     0.587,0.508,0.345,0.000,0.000: // measure 1
0001
0100
0001
0010
0001
1000
0001
1000
,  // measure 2
0000
1000
0010
0000
0100
0000
0101
0000
,  // measure 3
0010
1000
0010
0100
0010
1000
0001
1000
,  // measure 4
0000
1000
0001
0000
0101
0000
0011
0000
,  // measure 5
1000
0010
1000
0100
0001
1000
0001
0000
,  // measure 6
0100
0001
0100
0001
1000
0010
0100
0001
,  // measure 7
1000
0010
0001
0000
0001
0100
1000
0000
,  // measure 8
1000
0100
0001
0100
0010
0000
0110
0000
,  // measure 9
0010
0001
0100
1000
0010
0010
0001
0000
,  // measure 10
0100
0001
1000
0010
0100
0001
1000
0000
,  // measure 11
1000
0010
0001
0000
0001
0100
0010
0000
,  // measure 12
0010
1000
0010
0100
0001
0000
1001
0000
,  // measure 13
0101
0000
0010
0001
0010
0001
0100
0010
,  // measure 14
1000
0000
0001
0100
0001
1000
0010
1000
,  // measure 15
0001
0100
0000
0100
0001
1000
0000
1000
,  // measure 16
0010
1000
0100
1000
0001
0000
1001
0000
,  // measure 17
0110
0000
0100
0001
0100
1000
0010
1000
,  // measure 18
0000
1000
0010
0001
0010
0001
0100
0001
,  // measure 19
0000
0100
0000
0001
0000
1000
0000
0010
,  // measure 20
0100
0001
1000
0010
0100
0000
0001
0000
,  // measure 21
1010
0100
0101
0010
,  // measure 22
1000
0010
1000
0100
0000
0001
0100
0001
,  // measure 23
0010
0011
0100
0101
,  // measure 24
0010
0010
1000
1000
0001
0100
0010
1001
,  // measure 25
0100
0010
1010
0101
,  // measure 26
0010
0100
0001
0001
0000
0001
1000
0010
,  // measure 27
1000
0000
0100
0000
1000
0010
1000
0100
,  // measure 28
0001
1000
0001
1000
0000
1000
0010
0100
,  // measure 29
0001
0000
0101
0000
1010
0000
0100
0001
,  // measure 30
0000
0001
1000
0000
0010
1000
0001
0000
,  // measure 31
0100
0001
1000
0010
0100
0010
0100
0001
,  // measure 32
0000
0001
0100
0000
0010
0100
1000
0100
,  // measure 33
0010
0000
0101
0000
0101
0000
0010
0100
,  // measure 34
0000
0100
0001
0000
0010
0001
1000
0010
,  // measure 35
0100
0001
1000
0000
1000
0010
0100
0001
,  // measure 36
0000
0001
1000
0000
1001
0000
0000
0000
,  // measure 37
0010
1000
0001
0100
0001
1000
0001
0000
,  // measure 38
0010
1000
0100
1000
0010
0000
0101
0000
,  // measure 39
0010
0100
0001
0000
0001
1000
0010
0000
,  // measure 40
0010
0100
0010
1000
0001
0000
0101
0000
,  // measure 41
0011
0000
1000
0000
0100
1000
0010
0000
,  // measure 42
0100
0001
0100
0001
1000
0010
0100
0000
,  // measure 43
0001
1000
0010
0000
0010
0100
1000
0000
,  // measure 44
1000
0010
0100
0001
1000
0000
1010
0000
,  // measure 45
0100
0001
0100
0000
0010
1000
0010
1000
,  // measure 46
0000
0100
1000
0000
0010
0100
0001
1000
,  // measure 47
0000
0010
0000
0100
0000
0001
0010
0001
,  // measure 48
0100
0001
1000
0000
1000
0001
0010
0000
,  // measure 49
1001
0000
0010
0100
0001
1000
0010
0100
,  // measure 50
0000
0001
0000
1000
0010
0100
0001
1000
,  // measure 51
0000
1000
0000
0100
0000
0010
0000
0001
,  // measure 52
0010
0100
0010
0001
0000
0000
1000
0000
,  // measure 53
1010
0100
0101
0010
,  // measure 54
1000
0010
0100
0001
0000
0001
1000
0000
,  // measure 55
1010
0100
0101
0010
,  // measure 56
1000
1000
0010
0010
0100
0001
1001
0100
,  // measure 57
0001
0010
0101
1010
,  // measure 58
0100
0001
1000
0010
0000
0100
0001
1000
,  // measure 59
0010
0000
0100
0000
0001
1000
0010
0000
,  // measure 60
0100
0001
1000
0010
0000
0000
0000
0000
,  // measure 61
0100
0001
0100
0000
0010
0001
0010
0000
,  // measure 62
1000
0000
0010
1000
0000
1000
0100
0000
,  // measure 63
0010
1000
0010
0000
0100
0001
0100
0000
,  // measure 64
1010
1010
0110
1001
,  // measure 65
0100
0001
0100
0000
0010
1000
0010
0000
,  // measure 66
0100
0001
1000
0010
0000
0010
0100
0001
,  // measure 67
1000
0000
0010
0000
0100
0000
0001
1000
,  // measure 68
0010
0100
0001
1000
0000
1000
0010
0100
,  // measure 69
1001
0000
0000
0000
;
