#TITLE:WALKIE TALKIE ~MOMO MIX~;
#ARTIST:KING KONG & D. JUNGLE GIRLS;
#FILE:WALKIE TALKIE (MOMO MIX).mp3;
#BPM:172.160;
#GAP:7180;
#SAMPLESTART:35.020;
#SAMPLELENGTH:12.000;
#SINGLE:SMANIAC:8:
62686464
04802030
84828464
04603090
48426460
26264826
48606240
426280A0
86248860
26482640
48606280
848260B0
30868628
40626484
62026404
842460B0
A0262484
04868626
02060408
26482060
70203080
48420626
80902030
8844628B
20807030
82660648
40204842
64640482
60307026
06408460
26482826
06208242
80303082
02608648
26404826
0640B000
84626460
84248030
82606480
82846030
90402480
26264820
64808240
48264070
26208484
02408264
08020686
26404680
B0826482
06048264
04020806
82860040
70203080
48260640
70203080
448826B2
60803070
26480264
80206480
26480000
26208680
40840420
84802620
7070A0B0
26208480
26480826
40802064
82640482
B0000000
;
