#TITLE:The Power Of Love;
#SUBTITLE:-FROM "SAILOR MOON R THE MOVIE"-;
#ARTIST:JENNIFER CIHI;
#TITLETRANSLIT:;
#SUBTITLETRANSLIT:;
#ARTISTTRANSLIT:;
#CREDIT:;
#BANNER:THE POWER OF LOVE.png.png;
#BACKGROUND:THE POWER OF LOVE.bg.png;
#LYRICSPATH:;
#CDTITLE:;
#MUSIC:POWER OF LOVE.mp3;
#OFFSET:-7.460;
#SAMPLESTART:34.960;
#SAMPLELENGTH:12.000;
#SELECTABLE:YES;
#BPMS:0.000=134.000;
#STOPS:;
#BGCHANGES:;

//---------------dance-single - ----------------
#NOTES:
     dance-single:
     :
     Easy:
     2:
     0.174,0.194,0.126,0.000,0.000: // measure 1
1000
0000
0100
0100
,  // measure 2
0100
0000
0000
0010
,  // measure 3
0001
0000
0100
0100
,  // measure 4
0100
0000
0000
0000
,  // measure 5
1001
0000
0010
0010
,  // measure 6
0010
0000
0000
1000
,  // measure 7
0010
0000
0010
0010
,  // measure 8
0010
0000
0000
0000
,  // measure 9
0110
0000
1000
0000
,  // measure 10
0010
0000
1000
0000
,  // measure 11
0010
0000
0010
0000
,  // measure 12
0100
0000
0000
0000
,  // measure 13
0101
0000
0100
0000
,  // measure 14
0001
0000
0100
0000
,  // measure 15
0001
0000
0001
0000
,  // measure 16
0001
0000
0000
0001
,  // measure 17
1001
0000
0100
0000
,  // measure 18
0010
0000
0010
0000
,  // measure 19
0010
0010
0010
0000
,  // measure 20
0100
0000
0010
0000
,  // measure 21
1010
0000
1000
0000
,  // measure 22
0010
0000
1000
0000
,  // measure 23
0010
0000
1000
1000
,  // measure 24
1000
0000
0000
1001
,  // measure 25
1001
0000
0100
0100
,  // measure 26
0100
0000
0000
0100
,  // measure 27
0010
0000
0010
0010
,  // measure 28
0010
0000
0000
0000
,  // measure 29
1001
0000
1000
1000
,  // measure 30
1000
0000
0000
1000
,  // measure 31
0001
0000
0001
0001
,  // measure 32
0001
0000
0000
0000
,  // measure 33
1001
0000
0100
0000
,  // measure 34
0010
0000
0100
0000
,  // measure 35
0010
0000
1000
0010
,  // measure 36
1000
0000
0000
0000
,  // measure 37
0110
0000
0100
0000
,  // measure 38
0010
0000
0100
0000
,  // measure 39
0010
0000
0010
0010
,  // measure 40
0100
0000
0010
0000
,  // measure 41
0110
0000
0100
0100
,  // measure 42
0100
0000
0001
0000
,  // measure 43
0100
0000
0001
0001
,  // measure 44
0001
0000
0100
0000
,  // measure 45
0010
0000
0010
0010
,  // measure 46
0010
0000
0100
0000
,  // measure 47
1001
0000
1000
1000
,  // measure 48
1000
0000
0010
0000
,  // measure 49
0001
0000
0001
0001
,  // measure 50
0001
0000
0100
0000
,  // measure 51
1001
0000
0000
0000
;

//---------------dance-single - ----------------
#NOTES:
     dance-single:
     :
     Medium:
     4:
     0.313,0.316,0.243,0.000,0.000:
1001
0010
1000
0010
,
0001
0000
0100
0000
0001
0000
0010
0100
,
0010
0000
1000
0000
0001
0000
0100
0010
,
0000
0000
0100
0100
0000
0000
0010
0000
,
1001
0010
1000
0100
,
1000
0000
0010
0000
0100
0001
0100
0000
,
0010
0000
1000
0000
0001
0000
0100
0010
,
0000
0000
0010
0100
0000
0000
0110
0000
,
1001
0100
0001
0010
,
0101
0010
1000
0001
,
1010
0100
0001
1000
,
1001
0010
0010
0010
,
1100
0010
0100
0001
,
0101
0100
0001
1000
,
1001
1000
1000
1000
,
1010
1010
1010
0100
,
0001
0000
1000
0001
,
1000
0000
0100
1000
,
1000
1000
0001
0001
,
0010
0000
0100
0000
0001
1000
0001
0000
,
0010
0000
0010
0100
,
0001
0000
0100
0100
,
0001
0000
0010
0000
0001
0000
1000
0001
,
1000
0000
0100
0000
0001
1000
0001
0000
,
1001
0010
1000
0100
,
1000
0000
0100
0000
1000
0100
1000
0000
,
0010
0000
0001
0000
0100
0000
0001
0100
,
0000
0000
0100
0100
0000
0000
0010
0000
,
1001
0010
0001
0100
,
0001
0000
1000
0000
0010
1000
0010
0000
,
0100
0000
0001
0000
0100
0000
0001
0001
,
0000
0000
0001
1000
0000
0000
0010
0000
,
1010
0100
1000
0010
,
0110
1000
0001
0100
,
0001
1000
0001
0010
,
0100
0100
0100
0001
,
0011
0100
0001
1000
,
1100
0010
0100
0010
,
0110
0010
0010
0010
,
1001
1001
1001
0100
,
0010
0000
0010
0100
,
0010
0000
0100
0001
,
0001
1000
1000
0010
,
0100
0000
0001
0000
1000
0010
0100
0000
,
1000
0000
1000
0010
,
0100
0000
0000
0000
0010
0000
1000
0010
,
1000
0000
0001
0010
,
0011
0000
0000
0000
0001
0000
0100
0010
,
0100
0000
1000
0010
,
1010
0000
0000
0000
0100
0000
0010
1000
,
0001
0000
0000
0000
;

//---------------dance-single - ----------------
#NOTES:
     dance-single:
     :
     Hard:
     7:
     0.475,0.413,0.175,0.000,0.000:
0010
0100
0001
0100
0001
1000
0001
0000
,
0010
1000
0100
1000
0001
1000
0001
0000
,
0010
0100
1000
0010
0100
0001
0001
1000
,
0000
0010
0000
0110
0000
0100
0100
0000
,
0001
0100
0001
1000
0010
0010
0010
0000
,
0100
0001
1000
0100
0010
0010
0010
0000
,
1000
0010
0100
0001
1000
0001
1000
0010
,
0000
0100
0000
0110
0000
0010
0010
0000
,
1000
0010
1000
0100
1000
0001
1000
0000
,
0010
0001
0100
0001
1000
0001
1000
0000
,
0010
0000
1000
0000
0001
0100
0010
1000
,
0001
0000
0100
0000
0010
0100
1001
0000
,
0010
0001
0100
0001
0100
0000
0010
0000
,
1000
0010
0100
0010
0010
0000
1000
0000
,
0010
1000
0100
1000
0001
1000
0001
0010
,
1001
0000
0101
0000
0010
1000
0100
1000
,
0010
0000
0100
0000
0001
1000
0001
0010
,
0100
0000
0001
0000
1000
1000
0010
0000
,
0100
0100
0001
0000
1000
0010
1000
0100
,
1000
0001
1000
0000
0001
1000
0010
1000
,
0100
0000
0010
0000
1000
1000
1000
0100
,
0010
0000
1000
0000
0001
0001
0010
0000
,
0001
0001
0100
0000
0010
1000
0001
0100
,
0010
0000
1000
0000
0001
1000
1010
0000
,
0001
1000
0001
0000
0100
0001
0010
0000
,
1000
0001
1000
0000
0100
1000
0010
0000
,
1000
0010
1000
0000
0100
0001
0100
0010
,
0000
0100
0000
0100
0000
0110
0010
0000
,
0001
0010
0001
0000
0100
1000
0100
0000
,
0001
0100
0001
0000
0010
0100
0010
0000
,
1000
0001
1000
0100
0001
1000
0001
0010
,
0000
0010
0000
0100
0000
0110
0010
0000
,
1000
0010
1000
0100
0001
1000
1001
0000
,
0010
0001
0100
0001
1000
0010
0110
0000
,
1000
0010
0100
0010
1000
0001
1000
0100
,
0010
0000
0011
0000
1100
0100
0100
0000
,
0010
0100
0010
0001
1000
0000
0100
0000
,
0010
1000
0010
0100
0001
0100
0101
0000
,
0010
1000
0010
0100
0010
0010
0010
0000
,
0011
0000
1100
0010
0100
0001
1000
0001
,
0010
1000
0010
0100
0001
1000
0001
0010
,
0100
0001
0001
0000
0100
1000
1000
0000
,
0010
1000
0010
0100
0001
1000
0001
0000
,
0010
0010
0001
0000
0100
0100
0001
0000
,
0110
1000
0001
0100
0001
1000
0010
0100
,
0001
1000
0010
0000
1000
0010
1000
0100
,
0001
1000
0001
0100
0010
0010
0010
0100
,
0001
1000
0001
0000
0100
0000
0110
0001
,
1000
0010
0100
0001
0010
0001
0010
0001
,
1000
0001
1000
0000
0100
1000
0010
0100
,
1001
0000
0000
0000
;
