#TITLE:SEASON IN THE SUN;
#SUBTITLE:;
#ARTIST:CYBER X FEAT. MAXI PRIEST;
#TITLETRANSLIT:;
#SUBTITLETRANSLIT:;
#ARTISTTRANSLIT:;
#CREDIT:;
#BANNER:SEASON IN THE SUN.png.png.png;
#BACKGROUND:SEASON IN THE SUN.bg.png;
#LYRICSPATH:;
#CDTITLE:;
#MUSIC:SEASON IN THE SUN.mp3;
#OFFSET:-7.320;
#SAMPLESTART:71.700;
#SAMPLELENGTH:12.000;
#SELECTABLE:YES;
#BPMS:0.000=135.720;
#STOPS:;
#BGCHANGES:;

//---------------dance-single - ----------------
#NOTES:
     dance-single:
     :
     Easy:
     4:
     0.234,0.297,0.202,0.000,0.000:
0100
0000
0000
0000
,
0100
0000
0000
0000
,
1000
0000
0000
0000
,
0010
0000
0001
0000
,
0000
1010
0000
0000
0000
0000
0000
0000
,
0000
0101
0000
0000
0000
0000
0000
0000
,
0000
1001
0000
0000
0000
0000
0000
0000
,
0000
0110
0000
0000
0000
0000
1000
0000
,
0100
0010
0100
1000
,
0010
0001
0010
1000
,
0001
0100
0001
0010
,
1010
0000
0000
1000
,
0001
0010
0010
0000
,
0100
0001
0100
1000
,
0010
1000
1000
0000
,
0001
1000
1000
0001
,
0010
0100
0001
0000
,
0001
0100
0100
0010
,
1000
0010
0100
0000
,
0001
0000
1000
1001
,
0010
0000
0010
0100
,
0010
0000
0010
0001
,
0001
0000
0100
0010
,
0001
0000
0001
0101
,
0010
0000
0010
1000
,
0100
0000
1000
0010
,
1000
0000
0001
1000
,
0100
0000
0001
0110
,
1000
0000
0100
0000
,
1000
0100
1000
0000
,
0010
0000
0100
0000
,
0001
0100
0001
0100
,
0010
0000
0011
0000
,
0100
0001
0001
0000
,
0010
0000
1100
0000
,
0001
1000
0100
0000
,
0101
0000
0000
0000
,
1000
1000
0100
0010
,
0001
0000
0100
0000
,
0001
0001
0100
0010
,
1000
0000
1000
0101
,
0010
0000
1000
1010
,
0100
0000
0100
0110
,
1001
0100
0101
0010
,
0001
0100
0101
0011
,
1001
0100
0001
0100
,
1000
1000
1000
0010
,
0100
0001
1000
0010
,
0100
0100
0100
0001
,
0010
0100
1000
0010
,
0110
0000
0100
0001
,
1001
0000
0010
0000
;

//---------------dance-single - ----------------
#NOTES:
     dance-single:
     :
     Medium:
     6:
     0.326,0.347,0.269,0.000,0.000:
1001
0000
0000
0000
,
0101
0000
0000
0000
,
0110
0000
0000
0000
,
1001
0000
1010
0000
,
0000
0011
0000
0000
0100
0000
0000
0000
,
0000
0110
0000
0000
1000
0000
0000
0000
,
0000
1001
0000
0000
0010
0000
0000
0000
,
0000
0101
0000
0000
0100
0000
0010
0000
,
1000
0001
0000
0100
0000
0010
0000
1000
,
0000
0001
0000
0100
0000
0001
0000
0010
,
0110
1000
0000
1000
0000
0100
0000
0010
,
0001
0010
0100
0000
0110
0000
0001
0000
,
1000
0010
0100
0000
0001
0000
0001
0000
,
0010
1000
0010
0000
0100
0000
0001
0000
,
1000
0010
0100
0000
0001
0000
1000
0000
,
0001
0100
1000
0000
0010
0000
0110
0000
,
1000
1000
1000
0000
0100
0000
0010
0000
,
0001
0001
0001
0000
0100
0000
0001
0000
,
0100
0100
0010
0000
1000
0000
0001
0000
,
1000
0100
0001
0000
0101
0000
0011
0000
,
1001
0000
0000
0100
0001
0000
0010
0000
,
0001
0000
0000
0001
0001
0000
0100
0000
,
0010
0000
0000
1000
0010
0000
0100
0000
,
0001
0000
0000
1000
1000
0000
0010
0000
,
0001
0000
0000
0100
0001
0000
0010
0000
,
0001
0000
0000
0010
0100
0000
0001
0000
,
1000
0000
0000
0010
1000
0000
0100
0000
,
1000
0000
0000
0001
0001
0000
0100
0000
,
1000
0000
0010
0000
1000
1000
0100
0000
,
0010
0000
0001
0000
0100
0001
0010
0000
,
0001
0000
0001
0000
,
0100
0101
0010
0110
,
1001
0000
0010
0000
1000
1000
0100
0000
,
0010
0000
0001
0000
0010
0010
0001
0000
,
0100
0000
0001
0000
,
1000
0010
0000
0001
0100
0000
0110
0000
,
1001
0000
0010
0100
,
0001
0000
0110
0000
1000
1000
0100
0000
,
0010
0000
0001
0000
0010
0100
0010
0000
,
0001
0000
1000
0000
0010
0100
0001
0000
,
0010
0000
1000
0000
0001
1000
0001
1000
,
0010
0000
0000
0000
0100
0000
0001
1000
,
0010
0000
0000
0000
0100
0000
0001
0100
,
0010
0011
0100
0101
,
0010
1000
1001
0110
,
1001
0000
0010
0000
1000
1000
0010
0000
,
0100
0000
0001
0000
0100
0001
0010
0000
,
0001
0000
1000
0000
0001
1000
0010
0000
,
0001
0000
0100
0000
0001
1000
0001
1000
,
0010
0000
0000
0000
0100
0000
0001
0100
,
0110
0000
0010
1000
,
1001
0000
0000
0010
0100
0000
0000
0000
;

//---------------dance-single - ----------------
#NOTES:
     dance-single:
     :
     Hard:
     8:
     0.441,0.421,0.337,0.000,0.072: // measure 1
0101
0000
0000
0000
,  // measure 2
0011
0000
0000
0000
,  // measure 3
0110
0000
0000
0000
,  // measure 4
1010
0000
0101
0001
,  // measure 5
0010
0000
1000
0000
0000
0010
0000
0000
1010
0000
0000
0000
0100
0000
0000
0000
,  // measure 6
0001
0000
1000
0000
0000
0010
0000
0000
0110
0000
0000
0000
0001
0000
0000
0000
,  // measure 7
1000
0000
0010
0000
0000
0100
0000
0000
0110
0000
0000
0000
0001
0000
0000
0000
,  // measure 8
0100
0000
0001
0000
0000
0010
0000
0000
1000
0000
0000
0000
1010
0000
0000
0000
,  // measure 9
0110
0000
0000
0010
0000
0000
0010
0000
0001
0000
0000
0000
0100
0000
0000
0000
,  // measure 10
1000
0000
0001
0000
0000
0001
0000
0000
0001
0000
0000
0000
0101
0000
0000
0000
,  // measure 11
0010
0000
0000
1000
0000
0000
0100
0000
0001
0000
0000
0100
0000
0000
0100
0000
,  // measure 12
0001
1000
0001
0000
0101
0000
0011
0000
,  // measure 13
0010
0100
0010
0000
0010
0001
0100
0001
,  // measure 14
0010
1000
0100
0000
1000
0010
1000
0100
,  // measure 15
0001
1000
0010
0000
0010
0100
0010
1000
,  // measure 16
0010
0100
0001
0000
0001
0100
0001
0010
,  // measure 17
1000
0010
0100
0000
0100
0001
0010
0100
,  // measure 18
0001
1000
0100
0000
0001
1000
0001
0100
,  // measure 19
1000
0010
0100
0000
1000
0010
1000
0100
,  // measure 20
0001
1000
0001
1001
1001
0000
0001
0100
,  // measure 21
1000
0100
1000
0010
0000
0100
0001
1000
,  // measure 22
0010
0100
0001
0010
0000
0100
0000
0001
,  // measure 23
0010
0001
0100
0010
1000
0000
0100
0000
,  // measure 24
1000
0000
1000
1000
0001
0000
0101
0000
,  // measure 25
0001
1000
1000
0010
0001
0000
0100
0000
,  // measure 26
0001
0100
0100
1000
0100
0000
0101
0000
,  // measure 27
0010
0000
0010
1000
0100
0000
1000
0100
,  // measure 28
0010
0001
0101
1010
,  // measure 29
0100
0000
0000
0100
0000
0000
0001
0000
1000
0000
0000
0000
0010
0000
0000
0000
,  // measure 30
0100
0000
0000
0001
0000
0000
0010
0000
1000
0000
0000
0000
0110
0000
0000
0000
,  // measure 31
1000
0000
0000
1000
0000
0000
0100
0000
1000
0000
0000
0000
0100
0000
0000
0000
,  // measure 32
0010
0000
0000
0001
0000
0000
0100
0000
0010
0000
0000
0000
0110
0000
0000
0000
,  // measure 33
1000
0010
1000
0100
0000
0000
0101
0000
,  // measure 34
0010
0100
0001
1000
0000
0000
1001
0000
,  // measure 35
0010
0010
0100
0000
0001
1000
0010
0100
,  // measure 36
0001
1000
0000
1000
0001
0100
0000
0101
,  // measure 37
1000
0000
0000
0100
0001
0000
0000
0000
0101
0000
0000
0000
0101
0000
0000
0000
,  // measure 38
0001
0010
0001
0100
0001
0000
0010
0000
,  // measure 39
1000
0010
1000
0100
1000
0000
0010
0000
,  // measure 40
0100
0001
0100
1000
0010
0000
0100
0000
,  // measure 41
1000
0100
1000
0001
0010
0000
0100
0001
,  // measure 42
0010
0100
1000
0000
0001
0000
0101
0010
,  // measure 43
1000
0010
0100
0000
0011
0000
1100
0010
,  // measure 44
1000
0000
1000
0100
0001
0000
0001
0100
,  // measure 45
1000
0010
0100
0000
0101
0000
1010
0000
,  // measure 46
0101
0010
0100
0010
0001
0000
0100
0000
,  // measure 47
0001
0010
0001
1000
0010
0000
0100
0000
,  // measure 48
0001
1000
0010
0000
0010
1000
0100
0001
,  // measure 49
0100
0001
0100
0010
1000
0000
0101
0000
,  // measure 50
0010
1000
0010
0100
0001
0000
0101
0010
,  // measure 51
1000
0000
0000
0000
0001
0000
0000
0000
0100
0000
0000
0010
0000
0000
1000
0000
,  // measure 52
1001
0000
0000
0000
0000
0000
0010
0100
0010
0000
0000
0000
0000
0000
0000
0000
;
