#TITLE:SATURDAY NIGHT;
#SUBTITLE:;
#ARTIST:JESSICA MAUBOY FEAT. LUDACRIS;
#TITLETRANSLIT:;
#SUBTITLETRANSLIT:;
#ARTISTTRANSLIT:;
#CREDIT:;
#BANNER:SATURDAY NIGHT.png.png;
#BACKGROUND:SATURDAY NIGHT.bg.png;
#LYRICSPATH:;
#CDTITLE:;
#MUSIC:SATURDAY NIGHT.mp3;
#OFFSET:-7.600;
#SAMPLESTART:58.000;
#SAMPLELENGTH:12.000;
#SELECTABLE:YES;
#DISPLAYBPM:133.000;
#BPMS:0.000=133.370,48.000=130.590,62.000=133.710,64.000=132.730,68.000=133.851,88.000=133.370,100.000=133.831,102.000=133.350,104.000=132.730,159.000=133.370;
#STOPS:;
#BGCHANGES:;

//---------------dance-single - ----------------
#NOTES:
     dance-single:
     :
     Easy:
     4:
     0.251,0.260,0.200,0.116,0.005:
0200
0000
0300
0000
,
0100
0001
0001
0000
,
0002
0000
0003
0000
,
0010
0110
0000
1000
,
2000
0000
3100
0010
,
0001
0000
0101
0000
,
0020
0000
0130
1000
,
0001
0000
1001
0000
,
0020
0000
0130
0100
,
0001
0100
0001
0000
,
1020
0000
0130
1000
,
0010
0000
0100
1001
,
0020
0000
0030
0000
,
0100
0010
0100
0000
,
0020
0000
0031
0000
,
0001
0100
1000
0000
,
0210
0000
0300
0000
,
0010
0100
0100
0000
,
0020
0000
1030
0100
,
1000
0000
0001
0000
,
1000
0010
1000
0000
,
0100
0001
0001
0000
,
0010
0100
0100
0001
,
0010
0000
0100
0101
,
0010
1000
0010
0000
,
0100
0001
0010
0000
,
1000
1000
0001
0001
,
1000
0000
0010
0110
,
1010
0100
0110
1000
,
0010
0001
0010
0010
,
0010
1000
1000
0001
,
0100
1000
0001
0011
,
1100
0010
0110
1000
,
0001
0100
1000
0001
,
0010
0010
1000
0100
,
0001
0001
1000
1010
,
0100
0001
0100
0010
,
0000
0010
1000
1010
,
0100
0100
0001
0001
,
1000
0010
0100
0001
,
0010
0010
0001
0101
,
0000
0010
0001
0100
,
1000
1000
0001
0001
,
1000
1010
0101
0120
,
0000
0000
0000
0000
0000
0000
0000
0000
0000
0000
0000
0000
0000
0000
0000
0130
;

//---------------dance-single - ----------------
#NOTES:
     dance-single:
     :
     Medium:
     6:
     0.352,0.331,0.305,0.200,0.005:
1002
0000
0000
0100
0000
0000
0013
0000
,
1000
1010
0100
0110
,
0020
0000
1000
1000
0000
0000
1030
0000
,
0100
0000
1001
0000
0000
0010
1000
0000
,
0002
0000
0010
0000
0103
0000
1000
1000
,
2000
3100
0001
0101
,
0020
0000
0100
0000
0130
0000
1000
0010
,
0200
0001
0301
0110
,
2000
0000
0010
0000
3001
0000
0100
0010
,
0020
1030
0100
0110
,
2000
0000
0100
0000
3010
0000
0010
0010
,
0200
0001
0310
0110
,
1020
0000
0130
1000
,
0010
0000
0010
0100
0000
0000
0000
0000
,
0200
0010
0310
0010
,
1000
0000
0001
1000
0000
0000
0110
0000
,
1020
0000
0100
1030
,
1000
0000
0100
0010
0000
0000
0000
0000
,
0201
0010
0310
0001
,
1000
0000
0001
1000
0000
0000
0110
0000
,
1001
0000
0100
0100
0100
0000
1000
0000
,
0010
0000
0010
0100
0000
0000
1000
0000
,
0010
0000
0100
1000
0100
0000
0010
0000
,
0100
0000
0001
0100
0000
0000
1001
0000
,
0011
0000
0001
0000
0100
0000
0010
0010
,
0010
0000
1000
0010
0000
0000
0100
0000
,
0001
0001
0001
0100
,
1000
0000
1000
0010
0000
0000
0110
0000
,
1001
1001
0100
0010
,
1000
0000
0001
0001
0000
0000
0100
0000
,
0010
0000
1000
0001
0100
0000
0010
0000
,
1000
0000
0001
0100
0100
0000
0011
0000
,
1000
0000
0101
0000
0110
0000
1000
0010
,
0001
0100
0100
0001
,
0020
1000
0130
1000
,
0002
0010
0103
0110
,
1002
0000
0100
0000
0013
0000
1000
0010
,
0000
0000
0100
0000
0001
0000
0010
0010
,
0000
0000
0100
0000
0001
0000
1000
0010
,
1000
0001
0100
0101
,
0020
0000
1000
0000
0130
0000
0001
0001
,
0000
0000
0010
0000
0100
0000
0001
1000
,
0010
1000
0000
0010
0100
0000
0101
0000
,
1000
0000
1010
0000
0101
0000
0110
0020
,
0000
0000
0000
0000
0000
0000
0000
0000
0000
0000
0000
0000
0000
0000
0000
0130
;

//---------------dance-single - ----------------
#NOTES:
     dance-single:
     :
     Hard:
     8:
     0.496,0.499,0.337,0.242,0.037: // measure 1
1020
0000
0100
0100
0000
0100
0130
0000
,  // measure 2
1000
0001
1000
0000
0001
1000
0010
0000
,  // measure 3
0210
0000
0001
0001
0000
0001
0301
0000
,  // measure 4
0010
0100
1000
1001
0000
0010
0100
0000
,  // measure 5
2000
0000
3100
0000
0010
0100
0010
0001
,  // measure 6
0020
0001
0031
1010
,  // measure 7
0200
0000
0310
0000
1000
0010
0100
0010
,  // measure 8
2000
0100
3001
0011
,  // measure 9
0020
0000
0001
0000
0031
0000
1000
0010
,  // measure 10
1000
0001
0001
0010
0001
1000
0001
0000
,  // measure 11
0020
1000
0100
1030
,  // measure 12
0100
0100
0001
1000
0010
0100
0110
0000
,  // measure 13
1002
0000
0000
0000
0103
0010
1000
0001
,  // measure 14
0200
0000
0010
0320
0000
0000
0130
0000
,  // measure 15
1020
1000
1030
0100
0001
0000
0001
0100
,  // measure 16
0020
0000
0100
0100
0030
0000
0110
0000
,  // measure 17
1020
0000
0100
0100
0000
0100
0130
0000
,  // measure 18
0010
0001
0001
0200
0000
0000
0310
0000
,  // measure 19
1002
0000
0100
0100
0103
0000
0100
0010
,  // measure 20
0002
0000
0100
0103
0000
0000
0010
1000
,  // measure 21
0001
0100
0010
0000
1000
0010
1000
0100
,  // measure 22
0002
0000
0013
0010
0000
0000
0110
1000
,  // measure 23
0002
0000
0013
0100
1000
0010
0100
0001
,  // measure 24
1000
0010
0010
0010
0000
0100
0001
1000
,  // measure 25
0010
0000
0120
0000
1030
0000
0100
1000
,  // measure 26
0020
0000
1000
1000
0030
1000
1000
0100
,  // measure 27
0002
0000
0103
0000
0100
0001
1000
0010
,  // measure 28
0100
0100
0100
0001
0000
0100
0001
1000
,  // measure 29
1010
0000
1010
0000
1010
0100
0001
1000
,  // measure 30
0010
0001
0010
0001
0000
0100
0001
1000
,  // measure 31
0010
1000
0001
0010
0001
1000
0010
0100
,  // measure 32
1000
0010
0100
0001
0101
0000
0010
0001
,  // measure 33
1000
0000
1010
0100
0001
0010
0001
0100
,  // measure 34
1000
0001
1001
0010
0100
0000
1001
0000
,  // measure 35
1010
0010
0000
0101
0001
1000
0010
0100
,  // measure 36
0010
0000
0001
0100
0001
0000
1000
0000
0001
0100
0001
0000
1000
0000
1010
0000
,  // measure 37
0100
0100
0100
0001
1000
0000
1010
0100
,  // measure 38
0001
0001
0001
1000
0010
0000
1010
0100
,  // measure 39
0001
0100
1000
0000
0001
1000
0001
0010
,  // measure 40
1000
0010
0000
0100
0101
0000
1010
0100
,  // measure 41
0001
0010
0001
0100
0001
0000
1010
0100
,  // measure 42
0001
1000
0010
0100
0001
0000
1010
0100
,  // measure 43
0110
0100
0000
0101
0010
1000
0100
0001
,  // measure 44
0010
0000
1000
0010
1000
0000
0001
0000
0100
0000
0001
0100
0001
0000
1002
0000
,  // measure 45
0000
0000
0000
0000
0000
0000
0000
0000
0000
0000
0000
0000
0000
0000
0000
0000
0000
0000
0000
0000
0000
0000
0000
0000
0000
0000
0000
0000
0000
0000
0000
0000
0100
0000
0000
0000
0000
0000
0000
0000
0000
0000
0000
0000
0000
0100
0000
0000
,  // measure 46
0000
0000
0000
0000
0000
0103
0000
0000
0000
0000
0000
0000
0000
0000
0000
0000
0000
0000
0000
0000
0000
0000
0000
0000
0000
0000
0000
0000
0000
0000
0000
0000
;
