#TITLE:ROGUE;
#SUBTITLE:;
#ARTIST:RE LOCATE;
#TITLETRANSLIT:;
#SUBTITLETRANSLIT:;
#ARTISTTRANSLIT:;
#CREDIT:;
#BANNER:ROGUE.png.png;
#BACKGROUND:ROGUE.bg.png;
#LYRICSPATH:;
#CDTITLE:;
#MUSIC:ROGUE.mp3;
#OFFSET:-7.040;
#SAMPLESTART:27.540;
#SAMPLELENGTH:12.000;
#SELECTABLE:YES;
#BPMS:0.000=140.140;
#STOPS:;
#BGCHANGES:;

//---------------dance-single - ----------------
#NOTES:
     dance-single:
     :
     Easy:
     4:
     0.264,0.253,0.156,0.000,0.000:
0100
0000
0000
0100
0000
0000
0100
0000
,
1000
0000
0000
1000
0000
0000
1000
0000
,
0010
0000
0000
0010
0000
0000
0010
0000
,
0001
0000
0000
0001
0000
0000
0001
0000
,
0010
0010
0010
0000
,
0100
0000
0000
0100
0000
0000
0110
0000
,
0001
0001
0001
0000
,
0001
0000
0000
0001
0000
0000
0101
0000
,
0010
0010
0010
0000
,
1000
0000
0000
1000
0000
0000
1010
0000
,
0100
0000
0000
0100
0000
0000
0100
0000
,
0010
0000
0000
0010
0000
0000
0001
0000
,
1001
0010
1000
0100
,
0001
1000
0000
0100
,
0001
0010
0001
0100
,
0010
1000
0000
0101
,
1000
0010
0001
0100
,
0010
0010
0000
0110
,
1000
0001
0000
0001
,
1000
0010
0000
0110
,
1001
0100
0001
0010
,
1000
1000
0000
0010
,
1000
0100
1000
0010
,
0100
0001
0000
0101
,
0010
1000
0100
0010
,
0001
0001
0000
1100
,
0010
1000
0000
0001
,
1000
1000
0000
1010
,
1001
0010
1000
0100
,
0001
0010
0100
0001
,
1000
0010
0100
0100
,
0001
1000
0010
0101
,
0001
1000
0001
0010
,
0001
1000
0010
0100
,
1000
1000
1000
0100
,
0001
1000
0010
0110
,
1000
0001
0100
0000
,
0001
1000
0010
1000
,
0001
0001
0001
0000
,
0100
0001
1000
0010
,
0001
0010
0001
0000
,
1000
0100
1000
0100
,
0010
0000
0010
0001
,
0100
0000
0100
0110
,
0100
0000
0000
0100
0000
0000
0100
0000
,
0010
0000
0000
0010
0000
0000
0010
0000
,
1000
0000
0000
1000
0000
0000
1000
0000
,
0001
0000
0000
0001
0000
0000
0001
0000
,
0100
0000
0000
0100
0000
0000
0100
0000
,
0010
0000
0000
0010
0000
0000
0010
0000
,
1000
0000
0000
1000
0000
0000
1000
0000
,
0001
0000
0000
0001
0000
0000
0001
0000
,
1001
0000
0000
0000
;

//---------------dance-single - ----------------
#NOTES:
     dance-single:
     :
     Medium:
     6:
     0.367,0.329,0.262,0.000,0.005:
1000
0000
0010
0010
0000
0010
0010
0000
,
0100
0000
0100
0100
0000
0100
0100
0000
,
1010
0000
1000
1000
0000
1000
1000
0000
,
0001
0000
0001
0001
0000
0001
0001
0000
,
1000
0010
0100
0000
0001
0000
0001
0000
,
0001
0010
0100
0000
1000
0000
1001
0000
,
0010
0100
0001
0000
1000
0000
1000
0000
,
0010
1000
0100
0000
1000
0000
0101
0000
,
0010
0010
0100
0000
0001
0000
1000
0000
,
0010
1000
0100
0000
0010
0000
0011
0000
,
1000
0000
1000
1000
0000
1000
1000
0000
,
0001
0000
0000
0000
0001
0000
0001
0000
0000
0001
0000
0000
0001
0000
0000
0000
,
1001
0000
0100
0000
0001
0001
0010
0000
,
1000
1010
0000
0101
,
0110
0000
1000
0000
0001
1000
0010
0000
,
0100
0101
0000
0101
,
0011
0000
0001
0000
0100
0100
0010
0000
,
1000
1010
0000
0110
,
1000
0000
1000
1000
0000
1000
1000
0000
,
0010
0000
0010
0010
0000
0010
0010
0000
,
0110
0000
0001
0000
1000
1000
0010
0000
,
0100
0010
0000
1001
,
0101
0000
0010
0000
1000
0001
0100
0000
,
0010
0100
0000
0101
,
1010
0000
0100
0000
0001
0001
0010
0000
,
1000
0001
0000
0011
,
0010
0000
0010
0010
0000
0010
0010
0000
,
0100
0000
0100
0100
0000
0001
0001
0000
,
1001
0000
0010
0000
0100
0010
0100
0000
,
0001
0000
0010
0010
,
1000
0000
0010
0000
0100
0001
0010
0000
,
1000
0000
0010
0101
,
1000
0000
0010
0000
0100
0001
0100
0000
,
0010
0000
1000
0010
,
1000
0000
1000
1000
1000
0000
0100
0000
,
0001
0000
0001
0001
0001
0000
1001
0000
,
0110
0000
0001
0000
1000
0010
1000
0000
,
0100
0001
0000
0001
,
1000
0000
0010
0000
1000
0010
1000
0000
,
0100
1000
0000
1001
,
0010
0000
0001
0000
0100
0001
0100
0000
,
0010
1000
0000
0001
,
0100
0000
0100
0100
0010
0000
0001
0000
,
1000
0000
0001
0001
1000
0000
0110
0000
,
1001
0000
1000
1000
0000
1000
1000
0000
,
0010
0000
0010
0010
0000
0010
0010
0000
,
0100
0000
0100
0100
0000
0100
0100
0000
,
0001
0000
0001
0001
0000
0001
0001
0000
,
1000
0000
1000
1000
0000
1000
1000
0000
,
0001
0000
0001
0001
0000
0001
0001
0000
,
0100
0000
0100
0100
0000
0100
0100
0000
,
0010
0000
0010
0010
0000
0010
0100
0000
,
1001
0000
0000
0000
;

//---------------dance-single - ----------------
#NOTES:
     dance-single:
     :
     Hard:
     8:
     0.475,0.430,0.253,0.000,0.224: // measure 1
1000
0000
0000
0010
0000
0000
1000
0000
0000
1000
0000
0000
1000
0000
0010
0000
,  // measure 2
0100
0000
0000
0001
0000
0000
0010
0000
0000
0010
0000
0000
0010
0000
0010
0000
,  // measure 3
1000
0000
0000
0001
0000
0000
0100
0000
0000
0010
0000
0000
1000
0000
0001
0000
,  // measure 4
0100
0000
0000
0010
0000
0000
1000
0000
0000
0001
0000
0000
0100
0000
0010
0000
,  // measure 5
1000
0010
0100
1000
0010
0100
0010
0000
,  // measure 6
0010
0001
0100
0000
0001
0000
0011
0000
,  // measure 7
1000
0001
0001
0100
0100
0010
0001
0000
,  // measure 8
0001
0010
0100
0000
0010
0000
0101
0000
,  // measure 9
0010
0010
1000
1000
0001
0100
0010
0000
,  // measure 10
0010
1000
0001
0000
1000
0000
1010
0000
,  // measure 11
0100
0000
0000
0001
0000
0000
0100
0000
0000
0001
0000
0000
0100
0000
0010
0000
,  // measure 12
1000
0000
0000
0000
0000
0000
0000
0000
0000
0010
0000
0000
0000
0000
0000
0000
0000
0000
1000
0000
0000
0000
0000
0000
0001
0000
0000
0000
1000
0000
0000
0010
0000
0000
0000
0000
0000
0100
0000
0000
0000
0000
0000
0000
0000
0000
0000
0000
,  // measure 13
1000
0001
0100
0001
0010
0100
1000
0010
,  // measure 14
0100
0000
0000
0001
0000
0000
0100
0000
0000
0010
0000
0000
1001
0000
0010
0000
,  // measure 15
0100
0001
1000
0010
0100
1000
1000
0100
,  // measure 16
1000
0000
0000
0010
0000
0000
0100
0000
0000
0001
0000
0000
0101
0000
0010
0000
,  // measure 17
0100
1000
0010
0100
0001
1000
0001
0100
,  // measure 18
0010
0000
0000
0001
0000
0000
0100
0000
0000
0010
0000
0000
1010
0000
0100
0000
,  // measure 19
0001
1000
0010
0000
0010
1000
0001
0000
,  // measure 20
0001
1000
0100
0000
0100
1000
0001
0010
,  // measure 21
0001
0010
0100
0001
1000
1000
1000
0010
,  // measure 22
0100
0000
0000
0010
0000
0000
0100
0000
0000
0001
0000
0000
0110
0000
0001
0000
,  // measure 23
1000
0010
0100
0010
0001
0010
0100
0001
,  // measure 24
0010
0000
0000
0010
0000
0000
1000
0000
0000
0010
0000
0000
0110
0000
0001
0000
,  // measure 25
1000
0010
0100
0001
1000
0010
0010
0100
,  // measure 26
0001
0000
0000
0010
0000
0000
0001
0000
0000
0100
0000
0000
0101
0000
0010
0000
,  // measure 27
1000
0000
0000
1000
0000
0000
1000
0000
0000
0100
0000
0000
0001
0000
0010
0000
,  // measure 28
0001
0000
0000
0001
0000
0000
0001
0000
0000
0100
0000
0000
0010
0000
1000
0000
,  // measure 29
0010
1000
0010
0000
0100
0001
0100
0000
,  // measure 30
0010
1010
0100
0101
,  // measure 31
0010
0001
0010
0000
1000
0100
1000
0000
,  // measure 32
0010
0110
0001
0110
,  // measure 33
0001
1000
0001
0000
1000
0001
1000
0000
,  // measure 34
0100
0101
1000
1100
,  // measure 35
0010
1000
0010
1000
0100
0000
0001
0000
,  // measure 36
0010
0001
0010
1000
0001
0000
0100
0001
,  // measure 37
0010
0100
0010
0000
0100
0010
0100
0000
,  // measure 38
0001
1001
0010
1001
,  // measure 39
1000
0010
1000
0000
0001
0100
0001
0000
,  // measure 40
0010
0011
0001
0101
,  // measure 41
0010
0001
0010
0000
1000
0100
1000
0000
,  // measure 42
0010
1010
1000
1100
,  // measure 43
0010
0100
1000
0001
1000
0000
0100
0000
,  // measure 44
0010
0001
0100
0001
1000
0000
0110
0000
,  // measure 45
0010
0000
0000
0010
0000
0000
0010
0000
0000
1000
0000
0000
0001
0000
0100
0000
,  // measure 46
0001
0000
0000
0001
0000
0000
0001
0000
0000
1000
0000
0000
0010
0000
0100
0000
,  // measure 47
1000
0000
0000
1000
0000
0000
1000
0000
0000
0100
0000
0000
0010
0000
0100
0000
,  // measure 48
0001
0000
0000
0001
0000
0000
0001
0000
0000
0010
0000
0000
0100
0000
0001
0000
,  // measure 49
0010
0000
0000
1000
0000
0000
0100
0000
0000
1000
0000
0000
0010
0000
0100
0000
,  // measure 50
0001
0000
0000
0010
0000
0000
0001
0000
0000
0100
0000
0000
0001
0000
1000
0000
,  // measure 51
1010
0000
0000
0100
0000
0000
0001
0000
0000
1000
0000
0000
0010
0000
0100
0000
,  // measure 52
0110
0000
0000
0010
0000
0000
1000
0000
0000
0001
0000
0000
0100
0000
0101
0000
,  // measure 53
1001
0000
0000
0000
;
