#TITLE:RHINESTONE COWBOY (GIDDY UP GIDDY UP);
#SUBTITLE:;
#ARTIST:Rikki & Daz feat. Glen Campbell;
#TITLETRANSLIT:;
#SUBTITLETRANSLIT:;
#ARTISTTRANSLIT:;
#CREDIT:;
#BANNER:RHINESTONE COWBOY (GIDDY UP GIDDY UP).png.png.png;
#BACKGROUND:RHINESTONE COWBOY (GIDDY UP GIDDY UP).bg.png;
#LYRICSPATH:;
#CDTITLE:;
#MUSIC:RHINESTONE COWBOY (GIDDY UP GIDDY UP).mp3;
#OFFSET:-7.640;
#SAMPLESTART:57.680;
#SAMPLELENGTH:12.000;
#SELECTABLE:YES;
#BPMS:0.000=130.080;
#STOPS:;
#BGCHANGES:;

//---------------dance-single - ----------------
#NOTES:
     dance-single:
     :
     Easy:
     4:
     0.295,0.335,0.288,0.257,0.015: // measure 1
1001
0110
0000
0100
,  // measure 2
0002
0000
0003
0010
,  // measure 3
1000
0100
0100
0010
,  // measure 4
0001
0100
0100
0010
,  // measure 5
0200
0000
0000
0310
,  // measure 6
1000
0001
0100
0110
,  // measure 7
1001
0110
0000
0100
,  // measure 8
0020
0000
0030
0001
,  // measure 9
0100
0010
0100
1000
,  // measure 10
0001
0100
0001
1000
,  // measure 11
0020
0000
0031
0100
,  // measure 12
2000
0000
3010
1001
,  // measure 13
0110
0000
0100
0001
,  // measure 14
1002
0000
0103
0010
,  // measure 15
2000
0010
0010
3010
,  // measure 16
0002
0000
0103
0101
,  // measure 17
1001
0000
0010
1000
,  // measure 18
0100
0100
0001
0000
,  // measure 19
0011
0000
0100
0001
,  // measure 20
1000
0010
0100
0110
,  // measure 21
2200
3300
0002
0003
,  // measure 22
0010
0001
0100
0110
,  // measure 23
1000
0000
0010
1000
,  // measure 24
0001
0100
1001
0110
,  // measure 25
0102
0000
0013
1000
,  // measure 26
2000
0000
3010
0001
,  // measure 27
0200
0310
0002
0013
,  // measure 28
0200
0010
0310
0101
,  // measure 29
1001
0110
0000
1000
,  // measure 30
2000
0000
3001
0010
,  // measure 31
0010
0001
0001
0100
,  // measure 32
0010
1000
1000
0001
,  // measure 33
0200
0000
0301
0010
,  // measure 34
1000
0000
0001
1001
,  // measure 35
1010
0110
0000
0010
,  // measure 36
0200
0000
0310
0001
,  // measure 37
0001
0010
0010
0100
,  // measure 38
1000
0010
0010
0100
,  // measure 39
0002
0000
0103
1000
,  // measure 40
0110
0001
0101
1000
,  // measure 41
0020
0000
1030
0100
,  // measure 42
0002
0000
0013
0100
,  // measure 43
0002
0003
2000
3000
,  // measure 44
0010
0100
0001
0101
,  // measure 45
1001
0000
0000
0000
0000
0000
0000
0000
0010
0000
0000
0000
,  // measure 46
0000
0000
0000
0000
0000
0000
0000
0000
0000
0000
0000
0000
0000
1001
0000
0000
,  // measure 47
0000
0200
0000
0000
0000
0000
0000
0000
0300
0000
0000
0000
0000
0000
0000
0000
;

//---------------dance-single - ----------------
#NOTES:
     dance-single:
     :
     Medium:
     5:
     0.397,0.383,0.267,0.380,0.026:
1100
2100
0001
3010
,
0002
0000
0010
0000
0013
0000
1000
0100
,
0020
0000
1000
0000
0130
0000
0001
1000
,
0020
0000
0001
0000
0031
0000
0001
0100
,
2000
0000
0100
0000
3001
0000
0010
0100
,
0001
0010
1010
0101
,
0110
1002
0100
1003
,
0020
0000
0100
0000
1030
0000
1000
0100
,
0002
0000
0010
0000
0103
0000
0100
0001
,
2000
0000
0010
0000
3001
0000
0001
0100
,
0020
0000
0001
0000
0031
0000
0001
0100
,
1000
0000
1000
0100
0001
0000
0110
0000
,
1020
0000
0000
0200
0030
0300
1000
0000
,
2000
3100
0002
0103
,
0020
0100
0100
0130
,
0002
0000
0003
0101
,
0011
0001
0100
0001
,
0001
0000
1000
0000
0010
0100
0001
0000
,
1010
0000
0100
0000
0001
0100
0100
0000
,
0010
1000
0000
0001
0000
0101
0010
0000
,
1200
0300
1000
0201
0000
0000
0301
0000
,
0010
1000
0010
0000
0100
0001
0010
0000
,
0001
0000
1000
0000
0010
0001
0100
0000
,
0010
1000
0100
0000
0010
0000
0101
0000
,
1020
0000
0130
0001
,
0002
0000
0013
0100
,
0200
0301
2000
3010
,
0001
1000
0001
1000
0001
0000
0000
0000
,
0110
0120
0000
1030
,
0200
0000
0001
0000
0310
0000
0010
0100
,
0200
0000
0001
0000
0310
0000
0010
0100
,
2000
0000
0100
0000
3001
0000
0001
0010
,
0200
0000
0010
0000
0301
0000
0010
1000
,
0010
0100
0001
0101
,
0011
0201
0010
0301
,
0020
0000
0001
0000
0130
0000
0100
1000
,
0020
0000
0100
0000
1030
0000
1000
0100
,
0002
0000
0100
0000
1003
0000
0010
0001
,
0200
0000
0001
0000
0310
0000
0010
0100
,
1000
0000
0010
0100
0001
0000
0011
0000
,
1020
0000
0000
0200
0000
0330
1000
0000
,
0002
0013
0200
1300
,
0010
0001
0100
0000
0100
0001
0010
0000
,
1000
1000
0001
0100
0001
0001
1000
0100
,
1001
0000
0000
0000
0000
0000
0000
0000
0000
0000
0000
0000
0000
0000
0000
0000
0000
0000
0000
0000
0000
0000
0000
0000
0000
0000
0000
0000
0000
0000
0000
0000
0000
0000
0010
0000
0000
0000
0000
1001
0000
0000
0000
0000
0000
0000
0000
0000
,
0000
0000
0000
0000
0000
0000
0000
0000
0000
0000
0000
0000
0000
0000
0000
0000
0000
0000
0000
0000
0000
0000
0010
0000
0000
0000
0000
1001
0000
0000
0000
0000
,
0000
0000
0000
0200
0000
0000
0000
0000
0000
0000
0000
0000
0000
0000
0000
0000
0300
0000
0000
0000
0000
0000
0000
0000
0000
0000
0000
0000
0000
0000
0000
0000
;

//---------------dance-single - ----------------
#NOTES:
     dance-single:
     :
     Hard:
     7:
     0.521,0.478,0.329,0.308,0.118:
1010
0000
0102
0000
0013
1000
0100
0001
,
0002
0000
0013
0000
0100
0001
0100
0010
,
0200
0000
1300
0000
0110
0000
0001
0100
,
0002
0000
0013
0100
1000
0001
1000
0020
,
1000
0000
0100
0000
1000
0000
0130
0001
,
0000
1000
0010
0100
0001
1000
0010
0100
,
0001
0000
0000
0001
0100
0000
0010
0000
1000
0000
0000
1000
0100
0000
0010
0000
,
0100
0000
0000
0100
0001
0000
1000
0000
0010
0000
0000
0010
0100
0000
0001
0000
,
1000
0000
0000
0010
1000
0000
0100
0000
1000
0000
0000
0001
0100
0000
0010
0000
,
1000
0000
0000
0010
0100
0000
1000
0000
0001
0000
0000
0100
0010
0000
1000
0000
,
0001
1000
0001
0000
0001
1000
0010
0001
,
0000
0001
0000
0100
0001
0100
0010
0000
,
1020
0000
0000
0230
0000
0000
1300
0000
,
0010
1000
0010
1000
0002
0000
0023
0000
,
0130
1000
0100
1000
0001
1000
0010
0100
,
0001
1000
0000
0010
0101
0000
1010
0100
,
1001
0100
0010
1000
0010
0100
1001
0000
,
0010
0001
0100
0001
0010
1000
0101
0000
,
1000
0100
0001
0100
0010
1000
0001
0100
,
0000
1010
0000
0101
0000
1010
0101
0010
,
1200
0300
1000
0201
0000
0301
0001
0010
,
0100
0100
0100
0001
1000
0010
0100
1010
,
0100
0000
0000
0100
0001
0000
0000
0001
0100
0000
0100
0000
0001
0000
0010
0000
,
0001
0100
0100
0000
0010
0100
1100
0101
,
0002
0010
0100
0000
0013
0000
0101
0000
,
0020
1000
0100
0000
1030
0000
0101
0000
,
0020
0100
0130
0000
0002
1000
1003
0000
,
0010
1000
0001
0100
0010
0100
1000
0100
,
1010
0000
0101
0000
0010
0100
0010
1000
,
0002
0000
0013
0000
0100
1000
0100
1000
,
0020
0000
0130
0000
0001
0100
0001
0010
,
0200
0000
0301
0010
1000
0000
1000
0100
,
0002
0000
0010
0000
0010
0010
1003
2000
,
3200
0000
0310
0001
1000
0000
1010
0000
,
0101
0000
0000
0001
0100
0000
0010
0000
1000
0000
0000
0001
0100
0000
0010
0000
,
1000
0000
0000
0010
1000
0000
0100
0000
0010
0000
0000
1000
0010
0000
0100
0000
,
0001
0000
0000
0100
0001
0000
0010
0000
1000
0000
0000
0100
0001
0000
0010
0000
,
1000
0000
0000
0100
1000
0000
0010
0000
0001
0000
0000
0100
1000
0000
0010
0000
,
0100
0001
0200
0000
0310
1000
0010
0100
,
0001
1000
0110
0000
0001
1000
0101
0000
,
0020
0000
1000
0230
0000
0000
0301
0000
,
0020
2030
3200
0302
,
1003
0010
1000
0101
0010
1000
0010
0100
,
0001
0100
0001
0011
0100
0001
1000
0010
,
1001
0000
0000
0000
0000
0000
0000
0000
0000
0000
0000
0000
0000
0000
0000
0000
0000
0000
0000
0000
0000
0000
0000
0000
0000
0000
0000
0000
0000
0000
0000
0000
0000
0000
0110
0000
0000
0000
0000
0001
0000
0000
0000
0000
0000
0000
0000
0000
,
0000
0000
0000
0000
0000
0000
0000
0000
0000
0000
0000
0000
0000
0000
0000
0000
0000
0000
0000
0000
0000
0000
0010
0000
0000
0000
0000
1001
0000
0000
0000
0000
,
0000
0000
0000
0220
0000
0000
0000
0000
0000
0000
0000
0000
0000
0000
0000
0000
0330
0000
0000
0000
0000
0000
0000
0000
0000
0000
0000
0000
0000
0000
0000
0000
;
