#TITLE:NeverWorld;
#SUBTITLE:;
#ARTIST:Kanon;
#TITLETRANSLIT:;
#SUBTITLETRANSLIT:;
#ARTISTTRANSLIT:;
#CREDIT:;
#BANNER:NEVERWORLD.png.png;
#BACKGROUND:NEVERWORLD.bg.png;
#LYRICSPATH:;
#CDTITLE:;
#MUSIC:NEVERWORLD.mp3;
#OFFSET:-5.160;
#SAMPLESTART:62.620;
#SAMPLELENGTH:12.000;
#SELECTABLE:YES;
#BPMS:0.000=199.980;
#STOPS:256.000=0.300
,263.000=0.300
,270.000=0.300
,277.000=0.300
;
#BGCHANGES:;

//---------------dance-single - ----------------
#NOTES:
     dance-single:
     :
     Easy:
     6:
     0.392,0.457,0.342,0.000,0.000:
0010
0000
0000
0001
0000
0000
0100
0000
,
0000
0000
0010
0000
,
1000
0000
0000
0100
0000
0000
1000
0000
,
0000
0000
0010
0000
,
0101
0000
0100
0000
,
0010
0000
1000
0000
,
0001
0000
0100
0000
,
0010
0000
0100
0000
,
1000
0000
0100
0000
,
0010
0000
0100
0000
,
0001
0000
0010
0000
,
0100
0001
0010
0000
,
1001
0000
1001
0000
0010
1000
0010
0000
,
0001
0100
1000
0100
,
0010
0000
0010
0000
0100
0001
0100
0000
,
1000
0010
0001
0010
,
1000
0000
0001
0000
0100
0010
0100
0000
,
1000
0001
0100
0001
,
1000
0000
0010
0000
1000
0010
0001
0000
,
0100
0001
1000
0000
,
1000
1001
0010
1001
,
0010
0000
0100
0000
,
0010
0011
0001
0101
,
1000
0000
0010
0000
,
0101
0001
1001
0010
,
1000
0000
0100
0000
,
0110
0100
0101
0010
,
1000
0010
1000
0100
,
0001
0000
0101
0000
,
0010
0000
0110
0000
,
1001
0000
0100
0000
,
0010
0000
0000
0000
,
0110
0000
0010
1000
,
0100
0100
0100
0001
,
0010
0000
0010
0001
,
0100
0001
1000
0001
,
0010
0000
0010
1000
,
0100
0100
0100
0001
,
1000
0000
1000
0010
,
0001
0010
0001
0100
,
1001
0000
0100
0000
,
0101
0000
0100
0000
,
0011
0000
0001
0000
,
0110
0000
0100
0000
,
1000
0001
0010
0000
,
0100
0010
0001
0000
,
0100
0010
0001
0000
,
1000
0010
1000
0000
,
1010
0000
0000
0100
0000
0000
1001
0000
,
0010
1000
0100
0000
,
0101
0000
0000
0010
0000
0000
0101
0000
,
0010
0000
1000
0000
,
0110
0000
0000
0010
0000
0000
0101
0000
,
0010
1000
0001
0000
,
0110
0000
0000
1000
0000
0000
1010
0000
,
0100
0000
0010
0000
,
1001
0010
1000
1000
,
0100
0001
1000
0010
,
1000
0000
0010
1000
0000
1000
0100
0000
,
0010
0100
0001
0101
,
0010
0010
0010
0001
,
0100
0000
1000
0000
0100
0010
0100
0000
,
0001
0000
1000
0000
0001
1000
0001
0000
,
0000
0000
0000
0000
,
1000
0010
0000
0100
,
0001
0100
0001
0010
,
0100
0000
0100
0001
,
0100
0001
0010
0100
,
0000
0001
0010
1000
,
0010
0100
1000
0000
,
1000
0100
0001
0100
,
1001
0000
0010
0000
,
1000
0000
0010
0000
0100
0010
0001
0000
,
1001
0000
0010
0001
,
0100
0000
0001
0000
1000
0001
1000
0000
,
1010
0000
0100
0001
,
1010
0000
0000
0000
0001
1000
0001
0000
,
0110
0100
0101
0010
,
1000
0001
1000
0001
1000
0000
0110
0000
,
1001
0010
1000
0000
,
1000
0000
0100
0000
,
0010
1000
0001
0000
,
0100
0000
0001
0000
;

//---------------dance-single - ----------------
#NOTES:
     dance-single:
     :
     Medium:
     8:
     0.603,0.573,0.508,0.000,0.000:
1010
0000
0000
0100
0000
0000
0110
0000
,
0010
0000
0001
0000
0100
0001
0000
0000
,
0101
0000
0000
0100
0000
0000
0110
0000
,
0010
0000
1000
0000
0001
1000
0001
0000
,
1001
0100
0101
0010
,
0001
0000
1000
0000
0010
1000
0001
0000
,
0100
0000
0000
0001
0000
0000
0010
0000
,
1000
0000
0010
0000
0001
1000
0001
0000
,
1010
0100
0110
1000
,
0001
0000
0100
0000
0010
1000
0010
0000
,
0100
0000
0001
1000
0000
1000
0010
0000
,
0101
0000
0000
1001
,
1001
0000
0010
0000
1000
0010
1000
0000
,
1000
0100
1000
0001
0010
1000
1000
0000
,
0010
0000
0101
0000
0010
0001
0010
0000
,
0001
0100
0010
1000
0001
0100
0100
0000
,
0010
1000
0010
0100
0001
0000
0010
0000
,
0100
0001
0100
0010
1000
0000
0001
0100
,
1000
0001
1000
0000
0001
1000
0001
0000
,
0010
1000
0010
0100
0001
1000
0010
0100
,
0001
0000
0010
0000
0001
0100
0010
0000
,
1000
0101
0010
0101
,
0010
0000
1000
0000
0001
0100
1000
0000
,
0010
1010
0100
1100
,
1010
0000
0100
0000
0001
1000
0010
0000
,
0100
0011
0100
0101
,
0010
0000
1000
0000
0001
1000
0010
0000
,
0100
0000
0001
0100
0001
0010
1000
0000
,
0010
0100
0000
0100
0001
0000
0101
0000
,
0010
1000
0000
0100
1000
0000
1010
0000
,
0100
0001
0000
0010
0001
0000
0100
0000
,
0010
0010
0010
0101
,
0010
1000
0000
0000
0100
0000
1000
0000
,
0010
1000
0010
0100
0001
0000
1000
0000
,
0001
0001
0000
0000
0100
0000
0001
0000
,
0010
0001
0010
0000
0100
0000
0101
0000
,
0010
1000
0000
0000
0100
0000
1000
0000
,
0010
1000
0010
0100
0001
0000
1000
0000
,
0010
0010
0000
0000
0100
0000
0101
0000
,
0010
1000
0010
0100
0001
1000
0001
0000
,
1010
0100
0001
1000
,
0110
1000
0001
0100
,
0101
1000
0001
0010
,
0011
0100
0001
1000
,
1001
0100
0000
0010
0000
0010
1000
0001
,
0100
0010
0000
1000
0000
0001
0100
0010
,
1000
0010
0000
0100
0000
0100
0001
1000
,
0010
0001
0100
0001
,
1001
0000
0000
0101
0000
0000
0110
0000
,
1000
0000
0010
0000
1000
0010
1000
0000
,
0101
0000
0000
1001
0000
0000
0110
0000
,
0010
0000
1000
0000
0001
1000
0010
0000
,
0101
0000
0000
0011
0000
0000
0110
0000
,
1000
0000
0001
0000
0100
0001
0100
0000
,
1010
0000
0000
0110
0000
0000
1001
0000
,
0100
0000
0001
0000
1000
0010
0100
0000
,
0001
1000
0001
0100
0001
0000
1000
0000
,
0010
0000
0100
0000
0001
1000
0100
0000
,
0010
1000
0010
0100
0010
0000
1000
0000
,
0001
0000
0011
0000
0100
0100
0010
0000
,
1000
0001
0010
0001
0010
0000
0001
0000
,
0100
0001
0010
0000
1000
0000
1010
0000
,
0100
0001
1000
0010
0100
0001
1000
0000
,
0000
0000
0000
0000
,
1001
0000
0010
0000
1000
0000
0001
1000
,
0001
1000
0001
0000
0010
0000
0100
0000
,
0010
0000
0001
0000
0100
0001
0100
0001
,
0100
0010
1000
0100
,
0001
0000
0010
1000
0010
0100
0010
0000
,
1000
0001
1000
0010
,
1000
0001
0100
0001
0100
0000
0001
0000
,
0010
1000
0000
0000
0101
0000
1001
0000
,
0010
1000
0010
1000
0100
0000
0001
0000
,
0010
0001
0000
0000
0101
0000
1010
0000
,
0100
1000
0010
1000
0100
0000
1000
0010
,
0100
0001
0000
0000
1010
0000
0110
0000
,
1000
0001
0000
0000
1010
0000
0101
0000
,
1000
0001
0100
0010
0100
0001
1000
0010
,
0100
0010
0100
0010
0100
0000
1001
0000
,
0110
1000
0001
0100
,
0001
0001
0001
0100
,
1010
0000
0010
1000
0100
0000
0001
0000
,
1000
0010
1000
0100
;

//---------------dance-single - ----------------
#NOTES:
     dance-single:
     :
     Hard:
     10:
     0.838,0.727,0.379,0.000,0.000: // measure 1
1010
0000
0100
0010
0000
0100
0001
0000
,  // measure 2
0010
0100
0001
0100
0001
1000
0001
0000
,  // measure 3
0110
0000
1000
0010
0000
1000
0100
0000
,  // measure 4
0001
0010
0100
1000
0010
0100
0001
0000
,  // measure 5
0101
0010
0100
0010
0100
0001
1000
0000
,  // measure 6
0010
0100
0001
0010
1000
0100
1100
0000
,  // measure 7
0010
0100
0001
1000
0010
0100
0010
0000
,  // measure 8
1000
0001
0100
0001
0100
1000
1010
0000
,  // measure 9
0100
0001
0100
0001
0100
0010
0100
0000
,  // measure 10
1000
0001
0010
0100
0001
0010
0011
0000
,  // measure 11
0100
0001
0100
0001
0010
1000
0010
0000
,  // measure 12
0101
0000
0101
0000
0010
1000
0010
1000
,  // measure 13
0110
0000
0101
0000
0010
0100
1000
0100
,  // measure 14
0001
0010
0100
1000
0001
1000
0001
0100
,  // measure 15
0001
0010
0001
0100
0001
1000
0001
0100
,  // measure 16
0010
1000
0010
0100
1000
0100
0010
1000
,  // measure 17
0001
0001
0001
0100
0010
1000
0100
0010
,  // measure 18
1000
1000
1000
0100
0010
0001
0100
0010
,  // measure 19
1000
0100
0001
0100
0010
0010
1000
0001
,  // measure 20
0010
0001
0010
1000
0100
0100
0001
0010
,  // measure 21
1000
0010
1000
0100
0001
1000
0001
0000
,  // measure 22
0100
0001
0101
0000
0010
1000
1010
0000
,  // measure 23
0100
0001
0010
0001
1000
1000
1000
0000
,  // measure 24
0010
1000
1010
0000
0001
0100
0101
0000
,  // measure 25
0001
0001
0001
0100
0001
1000
0010
0000
,  // measure 26
1000
0010
0110
0000
0001
1000
0101
0000
,  // measure 27
0010
0010
0010
0001
0100
0100
0100
0000
,  // measure 28
0001
1000
0001
1000
0010
0100
0010
0001
,  // measure 29
1000
0010
1000
0100
0001
0000
1001
0000
,  // measure 30
0010
0010
0010
0001
0100
0010
1001
0000
,  // measure 31
0100
0001
1000
0001
0100
0000
0110
0000
,  // measure 32
1000
0010
1000
0100
0001
1000
1001
0000
,  // measure 33
1000
0010
0000
1000
0010
1000
0100
1000
,  // measure 34
0001
1000
0001
0100
0001
0010
0100
0001
,  // measure 35
0010
0100
0000
0100
0010
1000
0010
0100
,  // measure 36
0001
1000
0010
0100
0001
0001
0100
0001
,  // measure 37
1000
0001
0000
0100
0010
1000
0010
0100
,  // measure 38
0001
1000
0001
0100
0010
1000
0100
1000
,  // measure 39
0100
0001
0000
1000
0010
0001
0010
0100
,  // measure 40
0001
0010
1000
0001
0101
0000
1010
0000
,  // measure 41
0110
1000
0001
0100
0000
0100
0001
1000
,  // measure 42
0010
0100
1000
0001
0000
0001
0100
0001
,  // measure 43
0010
0100
1000
0001
0000
0001
0010
0100
,  // measure 44
0001
1000
0001
0100
0000
0010
1000
0010
,  // measure 45
0001
1000
0010
0100
0010
0100
0001
1000
,  // measure 46
0010
0100
1000
0010
1000
0100
0001
1000
,  // measure 47
0001
0100
0001
1000
0010
1000
0010
0100
,  // measure 48
0001
0010
0100
1000
0001
0010
0100
1000
,  // measure 49
1010
0100
0001
1000
0000
1000
0010
0000
,  // measure 50
0100
0001
0100
0010
1000
0010
0100
0001
,  // measure 51
1010
0100
0001
0010
0000
0010
0100
0000
,  // measure 52
0100
0001
0010
0100
0001
0010
1000
0100
,  // measure 53
0101
1000
0010
0100
0000
0100
0001
0000
,  // measure 54
0001
1000
0001
0100
0010
1000
0010
0100
,  // measure 55
1010
0100
0001
1000
0000
1000
0010
0000
,  // measure 56
0100
0001
1000
0010
0100
0001
0100
0001
,  // measure 57
0100
0001
1000
0100
0001
0100
0001
0100
,  // measure 58
0010
1000
0010
0001
0010
0100
0010
0001
,  // measure 59
1000
0001
0100
0001
1000
0001
0010
1000
,  // measure 60
0010
0001
0010
1000
0100
1000
0100
1000
,  // measure 61
0010
1000
0001
0100
0010
1000
0001
0010
,  // measure 62
0001
0100
0001
1000
0010
0100
0001
1000
,  // measure 63
0010
0100
0001
1000
0010
0100
0001
0000
,  // measure 64
1010
0000
0101
0000
1010
0100
0001
1000
,  // measure 65
0010
0000
0100
1000
0100
0001
0010
0010
,  // measure 66
0010
0001
0100
0100
0100
0001
1000
0000
,  // measure 67
0010
1000
0010
0001
0100
0100
0100
1000
,  // measure 68
0001
0001
0001
0100
0010
0000
1000
0100
,  // measure 69
1000
0010
0001
0001
0001
0100
0010
0010
,  // measure 70
0010
1000
0001
0000
0100
0001
0100
0010
,  // measure 71
1001
0000
0100
0010
0101
0000
0010
0000
,  // measure 72
0011
0001
0000
0001
0100
0001
0100
0010
,  // measure 73
1000
0010
0100
0001
1000
0010
0100
0001
,  // measure 74
1001
0001
0000
0001
0100
0001
0010
0100
,  // measure 75
0001
0010
0100
1000
0010
0100
0001
0010
,  // measure 76
0011
0100
0000
0100
0001
1000
0010
0100
,  // measure 77
1010
0100
0000
0100
0001
1000
0010
0100
,  // measure 78
1001
0100
0001
1000
0010
0100
0001
1000
,  // measure 79
1010
0001
0100
0001
1001
0000
1001
0000
,  // measure 80
1001
0010
1000
0100
1000
0010
0100
0001
,  // measure 81
1000
0001
0100
0010
1000
0001
0100
0000
,  // measure 82
0100
0001
0010
0001
0100
0001
1000
0010
,  // measure 83
0100
0010
0100
0001
1000
0010
0100
0001
;
