#TITLE:NEED TO KNOW;
#SUBTITLE:;
#ARTIST:DOJA CAT;
#TITLETRANSLIT:;
#SUBTITLETRANSLIT:;
#ARTISTTRANSLIT:;
#CREDIT:;
#BANNER:NEED TO KNOW.png;
#BACKGROUND:NEED TO KNOW.bg.png;
#LYRICSPATH:;
#CDTITLE:;
#MUSIC:NEED TO KNOW.mp3;
#OFFSET:-7.540;
#SAMPLESTART:7.480;
#SAMPLELENGTH:12.000;
#SELECTABLE:YES;
#BPMS:0.000=129.950;
#STOPS:;
#BGCHANGES:;

//---------------dance-single - ----------------
#NOTES:
     dance-single:
     :
     Easy:
     4:
     0.227,0.233,0.214,0.000,0.000:
1000
0000
0010
1001
,
0100
0000
0001
0101
,
0010
0000
0100
0110
,
1000
0000
1000
1100
,
1000
0001
0000
0001
,
1000
0001
0100
0000
,
0001
1000
0000
0001
,
1000
0100
1000
0000
,
1000
0000
0100
1001
,
0010
0000
0001
0101
,
0010
0000
1000
1100
,
0010
0000
0100
0110
,
1001
0100
0000
0100
,
0001
0010
0100
0000
,
0100
0010
0000
0010
,
1000
0010
0100
0000
,
1001
0000
0100
0100
,
0010
0000
0010
0100
,
0010
0000
0001
0100
,
0001
0000
1000
0010
,
1000
0000
0100
1000
,
0100
0000
0100
0100
,
0001
0000
0001
0010
,
1000
0000
0010
0110
,
1001
0100
0000
0010
,
0011
0100
0001
0000
,
0001
0000
1000
0000
,
0010
1000
0010
0000
,
0100
0000
0101
0000
,
0001
1000
0001
0000
,
1000
0001
1000
0000
,
0001
1000
0001
0000
,
0010
0000
0011
0000
,
0001
0000
0110
0000
,
1000
0000
0101
0000
,
1000
0000
1100
0010
,
1000
0000
1000
0100
,
0001
0000
0001
0100
,
1000
0000
1000
0010
,
0001
0100
0100
0000
,
1000
0100
0001
0000
,
1001
0000
0100
0001
,
0011
0000
0100
0001
,
0101
0000
1000
0010
,
1000
0001
0000
0001
,
1000
0100
1000
0100
,
0010
0010
0000
0010
,
0001
0100
0001
0000
,
1001
0000
0000
0000
;

//---------------dance-single - ----------------
#NOTES:
     dance-single:
     :
     Medium:
     6:
     0.340,0.327,0.409,0.000,0.000:
1000
0000
0100
0000
1000
0100
0001
0000
,
0010
0000
0001
0000
0001
0010
1000
0000
,
0100
0000
0001
0000
0100
0010
0100
0000
,
1000
0000
0001
0000
0100
0001
0010
0000
,
1001
0101
0000
0010
,
0101
0011
0010
0100
,
1010
1100
0000
0010
,
0110
0000
1001
0000
0100
0001
0100
0000
,
0010
0000
1000
0000
0100
1000
0010
0000
,
0100
0000
0001
0000
0001
0010
1000
0000
,
0100
0000
0010
0000
0100
0001
0100
0000
,
0010
0000
1000
0000
0100
0100
1000
0000
,
1010
0110
0000
0001
,
1001
0000
0110
0000
0010
0100
0000
0000
,
0101
1100
0000
0010
,
0101
0000
0011
0000
1000
0010
0000
0010
,
1000
0000
0001
1001
,
0100
0000
0010
1010
,
0100
0000
0100
1100
,
0010
0000
0010
0011
,
0001
0000
1000
0000
0001
1000
0001
0000
,
0100
0000
0010
0000
1000
0010
0001
0000
,
0100
0000
0010
0000
0100
0001
0100
0000
,
0000
0000
0010
1000
0001
1000
0001
0000
,
1001
0110
0000
0101
,
0011
1100
0010
1000
,
0001
0100
1000
0000
0010
0000
1000
0000
,
0010
0010
0010
0000
0101
0000
0010
0000
,
1000
0010
0001
0100
,
1000
0001
1000
0000
0100
0000
0010
0000
,
0001
0010
1000
0000
0100
0000
0010
0000
,
1000
0010
0001
0000
0100
0000
0001
0000
,
0101
0011
1000
0001
,
0000
1010
0101
0010
,
0000
0011
1100
0010
,
0000
0100
0001
0100
,
0010
1000
0010
0000
0100
0000
0001
0000
,
0010
0001
0010
0000
0001
0000
0100
0000
,
1000
0001
0010
0000
0100
0000
0001
0000
,
1000
0001
1000
0001
1000
0000
1001
0000
,
0000
0100
0001
0100
,
1000
1000
0010
0001
,
0100
0100
0001
1000
,
0001
0001
1000
0010
,
1010
0101
0000
0010
,
1001
0110
0010
1000
,
0101
1010
0000
0100
,
0011
0000
1001
0000
0100
0010
0000
0100
,
1001
0000
0000
0000
;

//---------------dance-single - ----------------
#NOTES:
     dance-single:
     :
     Hard:
     7:
     0.449,0.397,0.409,0.000,0.000: // measure 1
1001
0000
0100
0001
0010
0001
0010
0000
,  // measure 2
0110
0000
1000
0001
1000
0010
1000
0000
,  // measure 3
0110
0000
1000
0001
0100
1000
0100
0000
,  // measure 4
0110
0000
1000
0010
0100
0001
0100
0000
,  // measure 5
0010
0100
0001
1000
0000
0000
0010
1000
,  // measure 6
0001
0100
0010
1000
0001
0000
0101
0000
,  // measure 7
0011
0000
0110
0000
1000
0000
0001
0100
,  // measure 8
1000
0010
0001
0000
0001
0010
0000
0010
,  // measure 9
1001
0000
0100
0001
0010
0010
0010
0000
,  // measure 10
0101
0000
0010
1000
0001
0001
0001
0000
,  // measure 11
0110
0000
0001
1000
0010
0010
0010
0000
,  // measure 12
1100
0000
0010
0100
0001
1000
1000
0000
,  // measure 13
1000
0010
0100
1000
0000
0000
1000
0100
,  // measure 14
0001
1000
0001
0000
0001
0100
0000
0100
,  // measure 15
0001
0010
0001
0100
0000
0000
0110
0000
,  // measure 16
1001
0000
0101
0000
0011
1000
0000
0100
,  // measure 17
0101
0000
0001
0000
0001
1000
0010
0000
,  // measure 18
0110
0000
1000
0001
0100
0001
0100
0000
,  // measure 19
0101
0000
1000
0001
1000
0010
1000
0000
,  // measure 20
1100
0000
0010
0100
0001
1000
0010
0100
,  // measure 21
0011
0000
0100
0001
0100
0001
0010
0000
,  // measure 22
0110
0000
1000
0001
0100
0010
1000
0000
,  // measure 23
1010
0000
0100
0001
0100
0001
0010
0000
,  // measure 24
0010
0000
0001
0100
1000
0010
0001
0000
,  // measure 25
0001
0100
0010
1000
0000
0000
0110
1000
,  // measure 26
0100
1000
0001
0000
0101
0000
0011
0100
,  // measure 27
0001
0001
0001
0000
0101
0000
0010
1000
,  // measure 28
1000
1000
1001
0000
0010
0000
0100
0001
,  // measure 29
0100
0000
0101
0000
0010
1000
0010
0100
,  // measure 30
0001
1000
0010
0000
0100
0000
0001
0000
,  // measure 31
0010
0001
0100
0000
0001
0000
1000
0000
,  // measure 32
0010
1000
0001
0000
0110
0000
1000
0001
,  // measure 33
0001
0100
1000
0000
0101
0000
0010
0100
,  // measure 34
1000
0010
0001
0000
0011
0000
0100
0001
,  // measure 35
1000
0010
0100
0000
1001
0000
0100
0001
,  // measure 36
1000
0010
0100
0000
1000
0010
0100
0000
,  // measure 37
0101
0001
0001
0000
0010
0100
0001
0000
,  // measure 38
1010
0100
0001
0000
0010
0100
0001
0000
,  // measure 39
1100
0100
0100
0000
0010
0100
0001
0000
,  // measure 40
0101
0010
0001
0100
0001
1000
0001
0000
,  // measure 41
1001
0000
0100
0000
0001
0100
0001
0000
,  // measure 42
0101
0000
0100
0000
0001
0010
1000
0000
,  // measure 43
1010
0000
0100
0000
0001
1000
0001
0000
,  // measure 44
0101
0000
0001
0000
1000
0010
0001
0000
,  // measure 45
0100
0001
0010
0100
0000
0000
0010
0100
,  // measure 46
1000
0001
0100
0010
0100
0000
0110
0000
,  // measure 47
0010
0001
0100
1000
0000
0000
1000
0100
,  // measure 48
0001
1000
0001
0000
1000
0001
1000
0000
,  // measure 49
0101
0000
0000
0000
;
